osu file format v9

[General]
AudioFilename: BALLISTA.mp3
AudioLeadIn: 0
PreviewTime: 66824
Countdown: 0
SampleSet: Soft
StackLeniency: 0.7
Mode: 0
LetterboxInBreaks: 1

[Editor]
Bookmarks: 22824,24157,45491,56157,58824,61491,64157,66824,72157,76157,77491,98824,104157
DistanceSpacing: 0.7
BeatDivisor: 4
GridSize: 4

[Metadata]
Title:VALLISTA
Artist:sakuzyo
Creator:Shiirn
Version:Another
Source:BMS
Tags:BMS of Fighters 2011 zelos ziin odaril backfire

[Difficulty]
HPDrainRate:7
CircleSize:3
OverallDifficulty:8
ApproachRate:9
SliderMultiplier:1.89
SliderTickRate:2

[Events]
//Background and Video events
Video,0,"shootinmyarrows.avi"
0,0,"abstractcrap.png"
//Break Periods
2,22365,23232
2,99032,102732
//Storyboard Layer 0 (Background)
Sprite,Background,Centre,"makeitlastawhile.jpg",320,240 F,0,0,122824,1,0
//Storyboard Layer 1 (Fail)
//Storyboard Layer 2 (Pass)
//Storyboard Layer 3 (Foreground)
//Storyboard Sound Samples
//Background Colour Transformations
3,100,163,162,255

[TimingPoints]
166,333.333333333333,4,2,0,80,1,0
13332,-100,4,1,0,50,0,0
13432,-100,4,2,0,80,0,0
14665,-100,4,1,0,50,0,0
14765,-100,4,2,0,80,0,0
15999,-100,4,1,0,50,0,0
16099,-100,4,2,0,80,0,0
17332,-100,4,1,0,50,0,0
17432,-100,4,2,0,80,0,0
18665,-100,4,1,0,50,0,0
18765,-100,4,2,0,70,0,0
19999,-100,4,1,0,40,0,0
20099,-100,4,2,0,60,0,0
21332,-100,4,1,0,30,0,0
21432,-100,4,2,0,50,0,0
23832,-50,4,2,0,50,0,0
24165,-100,4,1,0,60,0,0
66832,-100,4,2,0,100,0,0
72165,-100,4,1,0,65,0,1
76165,-100,4,2,0,90,0,0
77165,-100,4,2,0,50,0,0
77499,-100,4,2,0,90,0,1
77915,-100,4,1,0,65,0,1
80499,-100,4,2,0,90,0,1
80599,-100,4,1,0,65,0,1
83165,-100,4,2,0,90,0,1
83265,-100,4,1,0,65,0,1
85832,-100,4,2,0,90,0,1
85932,-100,4,1,0,65,0,1
87499,-100,4,1,0,80,0,1
88082,-100,4,1,0,65,0,0
88165,-100,4,2,0,100,0,1
88249,-100,4,1,0,65,0,1
90832,-100,4,2,0,100,0,0
91165,-100,4,1,0,50,0,0
93499,-100,4,1,0,50,0,1
97499,-100,4,1,0,50,0,0
98832,-100,4,2,0,50,0,0
98932,-100,4,1,0,50,0,0
109499,-100,4,2,0,100,0,1
109582,-100,4,1,0,50,0,1
110165,-100,4,2,0,100,0,1
110415,-100,4,1,0,50,0,1
110832,-100,4,2,0,100,0,1
110932,-100,4,1,0,50,0,1
111499,-100,4,2,0,100,0,1
111749,-100,4,1,0,50,0,1
112165,-100,4,2,0,100,0,1
112265,-100,4,1,0,50,0,1
112665,-100,4,2,0,100,0,1
112765,-100,4,1,0,50,0,1
113332,-100,4,2,0,100,0,1
113432,-100,4,1,0,50,0,1
114165,-100,4,2,0,100,0,1
114265,-100,4,1,0,50,0,1
114665,-100,4,2,0,100,0,0
114832,-100,4,1,0,50,0,1
114932,-100,4,1,0,50,0,0

[Colours]
Combo1 : 99,145,250
Combo2 : 156,10,235
Combo3 : 5,5,240
Combo4 : 98,33,133

[HitObjects]
80,144,12165,6,0,B|112:56|224:32,1,189,8|2
352,132,12665,1,0
232,112,12832,2,0,B|176:192|184:296,1,189,8|2
256,352,13332,1,4
256,352,13499,6,0,B|288:292|248:216|304:168,1,189,8|2
376,232,13999,1,0
480,312,14165,2,0,B|456:216,1,94.5,8|0
328,40,14499,2,0,B|350:131,1,94.5,2|4
264,144,14832,6,0,B|168:136|80:96,1,189,8|2
0,192,15332,1,0
81,287,15499,2,0,B|168:248|264:240,1,189,8|0
104,192,15999,1,4
104,192,16165,6,0,B|104:144|136:152|168:128,1,94.5,8|0
408,192,16499,2,0,B|408:144|376:152|344:128,1,94.5,2|0
256,48,16832,2,0,B|256:240,1,189,8|2
256,344,17332,1,4
256,344,17499,5,8
402,198,17832,1,2
498,210,17999,1,0
440,288,18165,1,8
110,186,18499,1,2
14,174,18666,1,4
72,96,18832,6,0,B|160:56|256:72,1,189,8|2
256,192,19332,1,0
255,311,19499,2,0,B|352:328|440:288,1,189,8|2
352,216,19999,1,4
424,152,20165,6,0,B|376:136|352:88,1,94.5,8|0
256,56,20499,2,0,B|256:160,1,94.5,2|0
160,56,20832,2,0,B|160:160|80:224,1,189,8|2
83,221,21332,1,4
83,221,21499,5,8
92,232,22165,1,0
312,192,23832,6,2,B|360:165|441:219|424:343|273:348|268:239,1,283.5,2|0
256,272,24165,6,0,B|160:288,1,94.5
56,240,24499,1,8
48,104,24665,1,0
64,112,24749,1,0
80,120,24832,1,0
96,128,24915,1,0
112,136,24999,2,0,B|208:136,1,94.5,0|8
256,48,25332,1,0
400,136,25499,6,0,B|304:136,1,94.5,0|0
488,216,25832,1,8
464,216,25915,1,0
440,216,25999,2,0,B|344:216,1,94.5,0|0
328,336,26332,2,0,B|280:328|256:280,1,94.5,0|8
192,192,26665,5,0
176,224,26749,1,0
144,232,26832,2,0,B|96:224|48:208,1,94.5
0,120,27165,1,8
16,88,27249,1,0
48,80,27332,2,0,B|96:88|144:104,1,94.5
256,104,27665,1,0
360,160,27832,2,0,B|403:174|451:182,1,94.5,8|0
464,288,28165,5,0
456,288,28249,1,0
448,288,28332,1,0
440,288,28415,1,0
432,288,28499,2,0,B|374:276|352:320,1,94.5,8|0
315,216,28832,1,0
320,210,28916,1,0
325,204,28999,1,0
330,198,29082,1,0
336,192,29166,2,0,B|382:155|362:110,1,94.5,8|0
288,48,29499,6,0,B|200:80,1,94.5
104,64,29832,1,8
32,136,29999,2,0,B|104:200|72:312,2,189,0|0|0
152,136,30832,5,0
240,176,30999,2,0,B|232:112|256:72,1,94.5,0|8
368,80,31332,1,0
368,80,31499,2,0,B|400:112|392:168,1,94.5
472,328,31832,2,0,B|440:296|448:240,1,94.5,8|0
264,232,32165,5,0
360,306,32332,1,0
368,168,32499,1,8
368,168,32665,2,0,B|368:277|260:303,2,189
344,136,33415,1,0
320,104,33499,6,0,B|208:104,1,94.5
88,160,33832,2,0,B|192:160,1,94.5,8|0
208,184,34082,1,0
232,216,34165,2,0,B|168:216,2,47.25
104,272,34499,2,0,B|216:272,1,94.5,8|0
288,352,34832,5,0
384,288,34999,1,0
488,304,35165,1,8
488,304,35249,1,0
488,304,35332,1,0
504,192,35499,2,0,B|448:192|424:152,1,94.5
336,80,35832,1,8
336,80,35915,1,0
336,80,35999,1,0
336,80,36082,1,0
336,81,36165,6,0,B|352:128|312:152|321:171,1,94.5
175,81,36499,2,0,B|160:128|200:152|190:171,1,94.5,8|0
192,296,36832,1,0
160,280,36916,1,0
128,264,36999,1,0
320,296,37165,1,8
352,280,37249,1,0
384,264,37332,1,0
416,248,37415,1,0
448,232,37499,6,0,B|440:184|384:168,1,94.5
336,80,37832,1,8
176,80,37999,2,0,B|105:162|153:255,2,189
256,32,38832,5,0
360,48,38999,2,0,B|456:64,1,94.5,0|8
320,156,39332,1,0
128,244,39499,1,0
335,285,39665,1,0
192,132,39832,1,8
217,340,39999,1,0
312,56,40165,6,0,B|216:32,1,94.5
120,48,40499,1,8
192,132,40665,2,0,B|268:180|300:284,2,189
433,108,41499,5,0
433,108,41665,1,0
339,40,41832,2,0,B|292:70|312:138,1,94.5,8|0
104,256,42165,1,0
104,256,42331,1,0
173,344,42498,2,0,B|220:314|200:246,1,94.5,8|0
148,184,42832,6,0,B|104:156|60:184,1,94.5
0,336,43165,2,0,B|44:364|88:336,1,94.5,8|0
248,104,43499,2,0,B|204:76|160:104,1,94.5
100,256,43832,2,0,B|144:284|188:256,1,94.5,8|0
348,24,44165,5,8
348,24,44249,1,0
348,24,44332,2,0,B|304:-4|260:24,1,94.5,0|8
200,176,44665,1,0
200,176,44749,2,0,B|266:218|332:176,1,141.75,0|0
464,176,45165,2,0,B|420:148|376:176,1,94.5,8|0
320,256,45499,5,0
232,344,45665,1,0
120,296,45832,1,8
48,204,45999,2,0,B|32:184|32:160,2,47.25
116,144,46332,2,0,B|111:118|122:97,2,47.25,0|0|8
220,152,46665,5,0
232,120,46749,1,0
248,88,46832,2,0,B|291:76|339:102,1,94.5
388,188,47165,2,0,B|432:200|480:184,1,94.5,8|0
448,88,47499,2,0,B|412:176|448:272,1,189,0|8
368,328,47999,1,0
284,340,48165,6,0,B|240:256,1,94.5
192,340,48499,2,0,B|148:256,1,94.5,8|0
100,344,48832,2,0,B|12:176,1,189,0|8
64,100,49332,1,0
152,52,49499,6,0,B|200:56|232:96,1,94.5
64,160,49832,2,0,B|105:135|154:148,1,94.5,8|0
56,299,50165,2,0,B|104:208|220:232,1,189,0|8
256,332,50665,5,0
256,332,50832,2,0,B|184:288|240:216|204:160,1,189,4|0
296,108,51332,1,0
296,108,51499,2,0,B|348:184|460:192,1,189,0|8
328,348,52165,6,0,B|276:272|164:264,1,189,4|0
72,276,52665,1,0
72,276,52832,2,0,B|124:200|236:192,1,189,0|8
328,204,53332,1,0
328,204,53499,6,0,B|276:128|164:120,1,189,4|8
100,52,53999,1,0
40,132,54165,2,0,B|84:144|100:200,1,94.5
216,212,54499,2,0,B|296:268|404:268,2,189,8|8|0
232,116,55332,1,0
152,76,55499,2,0,B|120:168,1,94.5,8|0
16,116,55832,2,0,B|-8:156|4:208,1,94.5,8|0
83,247,56165,5,0
102,260,56249,1,0
121,273,56332,1,0
141,285,56415,1,0
162,295,56499,1,0
183,304,56582,1,0
205,310,56665,1,0
228,315,56749,1,0
251,316,56832,1,0
274,315,56915,1,0
297,312,56999,1,0
319,305,57082,1,0
341,297,57165,1,0
362,287,57249,1,0
382,275,57332,1,0
400,260,57415,1,0
416,243,57499,5,0
396,229,57582,1,0
377,214,57665,1,0
360,196,57749,1,0
347,175,57832,1,0
336,153,57915,1,0
328,130,57999,1,0
327,106,58082,1,0
334,83,58165,1,0
350,66,58249,1,0
370,54,58332,1,0
393,49,58415,1,0
416,47,58499,1,0
439,49,58582,1,0
459,60,58665,1,0
475,77,58749,1,0
488,96,58832,6,0,B|472:192,1,94.5
480,288,59165,2,0,B|400:344|288:344,1,189,8|0
256,256,59665,1,0
128,256,59832,2,0,B|176:344,1,94.5,8|0
72,312,60165,5,4
36,224,60332,1,0
128,148,60499,1,12
220,212,60665,1,0
91,204,60832,1,4
11,153,60999,1,0
43,38,61166,1,12
148,36,61332,1,0
256,40,61499,5,0
250,62,61582,1,0
244,84,61665,1,0
238,107,61749,1,0
235,130,61832,1,0
236,153,61915,1,0
240,176,61999,1,0
246,198,62082,1,0
253,220,62165,1,0
261,242,62249,1,0
272,262,62332,1,0
286,280,62415,1,0
305,293,62499,1,0
326,302,62582,1,0
348,309,62665,1,0
371,307,62749,1,0
394,305,62832,5,0
386,282,62915,1,0
377,259,62999,1,0
367,237,63082,1,0
355,216,63165,1,0
338,198,63249,1,0
318,184,63332,1,0
297,171,63415,1,0
274,164,63499,1,0
250,160,63582,1,0
226,158,63665,1,0
202,161,63749,1,0
179,166,63832,1,0
158,177,63915,1,0
137,189,63999,1,0
118,203,64082,1,0
100,216,64165,6,0,B|80:260|96:308,1,94.5
96,308,64499,2,0,B|136:220|104:124,1,189,8|0
76,28,64999,1,0
230,54,65165,2,0,B|208:88|244:112|223:144,1,94.5,8|0
140,96,65499,6,0,B|216:40|328:40,1,189,0|8
368,136,65999,1,0
448,192,66165,2,0,B|312:196,1,94.5,0|8
216,176,66499,1,0
184,188,66582,1,0
164,216,66665,1,0
156,248,66749,1,0
164,280,66832,5,4
480,32,67332,1,2
112,352,67832,1,0
24,288,67999,1,0
120,248,68165,1,0
480,352,68665,5,2
112,32,69165,1,0
24,96,69332,1,0
120,136,69498,1,0
488,192,69999,5,2
200,128,70499,1,0
311,128,70665,1,0
256,32,70832,2,0,B|303:20|352:40,1,94.5
416,88,71165,6,0,B|440:64,4,23.625,2|2|2|2|2
336,168,71499,1,0
240,232,71665,2,0,B|216:256,4,23.625,2|2|2|2|2
312,328,71999,1,2
392,296,72165,6,0,B|400:248|436:212,2,94.5,0|0|8
120,296,72665,1,0
120,296,72749,1,0
120,296,72832,2,0,B|111:248|76:212,2,94.5,0|0|8
256,112,73332,5,0
256,128,73415,1,0
256,144,73499,2,0,B|256:240,2,94.5,0|0|8
384,96,73999,5,0
416,80,74082,1,0
448,64,74165,1,8
384,192,74332,5,0
420,192,74415,1,0
456,192,74499,1,8
384,288,74665,2,0,B|426:309,1,47.25
351,281,74832,5,8
318,277,74915,1,0
284,280,74999,1,0
252,289,75082,1,0
221,301,75165,1,8
188,310,75249,1,0
155,312,75332,1,0
122,307,75415,1,0
91,294,75499,1,8
65,273,75582,1,0
46,245,75665,1,0
35,213,75749,1,0
31,180,75832,1,8
32,147,75915,1,0
41,114,75999,1,8
61,88,76082,1,0
86,67,76165,5,2
118,99,76499,1,2
150,131,76832,1,2
182,163,77165,6,0,B|198:179,7,23.625,8|8|8|8|8|8|8|8
216,200,77499,6,6,B|264:216|304:184,1,94.5,4|2
256,88,77832,2,0,B|344:56|440:96,1,189,4|0
432,184,78332,1,0
456,208,78415,1,0
480,232,78499,2,0,B|480:336,1,94.5,8|2
392,272,78832,5,0
352,352,78999,2,0,B|248:320,1,94.5,2|8
200,224,79332,1,2
168,336,79499,2,0,B|112:336|80:296,1,94.5,0|2
48,192,79832,1,8
59,180,79915,1,0
70,169,79999,1,0
81,158,80082,1,0
93,146,80165,6,2,B|138:146|166:95|166:95|200:129|217:179,1,189,0|4
144,224,80665,1,0
84,56,80832,1,0
184,16,80999,1,2
261,88,81165,2,0,B|291:128|298:176,1,94.5,8|2
256,284,81499,5,0
336,336,81665,1,2
432,316,81832,1,8
472,220,81999,1,2
448,192,82082,1,0
408,168,82165,1,0
368,164,82249,1,0
336,176,82332,2,0,B|320:224|268:232,1,94.5,2|8
175,208,82665,2,0,B|160:232|167:252,1,47.25
184,175,82832,5,0
186,142,82915,1,0
182,108,82999,1,0
171,76,83082,1,0
165,43,83165,2,0,B|228:16|288:84|348:40,1,189,4|0
448,60,83665,1,2
356,136,83832,1,8
456,212,83999,2,0,B|412:296,1,94.5,2|0
300,260,84332,5,0
212,332,84499,2,0,B|148:340,3,47.25,8|0|2|0
128,332,84832,2,0,B|84:312|56:272,1,94.5,0|2
48,228,85082,1,0
88,196,85165,2,0,B|132:212|184:204,1,94.5,8|2
168,116,85499,5,4
208,80,85582,1,4
260,92,85665,1,4
304,80,85749,1,4
344,116,85832,1,4
256,192,85999,1,2
344,268,86165,5,0
304,304,86248,1,0
252,292,86331,1,0
208,304,86415,1,0
168,268,86498,1,8
132,238,86582,1,0
139,185,86665,1,2
143,138,86749,1,0
191,113,86832,6,0,B|236:120,3,47.25,0|0|2|0
304,80,87165,2,0,B|344:116,3,47.25,8|0|0|0
424,208,87499,5,2
424,208,87582,1,0
424,208,87665,1,0
424,208,87749,1,2
424,208,87832,1,0
424,208,87915,1,0
424,208,87999,1,2
424,208,88082,1,0
424,208,88165,6,0,B|432:256|472:292,1,94.5,4|0
340,336,88499,2,0,B|316:296|308:248,1,94.5,2|0
256,232,88749,1,0
204,247,88832,2,0,B|196:296|171:336,1,94.5
40,288,89166,2,0,B|77:255|84:207,1,94.5,2|0
24,152,89499,6,0,B|0:112,1,47.25
32,160,89665,2,0,B|68:132|120:136,1,94.5,0|2
256,128,89999,1,0
256,128,90082,1,0
256,128,90165,2,0,B|256:224,1,94.5,0|0
488,152,90499,2,0,B|512:112,1,47.25,2|0
480,160,90665,2,0,B|444:132|392:136,1,94.5,0|4
336,280,91165,5,4
472,72,91499,2,0,B|420:32|336:32,1,141.75,2|2
40,312,91999,1,2
40,312,92165,2,0,B|92:352|176:352,1,141.75,2|2
472,72,92665,1,2
372,348,92999,1,2
16,144,93332,1,2
27,280,93499,5,2
48,256,93582,1,0
68,231,93665,1,0
89,206,93749,1,0
109,182,93832,2,0,B|72:151,3,47.25
138,198,94165,5,0
170,202,94248,1,0
202,204,94331,1,0
235,207,94415,1,0
266,209,94498,2,0,B|272:129,3,47.25
272,128,94832,5,2
245,108,94915,1,0
216,90,94999,1,0
185,78,95082,1,0
152,71,95165,1,0
118,72,95249,1,0
86,81,95332,1,0
65,106,95415,1,0
43,131,95499,5,0
75,147,95582,1,0
112,168,95665,1,0
138,198,95749,1,0
160,220,95832,1,0
128,236,95915,1,0
91,257,95998,1,0
65,287,96082,1,0
96,320,96165,6,0,B|160:352,1,47.25,2|0
192,332,96332,2,0,B|239:332,1,47.25
288,352,96499,2,0,B|336:352,1,47.25
392,344,96665,2,0,B|434:322,1,47.25
472,272,96832,5,0
434,252,96915,1,0
392,241,96999,1,0
350,248,97082,1,0
311,266,97165,1,0
268,264,97249,1,0
227,250,97332,1,0
186,238,97415,1,0
143,246,97499,5,0
368,136,97832,1,0
0,112,98165,1,0
512,272,98499,1,0
256,192,98832,5,4
0,192,103332,5,0
32,192,103415,1,0
64,192,103499,5,0
96,192,103582,1,0
128,192,103665,1,0
160,192,103749,1,0
192,192,103832,1,0
224,192,103915,1,0
256,192,103999,1,0
288,192,104082,1,0
319,191,104165,6,0,B|352:252|319:312,1,126
264,356,104499,1,0
196,372,104610,1,0
132,348,104721,1,0
72,312,104832,6,0,B|40:252|72:192,1,126
128,148,105166,1,0
196,132,105277,1,0
260,156,105388,1,0
319,191,105499,6,0,B|352:252|319:312,1,126
264,356,105833,1,0
196,372,105944,1,0
132,348,106055,1,0
72,312,106166,6,0,B|40:252|72:192,1,126
128,148,106500,1,0
196,132,106611,1,0
260,156,106722,1,0
320,192,106832,6,0,B|400:264,1,94.5,4|0
272,60,107332,1,0
272,60,107499,2,0,B|220:48,3,47.25
172,60,107832,2,0,B|168:108|128:140,1,94.5
12,192,108165,2,0,B|52:166|102:178,1,94.5
88,276,108499,2,0,B|128:288,7,23.625
148,296,108832,2,0,B|188:280|244:288,1,94.5
192,188,109165,6,0,B|160:172,7,23.625
140,160,109499,6,0,B|96:140|28:152,1,94.5,4|0
80,252,109832,1,8
176,332,109999,1,0
212,320,110082,1,0
260,308,110165,2,4,B|312:300|372:336,1,94.5
416,376,110499,6,0,B|424:344,6,23.625,8|0|0|0|0|0|0
420,296,110832,6,0,B|464:316|532:304,1,94.5,4|0
480,204,111165,1,8
384,124,111332,1,0
348,136,111415,1,0
300,148,111498,2,4,B|248:156|188:120,1,94.5
152,72,111832,6,0,B|144:104,7,23.625,0|0|0|0|0|0|0|0
96,44,112165,6,0,B|52:128|64:228,1,189,4|8
416,44,112665,2,0,B|460:128|448:228,1,189,4|8
380,292,113165,2,0,B|400:304,1,23.625
365,311,113248,2,0,B|384:327,1,23.625
347,326,113332,2,0,B|255:367|164:328,1,189,4|12
256,192,113832,5,0
132,92,113999,38,0,B|112:79,1,23.625
147,72,114082,2,0,B|128:57,1,23.625
164,56,114165,2,0,B|256:16|348:56,1,189,4|8
140,212,114665,6,0,B|52:292,1,94.5,4|4
