osu file format v14

[General]
AudioFilename: Scheol.mp3
AudioLeadIn: 0
PreviewTime: 69275
Countdown: 0
SampleSet: Soft
StackLeniency: 0.4
Mode: 0
LetterboxInBreaks: 1
WidescreenStoryboard: 1

[Editor]
Bookmarks: 2400,21575,40775,48575
DistanceSpacing: 2
BeatDivisor: 4
GridSize: 4
TimelineZoom: 1.7

[Metadata]
Title:Scheol
TitleUnicode:Scheol
Artist:sakuzyo
ArtistUnicode:削除
Creator:Zexous
Version:Hades
Source:
Tags:
BeatmapID:1330547
BeatmapSetID:630254

[Difficulty]
HPDrainRate:6
CircleSize:4.3
OverallDifficulty:7.6
ApproachRate:9
SliderMultiplier:1.5
SliderTickRate:1

[Events]
//Background and Video events
0,0,"abstract bird.jpg",0,0
//Break Periods
2,40975,47975
//Storyboard Layer 0 (Background)
//Storyboard Layer 1 (Fail)
//Storyboard Layer 2 (Pass)
//Storyboard Layer 3 (Foreground)
//Storyboard Sound Samples

[TimingPoints]
2400,300,4,2,0,15,1,0
2400,-142.857142857143,4,2,1,15,0,0
11985,300,4,2,1,25,1,0
12285,-100,4,2,1,15,0,0
12585,-100,4,2,1,5,0,0
12885,-100,4,2,1,15,0,0
13185,-100,4,2,1,25,0,0
13485,-100,4,2,1,15,0,0
13785,-100,4,2,1,5,0,0
14085,-100,4,2,1,15,0,0
14385,-100,4,2,1,25,0,0
14685,-100,4,2,1,15,0,0
19185,299.102691924227,4,2,1,15,1,0
19185,-200,4,2,1,10,0,0
19222,-200,4,2,1,5,0,0
19484,-200,4,2,1,15,0,0
19521,-200,4,2,1,5,0,0
19783,-200,4,2,1,20,0,0
19820,-200,4,2,1,5,0,0
20082,-200,4,2,1,25,0,0
20119,-200,4,2,1,5,0,0
20381,-200,4,2,1,30,0,0
20418,-200,4,2,1,5,0,0
20680,-200,4,2,1,35,0,0
20717,-200,4,2,1,5,0,0
20979,-200,4,2,1,40,0,0
21017,-200,4,2,1,5,0,0
21278,-200,4,2,1,45,0,0
21316,-200,4,2,1,5,0,0
21575,300,4,2,2,15,1,0
21575,-125,4,2,0,15,0,0
25025,-83.3333333333333,4,2,1,25,0,0
25325,-83.3333333333333,4,2,1,23,0,0
25475,-90.9090909090909,4,2,1,21,0,0
25625,-90.9090909090909,4,2,1,19,0,0
25775,-100,4,2,1,17,0,0
25925,-100,4,2,1,15,0,0
26075,-111.111111111111,4,2,1,15,0,0
26375,-125,4,2,0,15,0,0
34625,-83.3333333333333,4,2,1,25,0,0
34925,-83.3333333333333,4,2,1,23,0,0
35075,-90.9090909090909,4,2,1,21,0,0
35225,-90.9090909090909,4,2,1,19,0,0
35375,-99.9999999999999,4,2,1,17,0,0
35525,-99.9999999999999,4,2,1,15,0,0
35675,-111.111111111111,4,2,1,13,0,0
35825,-111.111111111111,4,2,1,11,0,0
35975,-125,4,2,0,15,0,0
50675,-142.857142857143,4,2,0,15,0,0
52775,-125,4,2,0,20,0,0
55175,-111.111111111111,4,2,0,35,0,0
56375,-111.111111111111,4,2,0,40,0,0
57575,-100,4,2,0,45,0,0
58775,-100,4,2,0,50,0,0
59975,-200,4,2,1,15,0,0
62375,-166.666666666667,4,2,1,20,0,0
64775,-142.857142857143,4,2,1,25,0,0
65975,-142.857142857143,4,2,1,30,0,0
67175,-125,4,2,1,35,0,0
67475,-125,4,2,1,40,0,0
67775,-125,4,2,1,45,0,0
68075,-125,4,2,1,50,0,0
69585,300,4,1,1,15,1,1
69585,-100,4,1,1,70,0,1
88185,-100,4,1,1,70,0,0
88785,-100,4,1,1,80,0,1
107985,-142.857142857143,4,2,1,60,0,0

[Colours]
Combo1 : 255,255,100
Combo2 : 192,192,192
Combo3 : 255,255,217
Combo4 : 149,149,255
Combo5 : 215,215,215
Combo6 : 147,255,174

[HitObjects]
67,76,2400,21,0,0:0:0:0:
87,99,3300,2,0,L|200:106,1,104.999996795654
211,128,4200,2,0,L|324:135,1,104.999996795654
447,246,4800,38,0,P|456:208|443:136,1,104.999996795654
364,315,5400,2,0,P|392:341|461:366,1,104.999996795654
346,209,6000,2,0,B|293:205|245:225|245:225|193:249|132:243,1,209.999993591309
445,308,7200,37,0,0:0:0:0:
425,285,8100,2,0,L|312:278,1,104.999996795654
301,256,9000,2,0,L|188:249,1,104.999996795654
66,348,9600,38,0,P|55:296|65:245,1,104.999996795654
176,76,10200,2,0,P|186:127|176:178,1,104.999996795654
38,70,10800,2,0,L|251:51,1,209.999993591309
480,192,11985,37,2,0:0:0:0:
480,192,12285,2,2,B|455:188|446:166|446:166|395:188|334:168,1,150,2|0,0:0|0:0,0:0:0:0:
256,240,12885,1,0,0:0:0:0:
32,192,13185,37,2,0:0:0:0:
32,192,13485,2,2,B|57:196|66:218|66:218|117:196|178:216,1,150,2|0,0:0|0:0,0:0:0:0:
256,240,14085,1,0,0:0:0:0:
193,130,14385,38,0,B|167:94|135:70|135:70|99:62|78:34,1,150,2|0,0:0|0:0,0:0:0:0:
319,130,14985,2,0,B|345:94|377:70|377:70|413:62|434:34,1,150
466,223,15435,38,2,L|480:266,2,37.5
441,152,15735,1,2,0:0:0:0:
374,181,15885,1,2,0:0:0:0:
356,251,16035,1,2,0:0:0:0:
399,309,16185,37,2,0:0:0:0:
356,251,16335,1,2,0:0:0:0:
284,232,16485,1,2,0:0:0:0:
217,262,16635,1,2,0:0:0:0:
184,328,16785,38,0,B|127:357|75:345|42:285|59:221|113:199|146:206|146:206|171:167,1,300,2|0,0:0|0:0,0:0:0:0:
327,328,17985,2,0,B|385:357|437:345|470:285|453:221|399:199|366:206|366:206|341:167,1,300
63,42,19185,38,0,L|67:58,1,9.375,2|0,0:0|0:0,0:0:0:0:
66,184,19484,2,0,L|62:168,1,9.375,2|0,0:0|0:0,0:0:0:0:
157,62,19783,2,0,L|161:78,1,9.375,2|0,0:0|0:0,0:0:0:0:
147,236,20082,2,0,L|143:220,1,9.375,2|0,0:0|0:0,0:0:0:0:
251,82,20381,2,0,L|255:98,1,9.375,2|0,0:0|0:0,0:0:0:0:
229,288,20680,2,0,L|225:272,1,9.375,2|0,0:0|0:0,0:0:0:0:
345,102,20979,2,0,L|349:118,1,9.375,2|0,0:0|0:0,0:0:0:0:
315,339,21278,2,0,L|311:323,1,9.375,2|0,0:0|0:0,0:0:0:0:
439,132,21575,22,0,L|415:203,1,60,0|0,1:0|0:0,0:0:0:0:
392,261,21875,1,0,0:0:0:0:
341,201,22025,1,0,0:0:0:0:
267,228,22175,2,0,P|261:197|272:165,2,60
315,93,22625,37,0,1:0:0:0:
315,93,22775,2,0,L|249:75,1,60,0|0,1:0|0:0,0:0:0:0:
183,103,23075,1,0,0:0:0:0:
121,55,23225,1,0,0:0:0:0:
54,95,23375,2,0,L|71:174,1,60
81,230,23675,1,0,0:0:0:0:
179,316,23825,37,0,1:0:0:0:
179,316,23975,2,0,L|245:304,1,60,0|0,1:0|0:0,0:0:0:0:
298,255,24275,1,0,0:0:0:0:
372,278,24425,1,0,0:0:0:0:
369,355,24575,2,0,L|303:367,2,60
454,217,25025,5,2,0:0:0:0:
454,217,25100,1,2,0:0:0:0:
454,217,25175,2,0,P|432:174|388:153,1,89.9999972534181,2|2,0:0|0:0,0:0:0:0:
234,168,25475,2,0,P|278:170|322:142,1,82.5000025177003
379,12,25775,2,0,P|355:53|356:101,1,75,2|2,0:0|0:0,0:0:0:0:
264,81,26075,1,2,0:0:0:0:
183,70,26225,1,0,0:0:0:0:
109,60,26375,22,0,L|47:74,1,60,0|0,1:0|0:0,0:0:0:0:
15,142,26675,1,0,0:0:0:0:
67,199,26825,1,0,0:0:0:0:
49,275,26975,2,0,P|18:261|1:238,2,60
143,207,27425,37,0,1:0:0:0:
143,207,27575,2,0,L|208:198,1,60,0|0,1:0|0:0,0:0:0:0:
272,233,27875,1,0,0:0:0:0:
341,267,28025,1,0,0:0:0:0:
408,305,28175,2,0,L|473:296,2,60
473,179,28625,37,0,1:0:0:0:
473,179,28775,2,0,P|463:149|440:121,1,60,0|0,1:0|0:0,0:0:0:0:
404,59,29075,1,0,0:0:0:0:
330,84,29225,1,0,0:0:0:0:
267,36,29375,1,0,0:0:0:0:
193,61,29525,1,0,0:0:0:0:
120,31,29675,2,0,P|114:68|121:93,1,60
52,202,29975,38,0,L|90:263,1,60,0|0,1:0|0:0,0:0:0:0:
127,317,30275,1,0,0:0:0:0:
193,276,30425,1,0,0:0:0:0:
249,330,30575,2,0,L|311:317,1,60
353,254,30875,2,0,L|291:241,1,60
475,293,31175,38,0,P|480:262|479:232,1,60,0|0,1:0|0:0,0:0:0:0:
448,161,31475,1,0,0:0:0:0:
473,87,31625,1,0,0:0:0:0:
437,17,31775,2,0,P|410:39|398:62,2,60
365,135,32225,37,0,1:0:0:0:
365,135,32375,2,0,L|298:122,1,60,0|0,1:0|0:0,0:0:0:0:
228,111,32675,1,0,0:0:0:0:
150,99,32825,1,0,0:0:0:0:
72,87,32975,2,0,P|85:55|108:33,1,60
150,99,33275,1,0,0:0:0:0:
103,209,33425,37,0,1:0:0:0:
103,209,33575,2,0,L|75:275,1,60,0|0,1:0|0:0,0:0:0:0:
117,332,33875,1,0,0:0:0:0:
163,269,34025,1,0,0:0:0:0:
235,298,34175,2,0,P|216:327|183:342,2,60
293,184,34625,5,2,0:0:0:0:
293,184,34700,1,2,0:0:0:0:
293,184,34775,2,0,P|298:137|275:93,1,89.9999972534181,2|2,0:0|0:0,0:0:0:0:
381,231,35075,2,0,P|338:250|313:290,1,82.5000025177003,2|2,0:0|0:0,0:0:0:0:
378,130,35375,2,0,P|413:154|459:156,1,75,2|2,0:0|0:0,0:0:0:0:
485,80,35675,1,2,0:0:0:0:
423,26,35825,1,2,0:0:0:0:
351,44,35975,22,0,L|286:65,1,60,0|0,1:0|0:0,0:0:0:0:
221,90,36275,1,0,0:0:0:0:
145,71,36425,1,0,0:0:0:0:
80,114,36575,2,0,L|70:187,1,60
65,251,36875,1,0,0:0:0:0:
153,340,37025,37,0,1:0:0:0:
153,340,37175,2,0,L|163:267,1,60,0|0,1:0|0:0,0:0:0:0:
169,202,37475,1,0,0:0:0:0:
238,165,37625,1,0,0:0:0:0:
309,196,37775,2,0,P|291:221|266:236,2,60
375,298,38225,37,0,1:0:0:0:
375,298,38375,2,0,L|451:289,1,60,0|0,1:0|0:0,0:0:0:0:
480,227,38675,1,0,0:0:0:0:
431,165,38825,1,0,0:0:0:0:
256,192,38975,12,0,40775,1:1:0:0:
256,192,48575,12,0,50375,1:0:0:0:
49,129,50675,6,0,L|81:187,1,52.4999983978272
136,182,50975,2,0,L|169:240,1,52.4999983978272
463,255,51425,37,0,0:0:0:0:
463,255,51575,2,0,L|431:197,1,52.4999983978272
376,202,51875,2,0,L|343:144,1,52.4999983978272
256,60,52325,37,0,0:0:0:0:
187,37,52475,2,0,P|184:71|194:98,1,52.4999983978272
357,124,52775,37,0,0:0:0:0:
401,67,52925,1,0,0:0:0:0:
469,90,53075,2,0,P|472:59|461:27,1,60
425,150,53375,2,0,L|425:223,1,60
155,260,53825,37,0,0:0:0:0:
111,317,53975,1,0,0:0:0:0:
43,294,54125,2,0,P|40:325|51:357,1,60
87,234,54425,2,0,L|87:161,1,60
34,90,54725,37,0,0:0:0:0:
136,43,54875,1,0,0:0:0:0:
239,83,55025,1,0,0:0:0:0:
381,37,55175,38,0,L|447:46,2,67.4999979400635,0|0|2,0:0|0:0|0:0,0:0:0:0:
384,153,55625,2,0,L|318:144,2,67.4999979400635,0|0|2,0:0|0:0|0:0,0:0:0:0:
448,201,56075,1,0,0:0:0:0:
431,280,56225,1,0,0:0:0:0:
376,339,56375,38,0,P|355:308|352:275,1,67.4999979400635,2|0,0:0|0:0,0:0:0:0:
256,216,56675,1,0,0:0:0:0:
256,216,56825,2,0,L|256:292,1,67.4999979400635,2|0,0:0|0:0,0:0:0:0:
136,339,57125,1,2,0:0:0:0:
136,339,57275,2,0,P|157:308|160:275,1,67.4999979400635,2|2,0:0|0:0,0:0:0:0:
123,178,57575,38,0,L|50:160,1,75
128,49,57875,1,2,0:0:0:0:
254,140,58025,2,0,L|181:122,1,75
266,16,58325,1,2,0:0:0:0:
392,107,58475,2,0,L|319:89,1,75
461,214,58775,38,0,P|465:173|478:132,2,75,2|0|0,0:0|0:0|0:0,0:0:0:0:
351,259,59225,2,0,P|347:300|334:341,2,75,2|0|2,0:0|0:0|0:0,0:0:0:0:
236,232,59675,2,0,L|154:210,1,75,2|2,0:0|0:0,0:0:0:0:
33,33,59975,21,0,0:0:0:0:
33,33,60125,1,0,0:0:0:0:
91,80,60275,2,0,L|130:73,1,37.5
198,98,60575,2,0,L|237:91,1,37.5
296,49,60875,2,0,L|335:42,1,37.5
481,155,61175,37,0,0:0:0:0:
481,155,61325,1,0,0:0:0:0:
423,202,61475,2,0,L|384:195,1,37.5
316,220,61775,2,0,L|277:213,1,37.5
218,171,62075,2,0,L|179:164,1,37.5
88,279,62375,37,0,0:0:0:0:
88,279,62525,1,0,0:0:0:0:
38,203,62675,2,0,L|90:180,1,44.999998626709
179,273,62975,2,0,L|172:329,1,44.999998626709
48,360,63275,2,0,L|2:326,1,44.999998626709
424,279,63575,37,0,0:0:0:0:
424,279,63725,1,0,0:0:0:0:
432,184,63875,2,0,L|474:203,1,44.999998626709
500,333,64175,2,0,L|464:360,1,44.999998626709
337,317,64474,2,0,L|333:273,1,44.999998626709
151,162,64775,37,0,0:0:0:0:
151,162,64925,1,0,0:0:0:0:
134,28,65075,2,0,P|144:52|144:78,1,52.4999983978272
274,214,65375,2,0,P|248:210|225:198,1,52.4999983978272
44,243,65675,2,0,P|59:222|81:208,1,52.4999983978272
361,162,65975,37,0,0:0:0:0:
361,162,66125,1,0,0:0:0:0:
485,214,66275,2,0,P|459:210|436:198,1,52.4999983978272
254,242,66575,2,0,P|269:221|291:207,1,52.4999983978272
344,28,66875,2,0,P|354:52|354:78,1,52.4999983978272
256,332,67175,37,0,0:0:0:0:
256,332,67325,1,0,0:0:0:0:
169,263,67475,2,0,P|142:239|111:230,1,60,0|2,0:0|0:0,0:0:0:0:
256,220,67775,2,0,L|256:152,1,60,0|2,0:0|0:0,0:0:0:0:
343,263,68075,2,0,P|370:239|401:230,1,60,0|2,0:0|0:0,0:0:0:0:
256,192,68375,12,0,69275,0:0:0:0:
50,93,69585,70,0,P|115:107|203:98,1,150,4|4,0:2|0:0,0:0:0:0:
273,50,70035,1,4,0:0:0:0:
260,250,70185,2,0,L|283:159,1,75,8|0,0:0|0:0,0:0:0:0:
176,264,70485,1,0,0:0:0:0:
344,110,70635,2,0,B|419:105|419:105|490:145,1,150,4|0,0:0|0:0,0:0:0:0:
391,225,71085,1,4,0:0:0:0:
391,225,71160,1,0,0:0:0:0:
391,225,71235,1,0,0:0:0:0:
481,295,71385,2,0,L|390:311,1,75,8|0,0:0|0:0,0:0:0:0:
237,308,71685,2,0,L|328:292,1,75
88,348,71985,37,4,0:0:0:0:
145,278,72135,1,4,0:0:0:0:
80,215,72285,2,0,P|92:177|122:145,1,75,4|0,0:0|0:0,0:0:0:0:
225,58,72585,1,8,0:0:0:0:
225,58,72735,2,0,L|206:153,1,75
270,271,73035,37,6,0:0:0:0:
270,271,73110,1,2,0:0:0:0:
270,271,73185,1,2,0:0:0:0:
292,187,73335,1,2,0:0:0:0:
186,293,73485,1,4,0:0:0:0:
331,332,73635,1,2,0:0:0:0:
284,165,73785,2,0,L|202:152,1,75,10|0,0:0|0:0,0:0:0:0:
361,230,74085,2,0,P|406:227|451:174,1,112.5,2|0,0:0|0:0,0:0:0:0:
457,151,74385,38,0,B|445:194|445:194|482:237|469:295,1,150,4|4,0:0|0:0,0:0:0:0:
405,356,74835,1,0,0:0:0:0:
373,148,74985,2,0,L|399:61,1,75,8|0,0:0|0:0,0:0:0:0:
167,153,75285,1,0,0:0:0:0:
294,96,75435,2,0,B|253:99|219:80|219:80|183:61|143:65,1,150,4|0,0:0|0:0,0:0:0:0:
167,153,75885,1,4,0:0:0:0:
167,153,75960,1,0,0:0:0:0:
167,153,76035,1,0,0:0:0:0:
42,240,76185,2,0,P|88:240|134:225,1,75,8|0,0:0|0:0,0:0:0:0:
289,250,76485,2,0,P|243:250|197:265,1,75
354,329,76785,37,4,0:0:0:0:
472,151,76935,1,4,0:0:0:0:
403,209,77085,2,0,L|435:293,1,75,4|0,0:0|0:0,0:0:0:0:
357,46,77385,37,8,0:0:0:0:
343,134,77535,2,0,P|393:124|428:95,1,75
199,258,77835,37,4,0:0:0:0:
237,176,77985,2,0,L|163:142,1,75
261,75,78285,37,4,0:0:0:0:
290,297,78435,2,0,P|301:256|325:217,1,75,0|8,0:0|0:0,0:0:0:0:
187,342,78735,37,2,0:0:0:0:
395,296,78885,1,10,0:0:0:0:
187,342,79035,1,10,0:0:0:0:
395,296,79185,38,0,P|409:254|356:163,1,150,6|4,0:2|0:0,0:0:0:0:
276,135,79635,1,6,0:0:0:0:
447,27,79785,2,0,L|449:117,1,75,8|0,0:0|0:0,0:0:0:0:
449,131,80010,1,0,0:0:0:0:
449,131,80085,1,2,0:0:0:0:
315,52,80235,2,0,P|271:42|245:22,1,75,4|0,0:0|0:0,0:0:0:0:
123,146,80535,1,0,0:0:0:0:
33,157,80685,2,0,L|61:83,1,75,4|0,0:0|0:0,0:0:0:0:
172,221,80985,1,8,0:0:0:0:
209,72,81135,37,2,0:0:0:0:
167,237,81285,1,2,0:0:0:0:
302,132,81435,1,2,0:0:0:0:
260,297,81585,38,0,P|196:290|121:227,1,150,6|4,0:0|0:0,0:0:0:0:
113,328,82035,1,2,0:0:0:0:
154,148,82185,2,0,L|129:64,1,75,8|0,0:0|0:0,0:0:0:0:
241,183,82485,1,0,0:0:0:0:
280,44,82635,37,6,0:0:0:0:
280,44,82710,1,2,0:0:0:0:
280,44,82785,2,0,L|355:58,2,75,2|2|4,0:0|0:0|0:0,0:0:0:0:
370,181,83235,1,4,0:0:0:0:
450,221,83385,2,0,P|466:185|468:133,1,75,10|2,0:0|0:0,0:0:0:0:
290,141,83685,2,0,P|274:177|272:229,1,75,2|2,0:0|0:0,0:0:0:0:
338,325,83985,38,0,B|335:284|354:250|354:250|373:214|369:174,1,150,4|4,0:0|0:0,0:0:0:0:
316,28,84435,1,4,0:0:0:0:
386,83,84585,2,0,P|429:74|465:54,1,75,8|0,0:0|0:0,0:0:0:0:
200,184,84885,1,0,0:0:0:0:
234,100,85035,2,0,L|144:80,1,75,4|0,0:0|0:0,0:0:0:0:
277,286,85335,2,0,P|279:243|292:209,2,75,0|4|4,0:0|0:0|0:0,0:0:0:0:
474,198,85785,2,0,P|432:158|333:154,1,150,10|0,0:0|0:0,0:0:0:0:
380,257,86235,1,0,0:0:0:0:
272,45,86385,38,0,L|353:36,1,75,6|4,0:0|0:0,0:0:0:0:
370,249,86685,1,10,0:0:0:0:
207,118,86835,38,0,L|126:109,2,75,2|8|0,0:0|0:0|0:0,0:0:0:0:
64,170,87285,37,2,0:0:0:0:
267,253,87435,2,0,P|275:205|256:170,1,75,4|0,0:0|0:0,0:0:0:0:
52,183,87735,37,2,0:0:0:0:
312,317,87885,2,0,P|342:279|343:239,1,75,4|0,0:0|0:0,0:0:0:0:
405,63,88185,2,0,P|385:112|423:170,1,112.5,8|0,0:0|0:0,0:0:0:0:
436,175,88485,1,8,0:0:0:0:
294,50,88635,1,8,0:0:0:0:
132,154,88785,38,0,B|176:94|176:94|152:16,1,150,4|4,0:2|0:0,0:0:0:0:
83,79,89235,1,4,0:0:0:0:
176,232,89385,2,0,L|221:172,1,75,8|0,0:0|0:0,0:0:0:0:
96,267,89685,1,0,0:0:0:0:
315,295,89835,2,0,P|264:247|180:246,1,150,4|0,0:0|0:0,0:0:0:0:
404,331,90285,1,4,0:0:0:0:
404,331,90360,1,0,0:0:0:0:
404,331,90435,1,0,0:0:0:0:
371,162,90585,2,0,L|386:236,1,75,8|0,0:0|0:0,0:0:0:0:
464,138,90885,2,0,L|478:64,1,75
301,76,91185,37,4,0:0:0:0:
382,38,91335,1,4,0:0:0:0:
283,85,91485,2,0,L|201:67,1,75,4|0,0:0|0:0,0:0:0:0:
109,193,91785,1,8,0:0:0:0:
20,182,91935,2,0,P|31:141|63:116,1,75
234,197,92235,37,6,0:0:0:0:
234,197,92310,1,2,0:0:0:0:
234,197,92385,1,2,0:0:0:0:
212,281,92535,1,2,0:0:0:0:
173,136,92685,1,4,0:0:0:0:
318,175,92835,1,2,0:0:0:0:
197,298,92985,2,0,L|110:281,1,75,10|0,0:0|0:0,0:0:0:0:
299,348,93285,2,0,P|321:302|391:268,1,112.5,2|0,0:0|0:0,0:0:0:0:
386,295,93585,38,0,B|406:278|415:248|415:248|407:195|428:152,1,150,4|4,0:0|0:0,0:0:0:0:
460,72,94035,1,0,0:0:0:0:
339,238,94185,2,0,P|319:269|304:313,1,75,8|0,0:0|0:0,0:0:0:0:
361,96,94485,1,0,0:0:0:0:
228,184,94635,2,0,B|154:167|154:167|106:107,1,150,4|0,0:0|0:0,0:0:0:0:
217,71,95085,1,4,0:0:0:0:
217,71,95160,1,0,0:0:0:0:
217,71,95235,1,0,0:0:0:0:
238,195,95385,2,0,P|206:217|161:216,1,75,8|0,0:0|0:0,0:0:0:0:
41,120,95685,2,0,P|73:98|118:99,1,75
58,255,95985,37,4,0:0:0:0:
217,300,96135,2,0,L|135:309,2,75
319,174,96585,37,0,0:0:0:0:
332,326,96735,2,0,P|356:286|360:246,1,75
238,195,97035,37,4,0:0:0:0:
301,61,97185,2,0,L|383:39,1,75
293,256,97485,37,4,0:0:0:0:
164,149,97635,2,0,P|191:121|229:109,1,75,0|8,0:0|0:0,0:0:0:0:
152,250,97935,37,2,0:0:0:0:
173,45,98085,1,10,0:0:0:0:
152,250,98235,1,10,0:0:0:0:
173,45,98385,38,0,B|97:34|97:34|29:68,1,150,6|4,0:2|0:0,0:0:0:0:
25,321,98835,1,4,0:0:0:0:
74,245,98985,2,0,L|65:162,1,75,8|0,0:0|0:0,0:0:0:0:
64,142,99210,1,0,0:0:0:0:
64,142,99285,1,0,0:0:0:0:
247,345,99435,2,0,P|177:365|114:329,1,150,4|0,0:0|0:0,0:0:0:0:
282,263,99885,1,4,0:0:0:0:
282,263,99960,1,0,0:0:0:0:
282,263,100035,1,0,0:0:0:0:
335,336,100185,1,8,0:0:0:0:
206,211,100335,37,2,0:0:0:0:
379,175,100485,1,2,0:0:0:0:
220,99,100635,1,2,0:0:0:0:
393,63,100785,38,0,B|411:102|411:102|465:124|458:194,1,150,6|4,0:0|0:0,0:0:0:0:
418,270,101235,1,6,0:0:0:0:
317,65,101385,2,0,P|325:28|351:-1,1,75,8|0,0:0|0:0,0:0:0:0:
402,259,101685,1,0,0:0:0:0:
250,325,101835,37,6,0:0:0:0:
250,325,101910,1,2,0:0:0:0:
250,325,101985,2,0,L|167:329,2,75,2|2|4,0:0|0:0|0:0,0:0:0:0:
288,178,102435,1,4,0:0:0:0:
249,96,102585,2,0,P|222:127|215:174,1,75,10|2,0:0|0:0,0:0:0:0:
327,260,102885,2,0,P|354:229|361:182,1,75,2|2,0:0|0:0,0:0:0:0:
89,266,103185,38,0,B|129:272|165:256|165:256|202:240|242:248,1,150,4|4,0:0|0:0,0:0:0:0:
116,180,103635,1,4,0:0:0:0:
211,334,103785,2,0,P|250:343|289:366,1,75,8|0,0:0|0:0,0:0:0:0:
326,108,104085,1,0,0:0:0:0:
473,280,104235,2,0,B|395:266|395:266|355:198,1,150,4|0,0:0|0:0,0:0:0:0:
462,173,104685,1,4,0:0:0:0:
462,173,104760,1,0,0:0:0:0:
462,173,104835,1,0,0:0:0:0:
285,28,104985,2,0,P|236:86|254:163,1,150,10|0,0:0|0:0,0:0:0:0:
292,232,105435,1,0,0:0:0:0:
44,348,105585,38,0,L|58:258,2,75,6|4|8,0:0|0:0|0:0,0:0:0:0:
105,111,106035,37,2,0:0:0:0:
41,174,106185,2,0,P|68:199|108:203,1,75,8|0,0:0|0:0,0:0:0:0:
317,157,106485,37,2,0:0:0:0:
404,78,106635,2,0,L|377:3,1,75,4|0,0:0|0:0,0:0:0:0:
355,275,106935,37,2,0:0:0:0:
244,114,107085,2,0,P|271:85|316:74,1,75,4|4,0:0|0:0,0:0:0:0:
179,176,107385,2,0,P|124:175|71:126,1,112.5,10|0,0:0|0:0,0:0:0:0:
64,117,107685,1,8,0:0:0:0:
191,27,107835,1,8,0:0:0:0:
169,263,107985,6,0,L|163:318,1,52.4999983978272,4|0,0:0|0:0,0:0:0:0:
244,303,108285,1,2,0:0:0:0:
244,303,108435,2,0,L|279:346,1,52.4999983978272
327,278,108735,1,2,0:0:0:0:
327,278,108885,2,0,L|382:285,1,52.4999983978272,0|0,3:0|3:0,3:0:0:0:
367,203,109185,1,2,0:0:0:0:
367,203,109335,2,0,L|410:168,1,52.4999983978272,0|0,3:0|3:0,3:0:0:0:
342,121,109635,1,2,0:0:0:0:
342,121,109785,1,0,0:0:0:0:
175,71,109935,5,2,0:0:0:0:
276,43,110085,1,2,0:0:0:0:
247,144,110235,1,2,0:0:0:0:
71,72,110385,22,0,L|62:13,1,52.4999983978272
154,87,110685,1,2,0:0:0:0:
154,87,110835,2,0,L|145:146,1,52.4999983978272
61,212,111135,1,2,0:0:0:0:
61,212,111285,2,0,L|52:153,1,52.4999983978272
147,222,111585,1,2,0:0:0:0:
147,222,111735,2,0,L|138:281,1,52.4999983978272
54,347,112035,1,2,0:0:0:0:
54,347,112185,1,0,0:0:0:0:
227,278,112335,5,2,0:0:0:0:
255,379,112485,1,2,0:0:0:0:
154,350,112635,1,2,0:0:0:0:
280,184,112785,22,0,L|343:175,1,52.4999983978272
378,282,113085,1,2,0:0:0:0:
378,282,113235,2,0,L|388:219,1,52.4999983978272
501,219,113535,1,2,0:0:0:0:
501,219,113685,2,0,L|444:189,1,52.4999983978272
479,82,113985,1,2,0:0:0:0:
479,82,114135,2,0,L|433:126,1,52.4999983978272
342,60,114435,1,2,0:0:0:0:
342,60,114585,1,0,0:0:0:0:
148,115,114735,5,2,0:0:0:0:
251,106,114885,1,2,0:0:0:0:
192,19,115035,1,2,0:0:0:0:
50,150,115185,22,0,L|69:201,1,52.4999983978272
90,299,115485,1,2,0:0:0:0:
90,299,115635,2,0,L|139:321,1,52.4999983978272
224,376,115935,1,2,0:0:0:0:
224,376,116085,2,0,L|275:357,1,52.4999983978272
373,335,116385,1,2,0:0:0:0:
373,335,116535,2,0,L|395:285,1,52.4999983978272
450,202,116835,1,2,0:0:0:0:
450,202,116985,1,0,0:0:0:0:
384,14,117135,5,2,0:0:0:0:
383,118,117285,1,2,0:0:0:0:
473,64,117435,1,2,0:0:0:0:
