osu file format v12

[General]
AudioFilename: Scheol.mp3
AudioLeadIn: 0
PreviewTime: 68675
Countdown: 0
SampleSet: Soft
StackLeniency: 0.7
Mode: 0
LetterboxInBreaks: 0
WidescreenStoryboard: 0

[Editor]
DistanceSpacing: 1
BeatDivisor: 2
GridSize: 4

[Metadata]
Title:Scheol
TitleUnicode:Scheol
Artist:sakuzyo
ArtistUnicode:削除
Creator:HelloSCV
Version:Beginner
Source:
Tags:L'aventale Diverse System scanter -kevincela- kevincela
BeatmapID:298194
BeatmapSetID:114392

[Difficulty]
HPDrainRate:2
CircleSize:3
OverallDifficulty:2
ApproachRate:3
SliderMultiplier:0.799999999999999
SliderTickRate:1

[Events]
//Background and Video events
0,0,"bg.jpg",0,0
//Break Periods
2,40975,48935
//Storyboard Layer 0 (Background)
//Storyboard Layer 1 (Fail)
//Storyboard Layer 2 (Pass)
//Storyboard Layer 3 (Foreground)
//Storyboard Sound Samples
//Background Colour Transformations
3,100,163,162,255

[TimingPoints]
2400,300,4,2,1,40,1,0
2400,-100,4,2,1,40,0,0
3300,-100,4,2,1,20,0,0
7200,-100,4,2,1,40,0,0
8100,-100,4,2,1,20,0,0
11985,300,4,2,1,40,1,0
11985,-100,4,2,1,40,0,0
12285,-100,4,2,1,20,0,0
13185,-100,4,2,1,35,0,0
13485,-100,4,2,1,20,0,0
14385,-100,4,2,1,30,0,0
14685,-100,4,2,1,20,0,0
19184,-100,4,2,1,30,0,0
19185,299.102691924227,4,2,1,30,1,0
21575,300,4,2,1,60,1,0
22175,-100,4,2,1,20,0,0
22775,-100,4,2,1,60,0,0
23375,-100,4,2,1,20,0,0
23975,-100,4,2,1,60,0,0
24575,-100,4,2,1,20,0,0
25175,-100,4,2,1,40,0,0
25775,-100,4,2,1,30,0,0
26075,-100,4,2,1,40,0,0
26375,-100,4,2,1,60,0,0
26975,-100,4,2,1,20,0,0
27575,-100,4,2,1,60,0,0
28175,-100,4,2,1,20,0,0
28775,-100,4,2,1,50,0,0
29375,-100,4,2,1,20,0,0
29975,-100,4,2,1,40,0,0
30575,-100,4,2,1,20,0,0
31175,-100,4,2,1,40,0,0
31775,-100,4,2,1,20,0,0
32375,-100,4,2,1,60,0,0
32975,-100,4,2,1,20,0,0
33575,-100,4,2,1,60,0,0
34175,-100,4,2,1,20,0,0
34775,-100,4,2,1,60,0,0
35375,-100,4,2,1,50,0,0
35675,-100,4,2,1,40,0,0
35975,-100,4,2,1,60,0,0
36575,-100,4,2,1,20,0,0
37175,-100,4,2,1,60,0,0
37775,-100,4,2,1,20,0,0
38375,-100,4,2,1,60,0,0
38975,-100,4,2,1,20,0,0
39575,-100,4,2,1,40,0,0
40175,-100,4,2,1,20,0,0
40775,-100,4,2,1,40,0,0
50375,-100,4,2,1,30,0,0
55175,-100,4,2,1,50,0,0
59975,-100,4,2,1,30,0,0
68375,-100,4,2,1,20,0,0
69585,300,4,1,1,80,1,1
88635,-100,4,1,1,80,0,0
88785,-100,4,1,1,80,0,1
107985,-100,4,2,1,70,0,0
117585,-100,4,2,1,10,0,0
119985,-100,4,2,1,5,0,0

[Colours]
Combo1 : 149,202,255
Combo2 : 255,128,192
Combo3 : 255,255,255

[HitObjects]
72,128,2400,1,2,0:0:0:0:
244,296,3300,2,0,L|328:272,1,79.9999999999999,0|2,0:0|0:0,0:0:0:0:
460,196,4200,2,0,P|424:184|380:188,1,79.9999999999999,0|2,0:0|0:0,0:0:0:0:
304,172,4800,6,0,P|264:128|256:16,2,160,2|2|2,0:0|0:0|0:0,0:0:0:0:
460,196,6600,1,0,0:0:0:0:
332,288,7200,5,2,0:0:0:0:
92,308,8100,2,0,L|60:228,1,79.9999999999999,0|2,0:0|0:0,0:0:0:0:
44,76,9000,2,0,P|80:80|120:108,1,79.9999999999999,0|2,0:0|0:0,0:0:0:0:
184,144,9600,6,0,P|264:144|320:92,2,160,2|2|2,0:0|0:0|0:0,0:0:0:0:
44,76,11400,1,0,0:0:0:0:
28,236,11985,6,0,P|48:308|124:352,1,160,2|0,0:0|0:0,0:0:0:0:
276,344,13185,2,0,P|256:272|180:228,1,160,2|0,0:0|0:0,0:0:0:0:
28,236,14385,6,0,P|40:160|112:92,1,160,2|0,0:0|0:0,0:0:0:0:
248,56,15585,1,2,0:0:0:0:
404,84,16185,2,0,P|396:124|364:164,1,79.9999999999999,2|0,0:0|0:0,0:0:0:0:
296,176,16785,6,0,P|244:184|180:276,1,160,2|0,0:0|0:0,0:0:0:0:
336,304,17985,2,0,P|388:296|452:204,1,160,2|0,0:0|0:0,0:0:0:0:
256,192,19185,12,0,20979,0:0:0:0:
444,196,21575,6,0,L|412:32,1,160,2|0,0:0|0:0,0:0:0:0:
268,100,22775,1,2,0:0:0:0:
116,48,23375,1,0,0:0:0:0:
196,188,23975,6,0,P|208:232|172:352,1,160,2|0,0:0|0:0,0:0:0:0:
52,244,25175,1,2,0:0:0:0:
104,92,25775,2,0,L|200:80,1,79.9999999999999,0|2,0:0|0:0,0:0:0:0:
264,76,26375,6,0,P|328:88|384:172,1,160,2|0,0:0|0:0,0:0:0:0:
352,320,27575,1,2,0:0:0:0:
204,256,28175,1,2,0:0:0:0:
76,352,28775,6,0,L|40:192,1,160,2|0,0:0|0:0,0:0:0:0:
168,99,29975,2,0,L|204:256,1,160,2|0,0:0|0:0,0:0:0:0:
348,324,31175,6,0,P|428:304|460:232,1,160,2|0,0:0|0:0,0:0:0:0:
400,92,32375,1,2,0:0:0:0:
244,56,32975,1,0,0:0:0:0:
144,180,33575,6,0,P|104:204|0:180,1,160,2|0,0:0|0:0,0:0:0:0:
68,324,34775,1,2,0:0:0:0:
216,264,35375,2,0,P|252:256|296:260,1,79.9999999999999,2|0,0:0|0:0,0:0:0:0:
376,260,35975,6,0,P|436:232|456:144,1,160,2|0,0:0|0:0,0:0:0:0:
352,24,37175,1,2,0:0:0:0:
192,40,37775,1,0,0:0:0:0:
60,128,38375,6,0,P|100:168|216:188,1,160,2|0,0:0|0:0,0:0:0:0:
356,172,39575,2,0,P|434:184|494:235,2,160,2|0|4,0:0|0:0|0:0,0:0:0:0:
64,256,50375,6,0,P|164:292|220:272,1,160,2|0,0:0|0:0,0:0:0:0:
336,176,51575,2,0,P|392:164|452:188,2,120,2|2|2,0:0|0:0|0:0,0:0:0:0:
260,196,52775,6,0,P|200:176|152:92,1,160,2|0,0:0|0:0,0:0:0:0:
124,252,53975,2,0,L|100:388,2,120,2|2|2,0:0|0:0|0:0,0:0:0:0:
80,184,55175,6,0,P|148:176|204:252,1,160,2|0,0:0|0:0,0:0:0:0:
268,288,56075,1,0,0:0:0:0:
344,316,56375,2,0,P|388:288|428:220,2,120,2|2|2,0:0|0:0|0:0,0:0:0:0:
328,236,57575,6,0,P|360:164|316:88,1,160,2|0,0:0|0:0,0:0:0:0:
248,80,58475,1,0,0:0:0:0:
180,124,58775,2,0,P|124:132|68:96,2,120,2|2|2,0:0|0:0|0:0,0:0:0:0:
248,80,59975,6,0,L|324:240,1,160,2|0,0:0|0:0,0:0:0:0:
216,348,61175,2,0,L|147:203,1,160,2|0,0:0|0:0,0:0:0:0:
40,84,62375,6,0,P|100:48|188:64,1,160,2|0,0:0|0:0,0:0:0:0:
268,200,63575,2,0,P|344:215|413:178,1,160,2|0,0:0|0:0,0:0:0:0:
268,112,64775,6,0,P|200:144|188:232,1,160,2|0,0:0|0:0,0:0:0:0:
240,372,65975,2,0,P|308:340|320:252,1,160,2|0,0:0|0:0,0:0:0:0:
268,112,67175,6,0,L|436:160,2,160,2|0|0,0:0|0:0|0:0,0:0:0:0:
104,340,69585,6,0,L|52:184,1,160,4|8,0:0|0:0,0:0:0:0:
68,108,70485,1,0,0:0:0:0:
132,156,70785,2,0,P|200:176|272:120,1,160,0|8,0:0|0:0,0:0:0:0:
288,52,71685,1,0,0:0:0:0:
345,107,71985,6,0,L|433:143,2,79.9999999999999,0|0|8,0:0|0:0|0:0,0:0:0:0:
268,127,72885,1,0,0:0:0:0:
320,188,73185,2,0,P|336:243|300:303,2,120
256,236,74385,6,0,P|180:264|100:224,1,160,0|8,0:0|0:0,0:0:0:0:
84,76,75585,2,0,P|148:84|184:176,1,160,0|8,0:0|0:0,0:0:0:0:
140,316,76785,6,0,L|72:370,2,79.9999999999999,0|0|8,0:0|0:0|0:0,0:0:0:0:
204,268,77685,1,0,0:0:0:0:
192,188,77985,2,0,P|252:204|280:296,1,160,0|8,0:0|0:0,0:0:0:0:
272,369,78885,1,0,0:0:0:0:
348,344,79185,6,0,L|424:240,2,120,4|0|0,0:0|0:0|0:0,0:0:0:0:
272,368,80385,2,0,P|192:352|152:280,1,160,0|8,0:0|0:0,0:0:0:0:
156,208,81285,1,0,0:0:0:0:
160,128,81585,6,0,P|144:68|100:32,2,120,4|0|0,0:0|0:0|0:0,0:0:0:0:
156,208,82785,2,0,P|168:248|196:280,1,79.9999999999999
272,260,83385,2,0,P|308:248|396:316,1,160,8|4,0:0|0:0,0:0:0:0:
316,328,84285,5,0,0:0:0:0:
236,336,84585,2,0,P|188:272|228:188,1,160,8|0,0:0|0:0,0:0:0:0:
272,148,85485,1,0,0:0:0:0:
196,120,85785,2,0,L|92:96,1,79.9999999999999,8|0,0:0|0:0,0:0:0:0:
48,144,86385,6,0,P|38:88|71:36,2,120,2|2|2,0:2|0:2|0:2,0:0:0:0:
120,176,87585,2,0,P|152:192|172:312,1,160,0|8,0:0|0:0,0:0:0:0:
136,372,88485,1,0,0:0:0:0:
216,380,88785,6,0,P|256:320|260:224,1,160,4|8,0:0|0:0,0:0:0:0:
244,156,89685,1,0,0:0:0:0:
208,84,89985,2,0,P|284:88|324:160,1,160,0|8,0:0|0:0,0:0:0:0:
336,232,90885,1,0,0:0:0:0:
348,312,91185,6,0,P|372:340|412:364,2,79.9999999999999,0|0|8,0:0|0:0|0:0,0:0:0:0:
336,232,92085,1,0,0:0:0:0:
282,172,92385,2,0,P|246:168|182:272,1,160,0|8,0:0|0:0,0:0:0:0:
258,248,93285,1,0,0:0:0:0:
336,232,93585,6,0,P|408:240|476:176,1,160,0|8,0:0|0:0,0:0:0:0:
344,88,94785,2,0,P|272:80|204:144,1,160,0|8,0:0|0:0,0:0:0:0:
116,264,95985,6,0,P|76:284|32:288,2,79.9999999999999,0|0|8,0:0|0:0|0:0,0:0:0:0:
184,220,96885,1,0,0:0:0:0:
260,192,97185,2,0,P|336:200|376:268,1,160,0|8,0:0|0:0,0:0:0:0:
380,348,98085,1,0,0:0:0:0:
308,312,98385,6,0,P|260:308|176:352,2,120,4|0|0,0:0|0:0|0:0,0:0:0:0:
380,348,99585,2,0,P|424:300|412:200,1,160,0|8,0:0|0:0,0:0:0:0:
360,152,100485,1,0,0:0:0:0:
392,76,100785,6,0,P|444:48|520:48,2,120,4|0|0,0:0|0:0|0:0,0:0:0:0:
360,152,101985,2,0,P|328:176|288:184,1,79.9999999999999
208,184,102585,2,0,P|140:160|68:208,1,160,8|4,0:0|0:0,0:0:0:0:
56,284,103485,5,0,0:0:0:0:
48,364,103785,2,0,P|121:329|128:248,1,160,8|0,0:0|0:0,0:0:0:0:
70,204,104685,1,0,0:0:0:0:
56,124,104985,2,0,P|84:92|120:76,1,79.9999999999999,8|0,0:0|0:0,0:0:0:0:
196,68,105585,6,0,P|256:84|296:140,2,120,2|2|2,0:2|0:2|0:2,0:0:0:0:
212,148,106785,2,0,P|236:212|180:288,1,160,0|8,0:0|0:0,0:0:0:0:
128,136,107985,6,0,P|180:68|256:76,1,160,4|2,0:0|0:0,0:0:0:0:
396,136,109185,2,0,P|344:204|272:200,1,160,0|2,0:0|0:0,0:0:0:0:
196,212,110085,1,0,0:0:0:0:
116,224,110385,6,0,P|160:284|240:280,1,160,0|2,0:0|0:0,0:0:0:0:
212,124,111585,2,0,P|168:64|88:68,1,160,0|2,0:0|0:0,0:0:0:0:
16,100,112485,1,0,0:0:0:0:
20,180,112785,6,0,P|72:224|72:320,1,160,0|2,0:0|0:0,0:0:0:0:
232,348,113985,2,0,P|312:336|372:272,1,160,0|2,0:0|0:0,0:0:0:0:
388,204,114885,1,0,0:0:0:0:
349,133,115185,6,0,P|405:125|469:205,1,160,0|2,0:0|0:0,0:0:0:0:
308,204,116385,2,0,P|268:144|300:68,1,160,0|2,0:0|0:0,0:0:0:0:
376,44,117285,2,0,L|428:36,1,40,2|0,0:0|0:0,0:0:0:0:
256,192,117585,12,0,119985,0:0:0:0:
