osu file format v12

[General]
AudioFilename: Scattered Rose.mp3
AudioLeadIn: 1000
PreviewTime: 33419
Countdown: 0
SampleSet: Soft
StackLeniency: 0.7
Mode: 0
LetterboxInBreaks: 1

[Editor]
DistanceSpacing: 1.9
BeatDivisor: 4
GridSize: 4

[Metadata]
Title:Scattered Rose
TitleUnicode:Scattered Rose
Artist:sakuzyo
ArtistUnicode:sakuzyo
Creator:tort
Version:Extra
Source:BMS
Tags:osnow SakiK TKSalt
BeatmapID:228810
BeatmapSetID:81822

[Difficulty]
HPDrainRate:7
CircleSize:5
OverallDifficulty:8
ApproachRate:9
SliderMultiplier:1.8
SliderTickRate:1

[Events]
//Background and Video events
0,0,"BG.jpg",0,0
//Break Periods
2,54953,56153
//Storyboard Layer 0 (Background)
//Storyboard Layer 1 (Fail)
//Storyboard Layer 2 (Pass)
//Storyboard Layer 3 (Foreground)
//Storyboard Sound Samples
//Background Colour Transformations
3,100,163,162,255

[TimingPoints]
1420,333.333333333333,4,2,1,30,1,0
4086,-200,4,2,1,30,0,0
6253,-133.333333333333,4,2,1,40,0,0
6586,-100,4,2,1,50,0,0
11419,-100,4,2,1,80,0,0
12086,-100,4,2,2,80,0,0
28086,-200,4,2,2,80,0,0
28669,-200,4,2,1,80,0,0
28836,-200,4,2,2,80,0,0
30003,-200,4,2,1,80,0,0
30169,-200,4,2,2,80,0,0
30753,-100,4,2,2,80,0,0
33419,-100,4,2,2,80,0,1
44003,-100,4,2,2,80,0,0
44086,-100,4,2,2,80,0,1
49419,-100,4,2,2,80,0,0
57503,-100,4,2,2,5,0,0
57586,-100,4,2,2,80,0,0
57753,-100,4,2,2,70,0,0
58086,-100,4,2,2,60,0,0
58419,-100,4,2,2,50,0,0
58753,-100,4,2,2,40,0,0
59086,-100,4,2,2,30,0,0
59419,-100,4,2,2,20,0,0
59753,-100,4,2,2,10,0,0
60003,-100,4,2,2,5,0,0

[Colours]
Combo1 : 183,238,202
Combo2 : 169,199,235
Combo3 : 197,184,220

[HitObjects]
103,100,1420,1,0,0:0:0:0:
240,53,1586,1,0,0:0:0:0:
145,167,1753,1,8,0:0:0:0:
282,120,1919,1,0,0:0:0:0:
186,233,2086,5,0,0:0:0:0:
166,63,2253,1,0,0:0:0:0:
334,37,2419,1,8,0:0:0:0:
361,206,2586,1,0,0:0:0:0:
230,299,2753,5,8,0:0:0:0:
306,79,2919,1,8,0:0:0:0:
59,311,3253,1,0,0:0:0:0:
139,160,3419,5,8,0:0:0:0:
325,124,3586,1,0,0:0:0:0:
139,160,3753,1,8,0:0:0:0:
325,124,3919,1,0,0:0:0:0:
211,245,4086,2,0,P|197:268|169:279,2,45,4|0|0,0:0|0:0|0:0,0:0:0:0:
289,51,4753,5,8,0:0:0:0:
333,49,4919,1,0,0:0:0:0:
376,61,5086,1,8,0:0:0:0:
408,92,5253,1,0,0:0:0:0:
424,133,5419,2,0,P|429:162|424:191,1,45,0|0,0:0|0:0,0:0:0:0:
87,253,5919,6,0,L|49:281,1,45,8|0,0:0|0:0,0:0:0:0:
236,108,6253,2,0,L|183:65,1,67.5000025749208,8|0,0:0|0:0,0:0:0:0:
426,290,6586,2,0,L|351:340,1,90,8|4,0:0|0:0,0:0:0:0:
131,70,7419,5,8,0:0:0:0:
393,131,8086,5,8,0:0:0:0:
203,313,8419,1,0,0:0:0:0:
98,197,8586,1,0,0:0:0:0:
221,100,8753,1,8,0:0:0:0:
471,274,9086,6,0,L|340:287,1,90,8|0,0:0|0:0,0:0:0:0:
121,259,9419,1,4,0:0:0:0:
256,192,9503,12,0,10419,0:0:0:0:
256,265,10753,5,0,0:0:0:0:
268,260,10836,1,0,0:0:0:0:
278,252,10919,1,0,0:0:0:0:
287,242,11003,1,0,0:0:0:0:
295,231,11086,1,0,0:0:0:0:
302,219,11169,1,0,0:0:0:0:
306,206,11253,1,0,0:0:0:0:
307,192,11336,1,0,0:0:0:0:
306,178,11419,6,0,L|293:116,1,45,4|0,0:0|0:0,0:0:0:0:
112,20,11586,2,0,L|97:83,1,45,4|0,0:0|0:0,0:0:0:0:
109,297,12086,5,0,0:0:0:0:
193,172,12253,1,0,0:0:0:0:
274,296,12419,1,8,0:0:0:0:
109,297,12586,5,0,0:0:0:0:
88,267,12669,1,0,0:0:0:0:
67,236,12753,1,0,0:0:0:0:
47,206,12836,1,0,0:0:0:0:
74,183,12919,1,0,0:0:0:0:
102,160,13003,1,0,0:0:0:0:
130,138,13086,1,8,0:0:0:0:
158,116,13169,1,0,0:0:0:0:
160,79,13253,1,0,0:0:0:0:
203,279,13419,5,0,0:0:0:0:
312,105,13586,1,0,0:0:0:0:
334,309,13753,1,8,0:0:0:0:
193,151,13919,5,0,0:0:0:0:
187,142,14003,1,0,0:0:0:0:
183,134,14086,1,0,0:0:0:0:
334,194,14253,6,0,L|396:217,1,45
444,334,14419,2,0,L|391:317,1,45,8|0,0:0|0:0,0:0:0:0:
264,360,14586,1,0,0:0:0:0:
440,242,14753,6,0,P|418:170|396:133,2,90,8|0|8,0:0|0:0|0:0,0:0:0:0:
256,280,15253,5,4,0:0:0:0:
256,280,15586,1,4,0:0:0:0:
256,280,15919,1,4,0:0:0:0:
256,280,16086,6,0,P|194:287|138:273,2,90,0|0|8,0:0|0:0|0:0,0:0:0:0:
341,131,16586,1,0,0:0:0:0:
175,86,16753,5,0,0:0:0:0:
122,247,16919,1,0,0:0:0:0:
129,253,17002,1,0,0:0:0:0:
136,260,17086,1,8,0:0:0:0:
143,266,17169,1,0,0:0:0:0:
149,272,17252,1,0,0:0:0:0:
157,279,17336,1,0,0:0:0:0:
163,284,17419,6,0,L|221:259,1,45
296,326,17586,2,0,L|312:262,1,45
415,268,17753,2,0,L|387:221,1,45,8|0,0:0|0:0,0:0:0:0:
471,157,17919,2,0,L|419:146,1,45
413,40,18086,5,0,0:0:0:0:
397,49,18169,1,0,0:0:0:0:
381,59,18253,1,0,0:0:0:0:
366,68,18336,1,0,0:0:0:0:
351,78,18419,5,8,0:0:0:0:
342,113,18503,1,0,0:0:0:0:
334,148,18586,1,0,0:0:0:0:
327,183,18669,1,0,0:0:0:0:
311,192,18753,5,4,0:0:0:0:
115,224,19003,1,0,0:0:0:0:
182,54,19253,1,0,0:0:0:0:
261,314,19419,5,4,0:0:0:0:
115,185,19669,1,0,0:0:0:0:
69,372,19919,1,0,0:0:0:0:
148,238,20086,5,2,0:0:0:0:
148,238,20253,1,2,0:0:0:0:
148,238,20419,1,10,0:0:0:0:
148,238,20586,5,8,0:0:0:0:
182,245,20669,1,0,0:0:0:0:
217,252,20753,1,0,0:0:0:0:
251,260,20836,1,0,0:0:0:0:
280,240,20919,1,8,0:0:0:0:
310,220,21003,1,0,0:0:0:0:
340,200,21086,1,0,0:0:0:0:
370,181,21169,2,0,L|376:127,1,45,0|4,0:0|0:0,0:0:0:0:
256,47,21419,5,2,0:0:0:0:
256,47,21503,1,0,0:0:0:0:
256,47,21586,1,2,0:0:0:0:
124,104,21753,1,2,0:0:0:0:
240,170,21919,1,8,0:0:0:0:
332,279,22086,5,0,0:0:0:0:
309,306,22169,1,0,0:0:0:0:
276,322,22253,1,8,0:0:0:0:
240,325,22336,1,0,0:0:0:0:
204,320,22419,1,0,0:0:0:0:
172,302,22503,1,0,0:0:0:0:
147,276,22586,1,4,0:0:0:0:
244,216,22753,5,0,0:0:0:0:
310,170,22919,1,0,0:0:0:0:
260,105,23086,1,8,0:0:0:0:
194,152,23253,1,0,0:0:0:0:
346,89,23419,5,0,0:0:0:0:
259,62,23586,1,0,0:0:0:0:
177,100,23753,1,8,0:0:0:0:
145,183,23919,1,0,0:0:0:0:
232,161,24086,5,0,0:0:0:0:
143,141,24253,1,0,0:0:0:0:
68,190,24419,1,8,0:0:0:0:
55,279,24586,1,0,0:0:0:0:
4,300,24753,5,0,0:0:0:0:
25,162,24920,1,0,0:0:0:0:
138,89,25086,1,8,0:0:0:0:
273,119,25253,1,0,0:0:0:0:
183,214,25419,5,0,0:0:0:0:
177,258,25586,1,0,0:0:0:0:
171,302,25753,1,8,0:0:0:0:
166,346,25919,1,0,0:0:0:0:
216,247,26086,5,0,0:0:0:0:
210,291,26253,1,0,0:0:0:0:
204,335,26420,1,8,0:0:0:0:
199,379,26586,1,0,0:0:0:0:
253,282,26753,5,0,0:0:0:0:
256,290,26919,1,0,0:0:0:0:
393,248,27086,1,8,0:0:0:0:
386,244,27253,1,0,0:0:0:0:
432,115,27419,1,0,0:0:0:0:
440,114,27586,1,0,0:0:0:0:
368,0,27753,1,8,0:0:0:0:
362,7,27919,1,0,0:0:0:0:
207,8,28086,6,0,P|138:29|81:117,1,180,2|4,0:0|0:0,0:0:0:0:
287,350,29419,6,0,P|356:329|413:241,1,180,2|4,0:0|0:0,0:0:0:0:
246,34,30753,5,0,0:0:0:0:
230,43,30919,1,0,0:0:0:0:
214,52,31086,1,8,0:0:0:0:
198,61,31253,1,0,0:0:0:0:
210,94,31419,5,2,0:0:0:0:
223,127,31503,1,0,0:0:0:0:
230,162,31586,1,2,0:0:0:0:
230,197,31669,1,0,0:0:0:0:
196,210,31753,5,10,0:0:0:0:
185,244,31836,1,0,0:0:0:0:
178,279,31919,1,2,0:0:0:0:
176,315,32003,1,0,0:0:0:0:
210,325,32086,6,0,L|231:352,1,22.5,2|0,0:0|0:0,0:0:0:0:
258,313,32169,2,0,L|289:335,1,22.5,2|0,0:0|0:0,0:0:0:0:
300,286,32253,2,0,L|337:292,1,22.5,2|0,0:0|0:0,0:0:0:0:
331,245,32336,2,0,L|359:238,1,22.5,2|0,0:0|0:0,0:0:0:0:
344,194,32419,2,0,L|376:176,1,22.5,10|0,0:0|0:0,0:0:0:0:
336,145,32503,2,0,L|351:120,1,22.5,2|0,0:0|0:0,0:0:0:0:
305,108,32586,2,0,L|307:81,1,22.5,2|0,0:0|0:0,0:0:0:0:
261,84,32669,2,0,L|255:60,1,22.5,2|0,0:0|0:0,0:0:0:0:
213,81,32753,5,4,0:0:0:0:
105,279,32919,1,4,0:0:0:0:
367,90,33419,6,0,L|456:112,2,90,4|0|8,0:0|0:0|0:0,0:0:0:0:
262,47,33919,5,0,0:0:0:0:
226,52,34003,1,0,0:0:0:0:
190,57,34086,1,0,0:0:0:0:
154,62,34169,1,0,0:0:0:0:
128,87,34253,1,0,0:0:0:0:
102,112,34336,1,0,0:0:0:0:
76,137,34419,1,8,0:0:0:0:
50,162,34503,1,0,0:0:0:0:
51,197,34586,1,0,0:0:0:0:
195,298,34753,6,0,P|254:272|266:206,2,135,2|2|2,0:0|0:0|0:0,0:0:0:0:
186,124,35419,2,0,P|195:59|156:3,2,135,2|2|2,0:0|0:0|0:0,0:0:0:0:
43,201,36086,5,2,0:0:0:0:
40,65,36253,1,2,0:0:0:0:
135,160,36419,1,2,0:0:0:0:
143,24,36586,5,10,0:0:0:0:
156,42,36669,1,0,0:0:0:0:
169,60,36753,1,2,0:0:0:0:
182,77,36836,1,0,0:0:0:0:
195,94,36919,1,10,0:0:0:0:
381,126,37086,5,2,0:0:0:0:
367,154,37169,1,2,0:0:0:0:
352,182,37253,2,0,L|334:222,4,22.5,8|0|0|0|0,0:0|0:0|0:0|0:0|0:0,0:0:0:0:
190,325,37586,5,10,0:0:0:0:
108,212,37753,2,0,L|82:206,6,22.5,2|0|0|0|0|0|0,0:0|0:0|0:0|0:0|0:0|0:0|0:0,0:0:0:0:
138,205,38086,5,8,0:0:0:0:
293,68,38253,1,0,0:0:0:0:
100,18,38419,1,8,0:0:0:0:
138,205,38586,1,0,0:0:0:0:
339,252,38753,5,4,0:0:0:0:
389,42,38919,1,2,0:0:0:0:
379,40,39003,1,0,0:0:0:0:
370,39,39086,1,10,0:0:0:0:
152,151,39253,5,2,0:0:0:0:
160,150,39336,1,0,0:0:0:0:
168,149,39419,1,2,0:0:0:0:
177,148,39503,1,0,0:0:0:0:
185,147,39586,1,0,0:0:0:0:
450,328,39753,5,10,0:0:0:0:
415,319,39836,1,0,0:0:0:0:
380,310,39919,1,2,0:0:0:0:
344,301,40003,1,0,0:0:0:0:
309,292,40086,5,2,0:0:0:0:
89,263,40253,1,2,0:0:0:0:
304,333,40419,1,10,0:0:0:0:
111,228,40586,1,2,0:0:0:0:
250,340,40753,6,0,L|258:411,1,45,2|0,0:0|0:0,0:0:0:0:
143,239,40919,2,0,L|132:297,1,45,2|0,0:0|0:0,0:0:0:0:
292,129,41086,2,0,L|300:200,1,45,10|0,0:0|0:0,0:0:0:0:
127,44,41252,2,0,L|116:102,1,45,2|0,0:0|0:0,0:0:0:0:
218,73,41419,5,2,0:0:0:0:
218,73,41586,1,2,0:0:0:0:
218,73,41753,1,10,0:0:0:0:
218,73,41919,5,8,0:0:0:0:
217,82,42003,1,0,0:0:0:0:
216,90,42086,1,2,0:0:0:0:
215,98,42169,1,0,0:0:0:0:
213,106,42253,2,0,L|203:163,1,45,8|0,0:0|0:0,0:0:0:0:
286,336,42419,6,0,L|274:277,1,45
387,130,42586,2,0,L|374:193,1,45,8|0,0:0|0:0,0:0:0:0:
433,338,42753,5,2,0:0:0:0:
426,331,42836,1,0,0:0:0:0:
419,324,42919,1,2,0:0:0:0:
412,317,43003,1,0,0:0:0:0:
405,310,43086,6,0,L|333:229,1,90,10|8,0:0|0:0,0:0:0:0:
313,224,43336,1,0,0:0:0:0:
277,222,43419,1,0,0:0:0:0:
247,242,43503,1,0,0:0:0:0:
228,272,43586,1,8,0:0:0:0:
201,296,43669,1,0,0:0:0:0:
168,312,43753,6,0,L|153:347,1,22.5
132,312,43836,2,0,L|117:347,1,22.5
96,313,43919,2,0,L|81:348,1,22.5,8|0,0:0|0:0,0:0:0:0:
60,313,44002,2,0,L|45:348,1,22.5
29,289,44086,5,4,0:0:0:0:
123,87,44253,1,0,0:0:0:0:
172,299,44419,1,8,0:0:0:0:
0,162,44586,1,0,0:0:0:0:
227,184,44753,5,2,0:0:0:0:
249,181,44836,1,0,0:0:0:0:
269,172,44919,1,2,0:0:0:0:
287,158,45003,1,0,0:0:0:0:
299,108,45086,5,10,0:0:0:0:
314,91,45169,1,0,0:0:0:0:
334,81,45253,1,2,0:0:0:0:
356,80,45336,1,0,0:0:0:0:
375,90,45419,6,0,P|421:127|443:201,2,135,2|2|2,0:0|0:0|0:0,0:0:0:0:
112,199,46086,2,2,P|66:162|44:88,2,135,2|2|2,0:0|0:0|0:0,0:0:0:0:
254,79,46753,5,2,0:0:0:0:
393,201,46919,1,2,0:0:0:0:
247,333,47086,1,2,0:0:0:0:
251,201,47253,5,8,0:0:0:0:
251,201,47586,5,8,0:0:0:0:
251,201,47919,5,8,0:0:0:0:
123,107,48086,5,2,0:0:0:0:
372,167,48253,1,2,0:0:0:0:
127,174,48419,1,2,0:0:0:0:
376,234,48586,1,2,0:0:0:0:
169,58,48753,5,8,0:0:0:0:
323,273,48919,1,8,0:0:0:0:
123,107,49086,1,8,0:0:0:0:
376,234,49253,1,8,0:0:0:0:
127,174,49419,6,0,P|77:245|101:344,1,180,4|0,0:0|0:0,0:0:0:0:
329,68,50086,5,2,0:0:0:0:
329,68,50336,1,2,0:0:0:0:
329,68,50586,1,2,0:0:0:0:
329,68,50753,6,0,P|384:138|371:240,1,180,4|0,0:0|0:0,0:0:0:0:
100,26,51419,5,2,0:0:0:0:
100,26,51669,1,2,0:0:0:0:
100,26,51919,1,2,0:0:0:0:
100,26,52086,5,8,0:0:0:0:
72,195,52253,1,0,0:0:0:0:
239,223,52419,1,8,0:0:0:0:
264,53,52586,1,0,0:0:0:0:
100,26,52753,5,8,0:0:0:0:
100,61,52836,1,0,0:0:0:0:
102,96,52919,1,0,0:0:0:0:
226,214,53086,5,8,0:0:0:0:
252,236,53169,1,0,0:0:0:0:
280,257,53253,1,0,0:0:0:0:
308,280,53336,1,0,0:0:0:0:
343,276,53419,5,8,0:0:0:0:
412,159,53586,1,8,0:0:0:0:
252,185,53753,1,8,0:0:0:0:
331,25,53919,1,8,0:0:0:0:
161,46,54086,5,8,0:0:0:0:
135,82,54169,1,8,0:0:0:0:
120,125,54253,1,8,0:0:0:0:
109,168,54336,1,8,0:0:0:0:
107,212,54419,6,0,L|104:243,1,22.5,0|0,0:0|0:0,0:0:0:0:
130,261,54503,2,0,L|127:292,1,22.5,0|0,0:0|0:0,0:0:0:0:
94,304,54586,2,0,L|91:335,1,22.5,0|0,0:0|0:0,0:0:0:0:
131,345,54670,2,0,L|128:376,1,22.5,0|0,0:0|0:0,0:0:0:0:
90,384,54753,5,4,0:0:0:0:
281,65,56753,5,2,0:0:0:0:
255,89,56836,1,0,0:0:0:0:
231,115,56919,1,0,0:0:0:0:
255,141,57003,1,0,0:0:0:0:
281,164,57086,1,2,0:0:0:0:
256,190,57169,1,0,0:0:0:0:
230,215,57253,1,0,0:0:0:0:
256,238,57336,1,0,0:0:0:0:
256,273,57419,6,0,L|256:332,1,45,4|0,0:0|0:0,0:0:0:0:
256,192,57586,12,0,60086,0:0:0:0:
