osu file format v14

[General]
AudioFilename: sakuzyo - Scattered Rose.mp3
AudioLeadIn: 0
PreviewTime: 33388
Countdown: 0
SampleSet: None
StackLeniency: 0.7
Mode: 2
LetterboxInBreaks: 0
WidescreenStoryboard: 0

[Editor]
DistanceSpacing: 0.6
BeatDivisor: 4
GridSize: 4
TimelineZoom: 2

[Metadata]
Title:Scattered Rose
TitleUnicode:Scattered Rose
Artist:sakuzyo
ArtistUnicode:削除
Creator:alienflybot
Version:Rain
Source:BMS
Tags:わずか1分で楽しめるBMSイベント Selentia Diverse System
BeatmapID:711319
BeatmapSetID:319300

[Difficulty]
HPDrainRate:6
CircleSize:4
OverallDifficulty:9
ApproachRate:9
SliderMultiplier:1.8
SliderTickRate:2

[Events]
//Background and Video events
0,0,"background.png",0,0
//Break Periods
//Storyboard Layer 0 (Background)
//Storyboard Layer 1 (Fail)
//Storyboard Layer 2 (Pass)
//Storyboard Layer 3 (Foreground)
//Storyboard Sound Samples

[TimingPoints]
1435,333.333333333333,4,2,1,50,1,0
1518,-100,4,2,1,40,0,0
1684,-100,4,2,1,50,0,0
1851,-100,4,2,1,40,0,0
2018,-100,4,2,1,50,0,0
2184,-100,4,2,1,40,0,0
2684,-100,4,2,1,50,0,0
3018,-100,4,2,1,40,0,0
3268,-100,4,2,1,50,0,0
3351,-100,4,2,1,40,0,0
3601,-100,4,2,1,50,0,0
3684,-100,4,2,1,40,0,0
3851,-100,4,2,1,50,0,0
4018,-100,4,2,1,60,0,0
4684,-100,4,2,1,50,0,0
4851,-100,4,2,1,40,0,0
5018,-100,4,2,1,50,0,0
5184,-100,4,2,1,40,0,0
5351,-100,4,2,1,60,0,0
5518,-100,4,2,1,40,0,0
5851,-100,4,2,1,50,0,0
6018,-100,4,2,1,40,0,0
6184,-100,4,2,1,50,0,0
6351,-100,4,2,1,60,0,0
6518,-100,4,2,1,50,0,0
6684,-100,4,1,0,60,0,0
6851,-100,4,2,1,40,0,0
7351,-100,4,3,1,60,0,0
7518,-100,4,2,1,50,0,0
7684,-100,4,2,2,60,0,0
7851,-100,4,2,1,50,0,0
8018,-100,4,2,1,40,0,0
8768,-100,4,3,1,60,0,0
8851,-100,4,2,1,50,0,0
9101,-100,4,2,2,60,0,0
9184,-100,4,2,1,50,0,0
9351,-100,4,1,0,70,0,0
9518,-100,4,2,1,50,0,0
10018,-100,4,3,1,30,0,0
10184,-100,4,2,0,50,0,0
10684,-100,4,3,1,30,0,0
10851,-100,4,2,0,50,0,0
11434,-100,4,1,0,80,0,1
11601,-100,4,1,0,80,0,0
12101,-100,4,1,0,80,0,0
12184,-100,4,2,0,60,0,0
12434,-100,4,3,1,60,0,0
12518,-100,4,2,0,60,0,0
12768,-100,4,3,1,60,0,0
12851,-100,4,2,0,60,0,0
13101,-100,4,3,1,60,0,0
13184,-100,4,2,0,60,0,0
13434,-100,4,3,1,60,0,0
13518,-100,4,2,0,60,0,0
13768,-100,4,3,1,60,0,0
14018,-100,4,2,0,60,0,0
14101,-100,4,3,1,60,0,0
14184,-100,4,2,0,60,0,0
14434,-100,4,3,1,60,0,0
14518,-100,4,2,0,60,0,0
14601,-100,4,3,1,60,0,0
14684,-100,4,2,0,60,0,0
15018,-100,4,3,1,60,0,0
15268,-100,4,1,0,70,0,0
15351,-100,4,2,0,60,0,0
15601,-100,4,1,0,70,0,0
15684,-100,4,2,0,60,0,0
15934,-100,4,1,0,70,0,0
16018,-100,4,2,0,60,0,0
16434,-100,4,1,0,80,0,0
16518,-100,4,2,0,60,0,0
16934,-100,4,3,1,60,0,0
17018,-100,4,2,0,60,0,0
17101,-100,4,3,1,60,0,0
17184,-100,4,2,0,60,0,0
17268,-100,4,3,1,60,0,0
17351,-100,4,2,0,60,0,0
17768,-100,4,3,1,60,0,0
17851,-100,4,2,0,60,0,0
18434,-100,4,3,1,60,0,0
18518,-100,4,2,0,60,0,0
18768,-100,4,3,1,60,0,0
18851,-100,4,2,0,60,0,0
19434,-100,4,3,1,60,0,0
19518,-100,4,2,0,60,0,0
20434,-100,4,3,1,60,0,0
20518,-100,4,2,0,60,0,0
21268,-100,4,3,1,60,0,0
21351,-100,4,2,0,60,0,0
21768,-100,4,3,1,60,0,0
21851,-100,4,2,0,60,0,0
22101,-66.6666666666667,4,3,1,60,0,0
22184,-66.6666666666667,4,2,0,60,0,0
22268,-100,4,2,0,60,0,0
22768,-100,4,1,0,80,0,0
22851,-100,4,2,1,40,0,0
23018,-100,4,2,2,60,0,0
23184,-100,4,2,1,40,0,0
23684,-100,4,2,2,60,0,0
23851,-100,4,2,1,40,0,0
24434,-100,4,2,2,60,0,0
24518,-100,4,2,1,40,0,0
25101,-100,4,2,1,60,0,0
25184,-100,4,2,1,40,0,0
25684,-100,4,2,2,60,0,0
25851,-100,4,2,1,40,0,0
26351,-100,4,2,2,60,0,0
26518,-100,4,2,1,40,0,0
27101,-100,4,2,2,60,0,0
27184,-100,4,2,1,40,0,0
27601,-100,4,3,1,40,0,0
28101,-100,4,1,0,80,0,0
28184,-100,4,2,0,60,0,0
28768,-100,4,3,1,60,0,0
28851,-100,4,2,0,60,0,0
29434,-100,4,3,1,60,0,0
29518,-100,4,2,0,60,0,0
30101,-100,4,3,1,60,0,0
30184,-100,4,2,0,60,0,0
30684,-100,4,3,1,30,0,0
31351,-100,4,3,1,25,0,0
31768,-100,4,3,1,20,0,0
32101,-100,4,3,1,30,0,0
32184,-100,4,2,0,40,0,0
32434,-100,4,3,1,50,0,0
32518,-100,4,2,0,50,0,0
32768,-100,4,1,0,80,0,1
32934,-66.6666666666667,4,1,0,80,0,0
33018,-100,4,2,0,50,0,0
33184,-100,4,2,0,40,0,0
33268,-100,4,2,0,30,0,0
33351,-100,4,2,0,20,0,0
33434,-100,4,1,0,90,0,1
33518,-100,4,2,0,70,0,1
33684,-100,4,3,1,70,0,1
33851,-100,4,2,0,70,0,1
34101,-100,4,3,1,70,0,1
34184,-100,4,2,0,70,0,1
34434,-100,4,3,1,70,0,1
34518,-100,4,2,0,70,0,1
34768,-100,4,3,1,70,0,1
34851,-100,4,2,0,70,0,1
35101,-100,4,3,1,70,0,1
35184,-100,4,2,0,70,0,1
35434,-100,4,3,1,70,0,1
35518,-100,4,2,0,70,0,1
35684,-100,4,3,1,70,0,1
35851,-100,4,2,0,70,0,1
35934,-100,4,3,1,70,0,1
36101,-100,4,2,0,70,0,1
36351,-100,4,3,1,70,0,1
36601,-100,4,1,0,80,0,1
36684,-100,4,2,0,70,0,1
36934,-100,4,1,0,80,0,1
37018,-100,4,2,0,70,0,1
37268,-100,4,1,0,80,0,1
37351,-100,4,2,0,70,0,1
37684,-100,4,1,0,90,0,1
37851,-100,4,2,0,70,0,1
38268,-100,4,3,1,70,0,1
38351,-100,4,2,0,70,0,1
38434,-100,4,3,1,70,0,1
38518,-100,4,2,0,70,0,1
38601,-100,4,3,1,70,0,1
38684,-100,4,2,0,70,0,1
39101,-100,4,3,1,70,0,1
39184,-100,4,2,0,70,0,1
39684,-100,4,3,1,70,0,1
39851,-100,4,2,0,70,0,1
39934,-100,4,3,1,70,0,1
40018,-100,4,2,0,70,0,1
40434,-100,4,3,1,70,0,1
40518,-100,4,2,0,70,0,1
41101,-100,4,3,1,70,0,1
41184,-100,4,2,0,70,0,1
41434,-100,4,2,0,70,0,0
41768,-100,4,3,1,70,0,0
41851,-100,4,2,0,70,0,0
42101,-100,4,3,1,70,0,0
42184,-100,4,2,0,70,0,0
42434,-100,4,3,1,70,0,0
42518,-100,4,2,0,70,0,0
42768,-100,4,3,1,70,0,0
42851,-100,4,2,0,70,0,0
43101,-100,4,3,1,70,0,0
43184,-100,4,2,0,70,0,0
43434,-100,4,3,1,70,0,0
43518,-100,4,2,0,70,0,0
43601,-100,4,3,1,70,0,0
44101,-100,4,1,0,90,0,1
44184,-100,4,2,0,70,0,1
44434,-100,4,3,1,70,0,1
44518,-100,4,2,0,70,0,1
44768,-100,4,3,1,70,0,1
44851,-100,4,2,0,70,0,1
45101,-100,4,3,1,70,0,1
45184,-100,4,2,0,70,0,1
45351,-100,4,3,1,70,0,1
45518,-100,4,2,0,70,0,1
45601,-100,4,3,1,70,0,1
45851,-100,4,2,0,70,0,1
45934,-100,4,3,1,70,0,1
46018,-100,4,2,0,70,0,1
46101,-100,4,3,1,70,0,1
46184,-100,4,2,0,70,0,1
46434,-100,4,3,1,70,0,1
46518,-100,4,2,0,70,0,1
47018,-100,4,3,1,70,0,1
47268,-100,4,1,0,80,0,1
47351,-100,4,2,0,70,0,1
47601,-100,4,1,0,80,0,1
47684,-100,4,2,0,70,0,1
47934,-100,4,1,0,80,0,1
48018,-100,4,2,0,70,0,1
48434,-100,4,1,0,90,0,1
48768,-100,4,3,1,70,0,1
48851,-100,4,2,0,70,0,1
48934,-100,4,3,1,70,0,1
49018,-100,4,2,0,70,0,1
49101,-100,4,3,1,70,0,1
49184,-100,4,2,0,70,0,1
49268,-100,4,3,1,70,0,1
49434,-100,4,1,0,90,0,1
49518,-100,4,2,0,70,0,1
49768,-100,4,3,1,70,0,1
49851,-100,4,2,0,70,0,1
50018,-100,4,3,1,70,0,1
50851,-100,4,2,0,70,0,1
51018,-100,4,3,1,70,0,1
51184,-100,4,2,0,70,0,1
51351,-100,4,3,1,70,0,1
51851,-100,4,2,0,70,0,1
51934,-100,4,3,1,70,0,1
52184,-100,4,2,0,70,0,1
52434,-100,4,3,1,70,0,1
52518,-100,4,2,0,70,0,1
52768,-100,4,3,1,70,0,1
52851,-100,4,2,0,70,0,1
53101,-100,4,3,1,70,0,1
53184,-100,4,2,0,70,0,1
53434,-100,4,3,1,70,0,1
53518,-100,4,2,0,70,0,1
53768,-100,4,3,1,70,0,1
53851,-100,4,2,0,70,0,1
54018,-100,4,3,1,60,0,1
54268,-100,4,3,1,50,0,1
54434,-100,4,3,1,40,0,1
54601,-100,4,3,1,30,0,1
54768,-100,4,3,1,30,0,0
54851,-100,4,2,0,30,0,0
55434,-100,4,2,0,20,0,0
56101,-100,4,2,0,30,0,0
56434,-100,4,2,0,20,0,0
56684,-100,4,2,0,30,0,0
56768,-100,4,3,1,70,0,0
56851,-100,4,2,0,60,0,0
56934,-100,4,3,1,60,0,0
57018,-100,4,2,0,60,0,0
57101,-100,4,3,1,80,0,0
57184,-100,4,2,0,60,0,0
57268,-100,4,3,1,60,0,0
57351,-100,4,2,0,60,0,0
57434,-100,4,3,1,90,0,1
57518,-100,4,2,0,60,0,0
58101,-100,4,2,0,50,0,0
58768,-100,4,2,0,40,0,0
59101,-100,4,2,0,35,0,0
59434,-100,4,2,0,30,0,0
59768,-100,4,2,0,25,0,0
60018,-100,4,2,0,20,0,0

[Colours]
Combo1 : 11,53,225
Combo2 : 225,32,11
Combo3 : 7,196,228
Combo4 : 160,11,225

[HitObjects]
416,40,1435,5,2,0:0:0:0:
365,97,1601,1,0,0:0:0:0:
353,171,1768,1,2,0:0:0:0:
380,240,1934,1,0,0:0:0:0:
445,286,2101,1,8,0:0:0:0:
264,88,2268,1,0,0:0:0:0:
168,104,2434,1,0,0:0:0:0:
72,120,2601,6,0,L|80:216,1,90,0|8,0:0|0:0,0:0:0:0:
173,297,2934,2,0,P|244:249|324:284,1,180,2|2,0:0|0:0,0:0:0:0:
232,168,3434,1,0,0:0:0:0:
344,216,3601,2,0,L|433:208,2,90,2|0|2,0:0|0:0|0:0,0:0:0:0:
64,128,4101,1,8,0:0:0:0:
72,120,4768,6,0,L|161:127,1,90,2|0,0:0|0:0,0:0:0:0:
336,208,5101,2,0,L|246:215,1,90,2|0,0:0|0:0,0:0:0:0:
77,278,5434,2,0,P|29:207|64:127,1,180,10|0,0:0|0:0,0:0:0:0:
400,44,5934,6,0,L|496:52,1,90
372,136,6268,2,0,L|276:144,1,90
400,44,6601,1,0,0:0:0:0:
152,356,6768,6,0,L|145:266,1,90,4|0,0:0|0:0,0:0:0:0:
8,288,7101,2,0,L|15:198,1,90
256,200,7434,2,0,P|327:248|406:213,1,180,4|2,0:0|0:0,0:0:0:0:
264,24,7934,1,0,0:0:0:0:
500,64,8101,6,0,L|410:57,1,90
48,144,8434,2,0,L|138:137,1,90
370,124,8768,2,0,L|356:304,1,180,4|2,0:0|0:0,0:0:0:0:
488,52,9268,1,0,0:0:0:0:
176,168,9434,6,0,P|156:252|220:316,1,180,4|0,0:0|0:0,0:0:0:0:
368,276,9934,2,0,L|468:272,1,90,0|8,0:0|0:0,0:0:0:0:
316,164,10268,2,0,L|216:168,2,90
68,76,10768,5,8,0:0:0:0:
148,76,10934,1,0,0:0:0:0:
204,88,11018,1,0,0:0:0:0:
248,120,11101,1,0,0:0:0:0:
284,164,11184,1,0,0:0:0:0:
292,220,11268,1,0,0:0:0:0:
36,152,11434,6,0,L|39:241,1,90,4|4,0:0|0:0,0:0:0:0:
188,280,12101,6,0,L|99:283,2,90,4|0|8,0:0|0:0|0:0,0:0:0:0:
372,292,12601,2,0,P|376:256|488:188,1,180
228,300,13101,1,8,0:0:0:0:
216,256,13184,1,0,0:0:0:0:
202,213,13268,1,0,0:0:0:0:
344,136,13434,6,0,L|372:40,1,90,2|0,0:0|0:0,0:0:0:0:
460,136,13768,1,8,0:0:0:0:
132,60,13934,1,0,0:0:0:0:
88,52,14018,1,0,0:0:0:0:
44,44,14101,1,2,0:0:0:0:
188,112,14268,5,0,0:0:0:0:
200,188,14434,1,8,0:0:0:0:
164,260,14601,1,0,0:0:0:0:
92,292,14768,6,0,L|96:188,1,90
196,104,15101,1,8,0:0:0:0:
466,282,15268,6,0,L|460:148,1,135,4|0,0:0|0:0,0:0:0:0:
304,184,15601,2,0,L|310:49,1,135,4|0,0:0|0:0,0:0:0:0:
158,229,15934,2,0,P|115:220|72:232,2,90,4|0|0,0:0|0:0|0:0,0:0:0:0:
456,272,16434,1,4,0:0:0:0:
316,196,16768,6,0,P|249:190|191:222,2,135,0|0|2,0:0|0:0|0:0,0:0:0:0:
80,84,17434,6,0,P|32:155|67:235,1,180,0|8,0:0|0:0,0:0:0:0:
256,276,17934,1,0,0:0:0:0:
264,233,18018,1,0,0:0:0:0:
256,191,18101,1,0,0:0:0:0:
227,157,18184,1,0,0:0:0:0:
188,140,18268,1,0,0:0:0:0:
364,68,18434,2,0,P|376:72|456:64,1,90,8|0,0:0|0:0,0:0:0:0:
160,172,18768,6,0,P|120:164|32:208,2,135,2|0|0,0:0|0:0|0:0,0:0:0:0:
324,176,19434,2,0,P|364:184|452:140,2,135,2|0|0,0:0|0:0|0:0,0:0:0:0:
36,344,20101,6,0,L|32:152,1,180,0|8,0:0|0:0,0:0:0:0:
208,308,20601,5,0,0:0:0:0:
218,261,20684,1,0,0:0:0:0:
242,217,20768,1,0,0:0:0:0:
282,189,20851,1,0,0:0:0:0:
330,185,20934,2,0,L|434:205,2,90,0|0|8,0:0|0:0|0:0,0:0:0:0:
36,344,21434,6,0,P|32:304|136:216,1,180,0|8,0:0|0:0,0:0:0:0:
16,112,21934,1,0,0:0:0:0:
336,16,22101,5,8,0:0:0:0:
380,44,22184,1,0,0:0:0:0:
404,88,22268,1,0,0:0:0:0:
404,136,22351,1,0,0:0:0:0:
384,180,22434,1,0,0:0:0:0:
344,204,22518,2,0,L|280:212,2,45
488,168,22768,6,0,L|467:347,1,180,4|2,0:0|0:0,0:0:0:0:
344,204,23268,2,0,L|254:194,1,90
376,88,23601,1,0,0:0:0:0:
152,124,23768,1,2,0:0:0:0:
236,292,23934,6,0,L|246:203,1,90
56,300,24268,1,0,0:0:0:0:
158,131,24434,2,0,L|168:220,1,90,2|0,0:0|0:0,0:0:0:0:
320,304,24768,1,0,0:0:0:0:
392,256,24934,5,0,0:0:0:0:
412,172,25101,1,2,0:0:0:0:
368,96,25268,2,0,L|314:90,1,45
168,124,25434,6,0,P|140:112|12:176,1,180,0|2,0:0|0:0,0:0:0:0:
258,226,25934,2,0,L|348:216,2,90
452,208,26434,1,2,0:0:0:0:
392,340,26601,1,0,0:0:0:0:
352,300,26684,5,0,0:0:0:0:
336,244,26768,1,0,0:0:0:0:
360,192,26851,1,0,0:0:0:0:
400,156,26934,2,0,P|424:168|492:160,2,90,0|2|0,0:0|0:0|0:0,0:0:0:0:
172,256,27434,6,0,L|72:248,1,90,0|8,0:0|0:0,0:0:0:0:
70,204,27684,1,8,0:0:0:0:
58,160,27768,1,8,0:0:0:0:
148,152,27851,1,8,0:0:0:0:
160,108,27934,1,8,0:0:0:0:
174,65,28018,1,8,0:0:0:0:
340,300,28101,6,0,P|460:200|336:100,1,360,4|8,0:0|0:0,0:0:0:0:
264,232,28934,2,0,L|238:145,1,90
360,200,29268,1,0,0:0:0:0:
256,240,29434,6,0,P|192:196|88:240,1,180,8|0,0:0|0:0,0:0:0:0:
172,296,29934,1,0,0:0:0:0:
468,36,30101,1,4,0:0:0:0:
460,44,30434,2,0,L|486:131,1,90
224,144,30768,6,0,P|204:148|140:124,1,90,8|0,0:0|0:0,0:0:0:0:
268,248,31101,2,0,P|288:252|352:228,1,90,8|0,0:0|0:0,0:0:0:0:
96,336,31434,5,8,0:0:0:0:
60,300,31518,1,8,0:0:0:0:
48,252,31601,1,8,0:0:0:0:
56,204,31684,1,8,0:0:0:0:
88,168,31768,1,8,0:0:0:0:
132,148,31851,2,0,L|192:144,2,45,8|8|8,0:0|0:0|0:0,0:0:0:0:
176,240,32101,5,8,0:0:0:0:
224,232,32184,1,0,0:0:0:0:
268,208,32268,1,0,0:0:0:0:
296,164,32351,1,0,0:0:0:0:
304,116,32434,1,8,0:0:0:0:
292,68,32518,1,0,0:0:0:0:
260,28,32601,1,0,0:0:0:0:
216,8,32684,1,0,0:0:0:0:
39,67,32768,6,0,L|36:156,1,90,4|4,0:0|0:0,0:0:0:0:
336,280,33101,2,0,L|343:115,1,135
188,124,33434,6,0,P|156:108|28:152,1,180,4|8,0:0|0:0,0:0:0:0:
216,240,33934,2,0,L|324:216,2,90,0|2|0,0:0|0:0|0:0,0:0:0:0:
40,160,34434,2,0,L|127:179,1,90,8|0,0:0|0:0,0:0:0:0:
364,256,34768,6,0,P|404:264|492:220,2,135,2|0|0,0:0|0:0|0:0,0:0:0:0:
176,136,35434,2,0,P|110:131|54:166,2,135,2|0|0,0:0|0:0|0:0,0:0:0:0:
460,96,36101,2,0,L|452:6,1,90
328,56,36434,1,8,0:0:0:0:
46,282,36601,6,0,L|52:148,1,135,4|0,0:0|0:0,0:0:0:0:
224,204,36934,2,0,L|218:69,1,135,4|0,0:0|0:0,0:0:0:0:
384,284,37267,2,0,P|427:275|470:287,2,90,4|0|0,0:0|0:0|0:0,0:0:0:0:
144,260,37768,1,4,0:0:0:0:
376,52,38101,2,0,P|312:73|246:64,2,135,0|0|2,0:0|0:0|0:0,0:0:0:0:
44,260,38768,6,0,L|56:160,1,90
186,218,39101,1,0,0:0:0:0:
424,108,39268,2,0,L|435:198,1,90
292,156,39601,1,0,0:0:0:0:
408,312,39768,2,0,P|432:316|496:304,1,90,10|2,0:0|0:0,0:0:0:0:
151,138,40101,6,0,P|85:138|28:104,2,135
352,268,40768,2,0,P|286:268|229:303,2,135
124,8,41434,1,2,0:0:0:0:
72,52,41518,5,0,0:0:0:0:
56,116,41601,1,0,0:0:0:0:
72,180,41684,1,0,0:0:0:0:
124,224,41768,2,0,P|148:220|224:232,1,90,8|0,0:0|0:0,0:0:0:0:
464,316,42101,5,8,0:0:0:0:
452,272,42184,1,0,0:0:0:0:
438,229,42268,1,0,0:0:0:0:
64,172,42434,5,8,0:0:0:0:
76,128,42518,1,0,0:0:0:0:
90,85,42601,1,0,0:0:0:0:
328,292,42768,5,8,0:0:0:0:
380,248,42852,1,0,0:0:0:0:
396,184,42935,1,0,0:0:0:0:
380,120,43018,1,0,0:0:0:0:
328,76,43102,6,0,P|304:80|228:68,1,90,8|0,0:0|0:0,0:0:0:0:
388,176,43434,2,0,P|412:180|488:168,1,90,0|8,0:0|0:0,0:0:0:0:
432,168,43684,5,8,0:0:0:0:
336,84,43768,2,0,L|292:87,1,45,8|8,0:0|0:0,0:0:0:0:
195,172,43934,2,0,L|151:169,1,45,8|8,0:0|0:0,0:0:0:0:
320,284,44101,6,0,P|364:288|420:276,2,90,4|0|8,0:0|0:0|0:0,0:0:0:0:
200,196,44601,2,0,P|160:156|40:200,1,180
204,160,45101,2,0,L|188:64,1,90,8|0,0:0|0:0,0:0:0:0:
368,320,45434,6,0,L|501:297,2,135,2|0|0,0:0|0:0|0:0,0:0:0:0:
174,351,46018,2,0,L|129:344,1,45,0|2,0:0|0:0,0:0:0:0:
292,248,46268,5,0,0:0:0:0:
212,152,46434,1,8,0:0:0:0:
368,144,46601,1,0,0:0:0:0:
120,152,46768,6,0,L|10:133,2,90
376,272,47268,6,0,P|412:268|496:200,1,135,4|0,0:0|0:0,0:0:0:0:
344,144,47601,2,0,P|280:128|231:83,1,135,4|0,0:0|0:0,0:0:0:0:
444,124,47934,2,0,L|456:24,1,90,4|0,0:0|0:0,0:0:0:0:
320,136,48268,1,0,0:0:0:0:
44,40,48434,1,4,0:0:0:0:
288,228,48768,6,0,L|300:132,1,90,0|8,0:0|0:0,0:0:0:0:
212,308,49018,2,0,L|200:212,1,90
101,138,49268,1,2,0:0:0:0:
384,288,49434,6,0,P|504:188|380:88,1,360,4|4,0:0|0:0,0:0:0:0:
132,152,50351,2,0,L|152:308,1,135
384,288,50768,6,0,P|507:189|387:87,1,360,2|4,0:0|0:0,0:0:0:0:
184,155,51684,2,0,L|50:170,1,135
328,76,52101,5,2,0:0:0:0:
376,80,52184,1,0,0:0:0:0:
420,112,52268,1,0,0:0:0:0:
440,156,52351,2,8,L|436:208,1,45
132,168,52601,6,0,L|87:164,2,45,0|0|2,0:0|0:0|0:0,0:0:0:0:
369,233,52934,2,0,L|364:144,1,90,0|2,0:0|0:0,0:0:0:0:
452,160,53184,2,0,L|454:115,1,45
24,340,53434,5,8,0:0:0:0:
48,288,53601,1,0,0:0:0:0:
76,236,53768,1,8,0:0:0:0:
104,184,53934,1,0,0:0:0:0:
328,336,54101,5,8,0:0:0:0:
372,316,54184,1,8,0:0:0:0:
404,280,54268,1,8,0:0:0:0:
424,236,54351,1,8,0:0:0:0:
428,188,54434,1,8,0:0:0:0:
412,140,54518,1,8,0:0:0:0:
380,100,54601,1,8,0:0:0:0:
336,72,54684,1,8,0:0:0:0:
124,84,54768,6,0,P|4:184|128:284,1,360,4|0,0:0|0:0,0:0:0:0:
200,168,55768,1,0,0:0:0:0:
383,300,56101,6,0,P|503:198|380:100,1,360,0|8,0:0|0:0,0:0:0:0:
335,91,56851,5,0,0:0:0:0:
256,176,56934,2,0,L|315:163,1,45
391,244,57101,2,0,L|347:234,1,45,4|0,0:0|0:0,0:0:0:0:
268,320,57268,2,0,L|311:310,1,45
476,48,57434,1,4,0:0:0:0:
256,192,57601,12,0,60018,0:0:0:0:
