osu file format v14

[General]
AudioFilename: Scattered Rose mp3.mp3
AudioLeadIn: 0
PreviewTime: 33429
Countdown: 0
SampleSet: Soft
StackLeniency: 0.7
Mode: 3
LetterboxInBreaks: 0
SpecialStyle: 0
WidescreenStoryboard: 0

[Editor]
DistanceSpacing: 0.6
BeatDivisor: 8
GridSize: 4
TimelineZoom: 2.240001

[Metadata]
Title:Scattered Rose
TitleUnicode:Scattered Rose
Artist:sakuzyo
ArtistUnicode:削除
Creator:Starry-
Version:Hyper
Source:BMS
Tags:わずか1分で楽しめるBMSイベント Selentia Diverse System
BeatmapID:662525
BeatmapSetID:294740

[Difficulty]
HPDrainRate:8
CircleSize:4
OverallDifficulty:8
ApproachRate:5
SliderMultiplier:2.33
SliderTickRate:1

[Events]
//Background and Video events
0,0,"sakuzyo bg.jpg",0,0
//Break Periods
//Storyboard Layer 0 (Background)
//Storyboard Layer 1 (Fail)
//Storyboard Layer 2 (Pass)
//Storyboard Layer 3 (Foreground)
//Storyboard Sound Samples

[TimingPoints]
1430,333.333333333333,4,2,1,20,1,0
1430,-111.111111111111,4,2,1,20,0,0
6263,-107.52688172043,4,2,1,20,0,0
6430,-105.263157894737,4,2,1,20,0,0
6596,-102.040816326531,4,2,1,30,0,0
6763,-100,4,1,1,30,0,0
9429,-80,4,2,1,30,0,0
9513,-125,4,2,1,30,0,0
9929,-120.481927710843,4,2,1,30,0,0
10096,-114.942528735632,4,2,1,30,0,0
10263,-111.111111111111,4,2,1,30,0,0
10429,-107.52688172043,4,2,1,30,0,0
10596,-103.092783505155,4,2,1,30,0,0
10763,-100,4,1,1,30,0,0
11429,-100,4,1,1,30,0,1
12096,-100,4,1,1,30,0,0
31429,-100,4,2,1,20,0,0
32763,-100,4,1,1,30,0,1
33429,-100,4,1,1,30,0,0
52096,-100,4,1,1,30,0,1
54763,-100,4,2,1,20,0,0
56763,-100,4,1,1,35,0,1
57429,-100,4,1,1,35,0,0
58096,-100,4,1,1,15,0,0

[HitObjects]
448,192,1430,5,0,0:0:0:0:
320,192,1430,1,0,0:0:0:0:
64,192,1596,1,0,0:0:0:0:
192,192,1763,1,0,0:0:0:0:
448,192,1929,1,0,0:0:0:0:
320,192,2096,1,0,0:0:0:0:
64,192,2096,1,0,0:0:0:0:
192,192,2263,1,0,0:0:0:0:
64,192,2429,1,0,0:0:0:0:
448,192,2596,1,0,0:0:0:0:
192,192,2763,1,0,0:0:0:0:
64,192,2763,1,0,0:0:0:0:
320,192,2929,1,0,0:0:0:0:
320,192,3263,1,0,0:0:0:0:
64,192,3429,1,0,0:0:0:0:
448,192,3429,1,0,0:0:0:0:
320,192,3596,1,0,0:0:0:0:
192,192,3763,1,0,0:0:0:0:
64,192,3929,1,0,0:0:0:0:
192,192,4096,1,0,0:0:0:0:
320,192,4096,128,0,4763:0:0:0:0:
192,192,4763,1,0,0:0:0:0:
448,192,4763,1,0,0:0:0:0:
64,192,4971,1,0,0:0:0:0:
192,192,5096,1,0,0:0:0:0:
448,192,5263,1,0,0:0:0:0:
64,192,5457,1,0,0:0:0:0:
320,192,5457,128,0,6096:0:0:0:0:
192,192,5763,1,0,0:0:0:0:
448,192,5929,1,0,0:0:0:0:
64,192,6096,1,0,0:0:0:0:
320,192,6263,1,0,0:0:0:0:
192,192,6429,1,0,0:0:0:0:
320,192,6596,1,2,1:0:0:0:
448,192,6596,1,0,0:0:0:0:
192,192,6763,1,6,0:0:0:0:
64,192,6763,128,2,7429:2:0:0:0:
448,192,7096,1,2,2:0:0:0:
192,192,7263,1,2,2:0:0:0:
320,192,7429,1,8,0:0:0:0:
448,192,7429,128,2,8096:2:0:0:0:
64,192,7929,1,2,2:0:0:0:
320,192,7929,1,2,0:0:0:0:
192,192,8096,1,2,2:0:0:0:
64,192,8096,1,2,0:0:0:0:
320,192,8429,1,2,2:0:0:0:
448,192,8513,1,2,2:0:0:0:
192,192,8596,1,2,0:0:0:0:
64,192,8596,1,2,2:0:0:0:
448,192,8763,128,2,9429:2:0:0:0:
320,192,8763,1,8,0:0:0:0:
192,192,9013,1,2,2:0:0:0:
64,192,9263,1,2,2:0:0:0:
192,192,9429,1,2,2:0:0:0:
320,192,9429,1,6,1:0:0:0:
64,192,9763,1,2,0:0:0:0:
448,192,9929,1,2,0:0:0:0:
192,192,10096,1,2,0:0:0:0:
320,192,10263,1,2,0:0:0:0:
64,192,10429,1,2,0:0:0:0:
192,192,10596,1,2,0:0:0:0:
64,192,10763,1,2,2:0:0:0:
448,192,10763,1,2,0:0:0:0:
320,192,10929,1,2,2:0:0:0:
192,192,11013,1,2,2:0:0:0:
448,192,11096,1,2,2:0:0:0:
64,192,11096,1,2,2:0:0:0:
320,192,11263,1,2,2:0:0:0:
192,192,11429,1,2,0:0:0:0:
64,192,11429,1,4,2:0:0:0:
320,192,11596,1,4,2:0:0:0:
448,192,11596,1,2,0:0:0:0:
448,192,12096,1,2,0:0:0:0:
320,192,12096,1,0,0:0:0:0:
64,192,12096,1,4,0:0:0:0:
192,192,12263,1,0,0:0:0:0:
320,192,12429,1,0,0:0:0:0:
448,192,12429,1,8,0:0:0:0:
64,192,12596,1,0,0:0:0:0:
192,192,12679,1,0,0:0:0:0:
320,192,12763,1,0,0:0:0:0:
192,192,12846,1,0,0:0:0:0:
64,192,12929,1,0,0:0:0:0:
448,192,12929,1,2,0:0:0:0:
320,192,13096,1,0,0:0:0:0:
192,192,13179,1,0,0:0:0:0:
320,192,13263,1,0,0:0:0:0:
448,192,13263,1,8,0:0:0:0:
64,192,13429,1,0,0:0:0:0:
192,192,13513,1,0,0:0:0:0:
320,192,13596,1,0,0:0:0:0:
448,192,13596,1,2,0:0:0:0:
192,192,13763,1,8,0:0:0:0:
64,192,13763,1,0,0:0:0:0:
448,192,13929,1,2,2:0:0:0:
320,192,14013,1,2,2:0:0:0:
192,192,14096,1,2,0:0:0:0:
64,192,14096,1,0,0:0:0:0:
64,192,14263,1,0,0:0:0:0:
192,192,14263,1,2,0:0:0:0:
448,192,14429,1,8,0:0:0:0:
64,192,14429,1,0,0:0:0:0:
320,192,14513,1,0,0:0:0:0:
192,192,14596,1,0,0:0:0:0:
320,192,14679,1,0,0:0:0:0:
64,192,14763,1,0,0:0:0:0:
448,192,14763,1,2,0:0:0:0:
192,192,14929,1,0,0:0:0:0:
320,192,15096,1,2,0:0:0:0:
448,192,15096,1,0,0:0:0:0:
64,192,15263,1,4,2:0:0:0:
448,192,15263,1,2,0:0:0:0:
192,192,15263,128,2,15429:2:0:0:0:
192,192,15596,128,2,15763:2:0:0:0:
64,192,15596,1,4,2:0:0:0:
448,192,15596,1,2,0:0:0:0:
320,192,15929,128,2,16096:2:0:0:0:
448,192,15929,1,2,0:0:0:0:
64,192,15929,1,4,0:0:0:0:
192,192,16096,1,0,0:0:0:0:
64,192,16179,1,0,0:0:0:0:
320,192,16263,1,0,0:0:0:0:
448,192,16263,1,2,0:0:0:0:
64,192,16429,1,0,0:0:0:0:
192,192,16429,1,8,0:0:0:0:
448,192,16429,1,4,0:0:0:0:
320,192,16596,1,0,0:0:0:0:
192,192,16679,1,0,0:0:0:0:
448,192,16763,1,2,0:0:0:0:
320,192,16763,1,0,0:0:0:0:
320,192,16929,1,0,0:0:0:0:
448,192,16929,1,2,0:0:0:0:
64,192,17096,1,8,0:0:0:0:
448,192,17096,1,0,0:0:0:0:
192,192,17179,1,0,0:0:0:0:
320,192,17263,1,0,0:0:0:0:
448,192,17346,1,0,0:0:0:0:
192,192,17429,1,2,0:0:0:0:
64,192,17429,1,0,0:0:0:0:
320,192,17596,1,0,0:0:0:0:
64,192,17763,1,0,0:0:0:0:
448,192,17763,1,8,0:0:0:0:
192,192,17929,1,0,0:0:0:0:
320,192,18013,1,0,0:0:0:0:
448,192,18096,1,2,2:0:0:0:
320,192,18179,1,2,2:0:0:0:
192,192,18263,1,2,0:0:0:0:
64,192,18263,1,0,0:0:0:0:
320,192,18429,1,0,0:0:0:0:
192,192,18513,1,0,0:0:0:0:
64,192,18596,1,0,0:0:0:0:
448,192,18596,1,8,0:0:0:0:
192,192,18763,1,0,0:0:0:0:
320,192,18846,1,0,0:0:0:0:
64,192,18929,1,0,0:0:0:0:
448,192,18929,1,2,0:0:0:0:
192,192,19013,1,0,0:0:0:0:
448,192,19096,1,0,0:0:0:0:
320,192,19096,1,8,0:0:0:0:
192,192,19263,1,0,0:0:0:0:
320,192,19346,1,0,0:0:0:0:
64,192,19429,1,2,2:0:0:0:
448,192,19429,1,2,0:0:0:0:
64,192,19596,1,2,2:0:0:0:
448,192,19596,1,2,0:0:0:0:
320,192,19763,1,0,0:0:0:0:
448,192,19846,1,0,0:0:0:0:
320,192,19929,1,0,0:0:0:0:
192,192,20013,1,0,0:0:0:0:
448,192,20096,1,2,0:0:0:0:
64,192,20096,1,0,0:0:0:0:
320,192,20263,1,0,0:0:0:0:
192,192,20429,1,8,0:0:0:0:
64,192,20429,1,0,0:0:0:0:
448,192,20596,1,0,0:0:0:0:
320,192,20679,1,0,0:0:0:0:
192,192,20763,1,0,0:0:0:0:
64,192,20846,1,0,0:0:0:0:
448,192,20929,1,2,0:0:0:0:
320,192,20929,1,0,0:0:0:0:
192,192,21096,1,0,0:0:0:0:
320,192,21179,1,0,0:0:0:0:
64,192,21263,1,0,0:0:0:0:
448,192,21263,1,8,0:0:0:0:
192,192,21429,1,0,0:0:0:0:
320,192,21513,1,0,0:0:0:0:
64,192,21596,1,0,0:0:0:0:
192,192,21596,1,2,0:0:0:0:
320,192,21763,1,8,0:0:0:0:
448,192,21763,1,0,0:0:0:0:
192,192,21929,1,2,0:0:0:0:
64,192,21929,1,0,0:0:0:0:
448,192,22096,1,2,0:0:0:0:
320,192,22179,1,2,0:0:0:0:
64,192,22263,1,2,0:0:0:0:
192,192,22346,1,2,0:0:0:0:
448,192,22429,1,2,0:0:0:0:
320,192,22513,1,2,0:0:0:0:
64,192,22596,1,2,0:0:0:0:
192,192,22679,1,2,0:0:0:0:
448,192,22763,128,2,22929:2:0:0:0:
320,192,22763,1,6,0:0:0:0:
192,192,22929,1,0,0:0:0:0:
64,192,23096,1,8,0:0:0:0:
448,192,23263,128,2,23429:2:0:0:0:
320,192,23263,1,0,0:0:0:0:
192,192,23429,1,0,0:0:0:0:
320,192,23596,1,2,0:0:0:0:
64,192,23596,1,0,0:0:0:0:
448,192,23763,1,8,0:0:0:0:
64,192,23929,128,2,24096:2:0:0:0:
192,192,23929,1,0,0:0:0:0:
320,192,24096,1,2,0:0:0:0:
448,192,24096,1,0,0:0:0:0:
192,192,24263,1,0,0:0:0:0:
320,192,24429,128,2,24596:2:0:0:0:
448,192,24429,1,8,0:0:0:0:
64,192,24596,1,0,0:0:0:0:
192,192,24763,128,2,24929:2:0:0:0:
448,192,24763,1,0,0:0:0:0:
320,192,24929,1,2,0:0:0:0:
64,192,24929,1,0,0:0:0:0:
448,192,25096,128,2,25263:2:0:0:0:
192,192,25096,1,8,0:0:0:0:
64,192,25263,1,0,0:0:0:0:
320,192,25429,128,2,25596:2:0:0:0:
192,192,25429,1,2,0:0:0:0:
448,192,25596,1,0,0:0:0:0:
64,192,25763,1,8,0:0:0:0:
320,192,25929,128,2,26096:2:0:0:0:
192,192,25929,1,0,0:0:0:0:
64,192,26096,1,0,0:0:0:0:
448,192,26263,1,2,0:0:0:0:
320,192,26263,1,0,0:0:0:0:
64,192,26429,1,8,0:0:0:0:
192,192,26596,128,2,26763:2:0:0:0:
320,192,26596,1,0,0:0:0:0:
448,192,26763,1,2,0:0:0:0:
64,192,26763,1,0,0:0:0:0:
320,192,26846,1,8,0:0:0:0:
192,192,26929,1,0,0:0:0:0:
64,192,27096,128,2,27263:2:0:0:0:
448,192,27096,1,8,0:0:0:0:
320,192,27263,1,0,0:0:0:0:
448,192,27429,128,2,27596:2:0:0:0:
192,192,27429,1,0,0:0:0:0:
64,192,27596,1,2,0:0:0:0:
192,192,27679,1,2,0:0:0:0:
448,192,27763,1,2,0:0:0:0:
320,192,27846,1,2,0:0:0:0:
64,192,27929,1,2,0:0:0:0:
192,192,28013,1,2,0:0:0:0:
320,192,28096,1,6,0:0:0:0:
448,192,28096,128,2,28763:2:0:0:0:
192,192,28596,1,2,2:0:0:0:
192,192,28763,1,2,2:0:0:0:
64,192,28763,128,0,29429:0:0:0:0:
192,192,29263,1,2,2:0:0:0:
448,192,29429,1,2,2:0:0:0:
320,192,29429,128,2,30096:0:0:0:0:
64,192,29929,1,2,2:0:0:0:
192,192,30096,128,2,30763:2:0:0:0:
64,192,30096,1,8,0:0:0:0:
448,192,30346,1,2,2:0:0:0:
320,192,30596,1,2,2:0:0:0:
448,192,30763,1,2,0:0:0:0:
64,192,30763,1,0,0:0:0:0:
320,192,30929,1,2,0:0:0:0:
448,192,30929,1,0,0:0:0:0:
320,192,31096,1,0,0:0:0:0:
192,192,31096,1,2,0:0:0:0:
64,192,31263,1,2,0:0:0:0:
192,192,31263,1,0,0:0:0:0:
448,192,31429,1,2,0:0:0:0:
320,192,31513,1,2,0:0:0:0:
192,192,31596,1,2,0:0:0:0:
64,192,31679,1,2,0:0:0:0:
448,192,31763,1,2,0:0:0:0:
320,192,31846,1,2,0:0:0:0:
192,192,31929,1,2,0:0:0:0:
320,192,32013,1,2,0:0:0:0:
64,192,32096,128,0,32263:0:0:0:0:
448,192,32096,1,2,0:0:0:0:
320,192,32263,1,2,0:0:0:0:
448,192,32429,128,0,32596:0:0:0:0:
192,192,32429,1,2,0:0:0:0:
320,192,32596,1,2,0:0:0:0:
64,192,32763,1,2,0:0:0:0:
192,192,32763,1,4,2:0:0:0:
320,192,32929,1,2,0:0:0:0:
448,192,32929,1,4,2:0:0:0:
192,192,33429,1,0,0:0:0:0:
64,192,33429,1,4,0:0:0:0:
448,192,33429,1,2,0:0:0:0:
320,192,33596,1,0,0:0:0:0:
448,192,33763,1,8,0:0:0:0:
192,192,33763,1,0,0:0:0:0:
64,192,33929,1,0,0:0:0:0:
192,192,34013,1,0,0:0:0:0:
320,192,34096,1,0,0:0:0:0:
448,192,34179,1,0,0:0:0:0:
320,192,34263,1,2,0:0:0:0:
192,192,34263,1,0,0:0:0:0:
64,192,34429,1,0,0:0:0:0:
192,192,34513,1,0,0:0:0:0:
320,192,34596,1,0,0:0:0:0:
448,192,34596,1,8,0:0:0:0:
192,192,34763,1,0,0:0:0:0:
320,192,34846,1,0,0:0:0:0:
192,192,34929,1,2,0:0:0:0:
64,192,34929,1,0,0:0:0:0:
320,192,35096,1,0,0:0:0:0:
448,192,35096,1,8,0:0:0:0:
192,192,35263,1,0,0:0:0:0:
320,192,35346,1,0,0:0:0:0:
64,192,35429,1,0,0:0:0:0:
448,192,35429,1,2,0:0:0:0:
64,192,35596,1,0,0:0:0:0:
448,192,35596,1,2,0:0:0:0:
320,192,35763,1,8,0:0:0:0:
192,192,35763,1,0,0:0:0:0:
448,192,35846,1,0,0:0:0:0:
320,192,35929,1,0,0:0:0:0:
192,192,36013,1,0,0:0:0:0:
64,192,36096,1,0,0:0:0:0:
448,192,36096,1,2,0:0:0:0:
320,192,36263,1,0,0:0:0:0:
448,192,36346,1,0,0:0:0:0:
64,192,36429,1,0,0:0:0:0:
192,192,36429,1,8,0:0:0:0:
448,192,36596,1,0,0:0:0:0:
320,192,36679,1,0,0:0:0:0:
192,192,36763,1,0,0:0:0:0:
64,192,36846,1,0,0:0:0:0:
320,192,36929,1,0,0:0:0:0:
448,192,36929,1,2,0:0:0:0:
192,192,37096,1,0,0:0:0:0:
320,192,37179,1,0,0:0:0:0:
192,192,37263,1,8,0:0:0:0:
64,192,37263,1,0,0:0:0:0:
448,192,37346,1,0,0:0:0:0:
320,192,37429,1,0,0:0:0:0:
192,192,37513,1,0,0:0:0:0:
64,192,37596,1,0,0:0:0:0:
448,192,37596,1,2,0:0:0:0:
320,192,37763,1,8,0:0:0:0:
192,192,37763,1,0,0:0:0:0:
64,192,37929,1,0,0:0:0:0:
192,192,38013,1,0,0:0:0:0:
320,192,38096,1,0,0:0:0:0:
448,192,38096,1,2,0:0:0:0:
320,192,38263,1,0,0:0:0:0:
448,192,38263,1,2,0:0:0:0:
64,192,38429,1,0,0:0:0:0:
448,192,38429,1,8,0:0:0:0:
192,192,38513,1,0,0:0:0:0:
320,192,38596,1,0,0:0:0:0:
192,192,38679,1,0,0:0:0:0:
64,192,38763,1,0,0:0:0:0:
448,192,38763,1,2,0:0:0:0:
320,192,38846,1,0,0:0:0:0:
192,192,38929,1,0,0:0:0:0:
64,192,39013,1,0,0:0:0:0:
320,192,39096,1,0,0:0:0:0:
448,192,39096,1,8,0:0:0:0:
64,192,39263,1,0,0:0:0:0:
192,192,39263,1,0,0:0:0:0:
448,192,39429,1,0,0:0:0:0:
320,192,39513,1,0,0:0:0:0:
192,192,39596,1,2,0:0:0:0:
64,192,39596,1,0,0:0:0:0:
448,192,39763,1,0,0:0:0:0:
320,192,39846,1,0,0:0:0:0:
192,192,39929,1,0,0:0:0:0:
320,192,40013,1,0,0:0:0:0:
448,192,40096,1,0,0:0:0:0:
64,192,40096,1,2,0:0:0:0:
64,192,40263,1,2,0:0:0:0:
448,192,40263,1,0,0:0:0:0:
320,192,40429,1,0,0:0:0:0:
192,192,40429,1,8,0:0:0:0:
320,192,40596,1,0,0:0:0:0:
448,192,40596,1,0,0:0:0:0:
64,192,40763,1,0,0:0:0:0:
448,192,40763,1,2,0:0:0:0:
192,192,40929,1,0,0:0:0:0:
320,192,41013,1,0,0:0:0:0:
448,192,41096,1,8,0:0:0:0:
64,192,41096,1,0,0:0:0:0:
192,192,41179,1,0,0:0:0:0:
320,192,41263,1,2,0:0:0:0:
448,192,41263,1,0,0:0:0:0:
64,192,41429,1,2,0:0:0:0:
192,192,41513,1,0,0:0:0:0:
320,192,41596,1,2,0:0:0:0:
192,192,41679,1,0,0:0:0:0:
448,192,41763,1,0,0:0:0:0:
64,192,41763,1,8,0:0:0:0:
320,192,41846,1,0,0:0:0:0:
64,192,41929,1,2,0:0:0:0:
192,192,42013,1,0,0:0:0:0:
448,192,42096,1,2,0:0:0:0:
320,192,42179,1,0,0:0:0:0:
192,192,42263,1,8,0:0:0:0:
64,192,42263,1,0,0:0:0:0:
448,192,42346,1,0,0:0:0:0:
320,192,42429,1,2,0:0:0:0:
192,192,42513,1,0,0:0:0:0:
64,192,42596,1,8,0:0:0:0:
448,192,42596,1,0,0:0:0:0:
320,192,42763,128,0,43096:0:0:0:0:
192,192,42763,1,0,0:0:0:0:
192,192,43096,1,8,0:0:0:0:
64,192,43096,1,0,0:0:0:0:
448,192,43263,1,2,0:0:0:0:
320,192,43346,1,0,0:0:0:0:
192,192,43429,1,0,0:0:0:0:
64,192,43513,1,0,0:0:0:0:
448,192,43596,1,2,0:0:0:0:
320,192,43679,1,2,0:0:0:0:
64,192,43763,1,2,0:0:0:0:
192,192,43846,1,2,0:0:0:0:
448,192,43929,1,2,0:0:0:0:
320,192,44013,1,2,0:0:0:0:
192,192,44096,1,2,0:0:0:0:
64,192,44096,1,0,0:0:0:0:
448,192,44096,1,4,0:0:0:0:
320,192,44263,1,0,0:0:0:0:
192,192,44429,1,0,0:0:0:0:
448,192,44429,1,8,0:0:0:0:
64,192,44596,1,0,0:0:0:0:
192,192,44679,1,0,0:0:0:0:
320,192,44763,1,0,0:0:0:0:
448,192,44846,1,0,0:0:0:0:
192,192,44929,1,2,0:0:0:0:
64,192,44929,1,0,0:0:0:0:
320,192,45096,1,0,0:0:0:0:
192,192,45179,1,0,0:0:0:0:
64,192,45263,1,0,0:0:0:0:
448,192,45263,1,8,0:0:0:0:
320,192,45429,1,0,0:0:0:0:
192,192,45513,1,0,0:0:0:0:
448,192,45596,1,0,0:0:0:0:
320,192,45596,1,2,0:0:0:0:
64,192,45763,1,0,0:0:0:0:
192,192,45763,1,8,0:0:0:0:
320,192,45929,1,2,2:0:0:0:
192,192,46013,1,2,2:0:0:0:
64,192,46096,1,0,0:0:0:0:
448,192,46096,1,2,0:0:0:0:
64,192,46263,1,0,0:0:0:0:
448,192,46263,1,2,0:0:0:0:
320,192,46429,1,0,0:0:0:0:
448,192,46429,1,8,0:0:0:0:
192,192,46513,1,0,0:0:0:0:
64,192,46596,1,0,0:0:0:0:
448,192,46679,1,0,0:0:0:0:
320,192,46763,1,2,0:0:0:0:
192,192,46763,1,0,0:0:0:0:
64,192,46929,1,0,0:0:0:0:
320,192,47096,1,0,0:0:0:0:
448,192,47096,1,0,0:0:0:0:
64,192,47263,1,4,2:0:0:0:
448,192,47263,1,2,0:0:0:0:
192,192,47263,128,2,47429:2:0:0:0:
192,192,47596,128,2,47763:2:0:0:0:
64,192,47596,1,4,2:0:0:0:
448,192,47596,1,2,0:0:0:0:
448,192,47929,1,2,0:0:0:0:
320,192,47929,128,2,48096:2:0:0:0:
64,192,47929,1,4,0:0:0:0:
192,192,48096,1,0,0:0:0:0:
64,192,48179,1,0,0:0:0:0:
320,192,48263,1,2,0:0:0:0:
448,192,48263,1,0,0:0:0:0:
192,192,48429,1,8,0:0:0:0:
64,192,48429,1,0,0:0:0:0:
448,192,48429,1,4,0:0:0:0:
320,192,48596,1,0,0:0:0:0:
192,192,48679,1,0,0:0:0:0:
64,192,48763,1,0,0:0:0:0:
448,192,48763,1,2,0:0:0:0:
448,192,48929,1,2,0:0:0:0:
64,192,48929,1,0,0:0:0:0:
320,192,49096,1,8,0:0:0:0:
448,192,49096,1,0,0:0:0:0:
192,192,49179,1,0,0:0:0:0:
64,192,49263,1,0,0:0:0:0:
320,192,49346,1,0,0:0:0:0:
448,192,49429,1,2,0:0:0:0:
192,192,49429,1,2,2:0:0:0:
64,192,49429,1,4,0:0:0:0:
320,192,50096,1,2,2:0:0:0:
448,192,50096,1,8,0:0:0:0:
192,192,50346,1,2,2:0:0:0:
320,192,50596,1,2,2:0:0:0:
64,192,50763,1,2,2:0:0:0:
448,192,50763,1,2,0:0:0:0:
192,192,51263,1,2,0:0:0:0:
320,192,51429,1,2,2:0:0:0:
448,192,51429,1,8,0:0:0:0:
192,192,51679,1,2,2:0:0:0:
320,192,51929,1,2,2:0:0:0:
64,192,51929,1,2,0:0:0:0:
192,192,52096,1,2,0:0:0:0:
448,192,52096,1,2,2:0:0:0:
320,192,52263,1,2,0:0:0:0:
448,192,52263,1,0,0:0:0:0:
192,192,52429,1,8,0:0:0:0:
64,192,52429,1,0,0:0:0:0:
320,192,52596,1,0,0:0:0:0:
192,192,52679,1,0,0:0:0:0:
64,192,52763,1,2,0:0:0:0:
448,192,52763,1,0,0:0:0:0:
320,192,52929,1,8,0:0:0:0:
448,192,52929,1,0,0:0:0:0:
192,192,53096,1,0,0:0:0:0:
320,192,53179,1,8,0:0:0:0:
64,192,53263,1,0,0:0:0:0:
448,192,53263,1,2,0:0:0:0:
448,192,53429,1,0,0:0:0:0:
320,192,53429,1,2,0:0:0:0:
192,192,53596,1,2,0:0:0:0:
64,192,53596,1,0,0:0:0:0:
320,192,53763,1,2,0:0:0:0:
448,192,53763,1,0,0:0:0:0:
192,192,53929,1,2,0:0:0:0:
64,192,53929,1,0,0:0:0:0:
448,192,54096,1,2,0:0:0:0:
192,192,54179,1,2,0:0:0:0:
320,192,54263,1,2,0:0:0:0:
64,192,54346,1,2,0:0:0:0:
448,192,54429,1,2,0:0:0:0:
192,192,54513,1,2,0:0:0:0:
320,192,54596,1,2,0:0:0:0:
64,192,54679,1,2,0:0:0:0:
448,192,54763,1,0,0:0:0:0:
320,192,54763,1,0,0:0:0:0:
64,192,56763,1,0,0:0:0:0:
192,192,56763,1,2,0:0:0:0:
320,192,56846,1,0,0:0:0:0:
448,192,56929,1,0,0:0:0:0:
64,192,56929,1,2,0:0:0:0:
192,192,57013,1,0,0:0:0:0:
320,192,57096,1,0,0:0:0:0:
448,192,57096,1,8,0:0:0:0:
64,192,57179,1,0,0:0:0:0:
192,192,57263,1,2,0:0:0:0:
320,192,57346,1,8,0:0:0:0:
64,192,57429,1,4,0:0:0:0:
448,192,57429,128,2,60096:0:0:0:0:
64,192,58096,128,4,60096:0:0:0:0:
