osu file format v12

[General]
AudioFilename: sakuzyo - Scattered Rose.mp3
AudioLeadIn: 0
PreviewTime: 33425
Countdown: 0
SampleSet: Normal
StackLeniency: 0.7
Mode: 0
LetterboxInBreaks: 0
WidescreenStoryboard: 1

[Editor]
DistanceSpacing: 0.8
BeatDivisor: 4
GridSize: 4

[Metadata]
Title:Scattered Rose
TitleUnicode:Scattered Rose
Artist:sakuzyo
ArtistUnicode:削除
Creator:[ HalLoWeeN ]
Version:Another
Source:BMS
Tags:
BeatmapID:344987
BeatmapSetID:138103

[Difficulty]
HPDrainRate:8
CircleSize:5
OverallDifficulty:9
ApproachRate:9
SliderMultiplier:1.8
SliderTickRate:1

[Events]
//Background and Video events
0,0,"BG.jpg",0,0
//Break Periods
2,54958,56158
//Storyboard Layer 0 (Background)
//Storyboard Layer 1 (Fail)
//Storyboard Layer 2 (Pass)
//Storyboard Layer 3 (Foreground)
//Storyboard Sound Samples
//Background Colour Transformations
3,100,163,162,255

[TimingPoints]
1425,333.333333333333,4,2,0,50,1,0
6758,-100,4,1,1,70,0,0
9591,-100,4,2,0,70,0,0
10758,-100,4,1,1,70,0,0
12091,-100,4,1,1,70,0,1
12174,-100,4,1,1,70,0,0
19758,-100,4,1,1,55,0,0
20091,-100,4,1,1,70,0,0
22758,-100,4,1,1,70,0,0
28091,-133.333333333333,4,2,1,70,0,0
30758,-100,4,1,1,70,0,0
33424,-100,4,1,1,70,0,1
42758,-100,4,1,1,55,0,1
43091,-100,4,1,1,70,0,1
43258,-100,4,1,1,55,0,1
43591,-100,4,1,1,70,0,0
44091,-100,4,1,1,70,0,1
49424,-100,4,1,1,70,0,0
52799,-100,4,1,1,60,0,0
53091,-100,4,1,1,70,0,0
53133,-100,4,1,1,60,0,0
53424,-100,4,1,1,70,0,0
60008,-100,4,2,0,20,0,0

[Colours]
Combo1 : 192,192,192
Combo2 : 255,70,70
Combo3 : 255,0,128
Combo4 : 128,128,128

[HitObjects]
40,44,1425,37,2,0:0:0:0:
108,20,1591,1,0,0:0:0:0:
96,92,1758,1,0,0:0:0:0:
80,164,1924,1,0,0:0:0:0:
148,144,2091,1,0,0:0:0:0:
164,72,2258,1,0,0:0:0:0:
96,92,2424,1,0,0:0:0:0:
28,112,2591,1,0,0:0:0:0:
80,164,2758,5,2,0:0:0:0:
108,20,2924,1,2,0:0:0:0:
164,72,3258,1,0,0:0:0:0:
216,124,3424,1,0,0:0:0:0:
268,176,3591,1,0,0:0:0:0:
284,104,3758,1,0,0:0:0:0:
232,56,3924,1,0,0:0:0:0:
200,192,4091,1,2,0:0:0:0:
200,192,4758,37,0,0:0:0:0:
128,208,4924,1,0,0:0:0:0:
56,224,5091,1,0,0:0:0:0:
104,276,5258,1,0,0:0:0:0:
80,156,5424,1,2,0:0:0:0:
80,156,5758,5,0,0:0:0:0:
104,52,5924,1,0,0:0:0:0:
160,144,6091,1,0,0:0:0:0:
184,40,6257,1,0,0:0:0:0:
244,132,6424,1,0,0:0:0:0:
268,28,6590,1,4,0:1:0:0:
308,88,6758,6,0,P|352:64|428:152,1,180,4|0,0:0|0:0,0:0:0:0:
404,212,7258,1,0,0:0:0:0:
408,284,7424,2,0,B|352:296|352:296|256:264,1,135,8|0,0:2|0:0,0:0:0:0:
276,288,7758,2,0,P|272:244|296:176,1,90,0|2,0:0|0:0,0:0:0:0:
328,124,8091,2,0,B|280:108|280:108|200:120|200:120|132:96,1,180
72,64,8591,1,2,0:0:0:0:
84,152,8758,2,0,L|68:320,1,135,8|0,0:2|0:0,0:0:0:0:
84,300,9091,1,0,0:0:0:0:
188,228,9258,1,0,0:0:0:0:
96,144,9424,2,0,L|108:40,1,90,6|0,0:0|0:0,0:0:0:0:
172,24,9758,21,0,0:0:0:0:
196,92,9924,1,0,0:0:0:0:
248,40,10091,1,0,0:0:0:0:
272,108,10257,1,0,0:0:0:0:
324,60,10424,1,0,0:0:0:0:
348,128,10590,1,0,0:0:0:0:
396,72,10758,5,2,0:2:0:0:
464,48,10924,1,0,0:0:0:0:
460,32,11008,1,0,0:0:0:0:
456,16,11091,2,0,L|456:136,1,90
408,180,11424,1,12,0:0:0:0:
468,348,11591,1,12,0:0:0:0:
468,348,12091,6,0,B|424:336|424:336|312:360,1,135,6|0,0:0|0:0,0:0:0:0:
320,344,12424,1,0,0:0:0:0:
364,244,12591,1,0,0:0:0:0:
368,228,12674,1,0,0:0:0:0:
372,212,12758,1,0,0:0:0:0:
376,196,12841,1,0,0:0:0:0:
380,180,12924,6,0,B|356:184|356:184|260:160,1,90,2|0,0:0|0:0,0:0:0:0:
288,176,13174,1,0,0:0:0:0:
284,184,13258,2,0,B|304:144|304:144|296:80,1,90,8|0,0:0|0:0,0:0:0:0:
312,84,13508,1,0,0:0:0:0:
324,72,13591,2,0,L|204:68,1,90,2|8,0:0|0:0,0:0:0:0:
156,60,13924,2,0,L|168:12,1,45
96,104,14091,38,0,B|76:128|76:128|8:144,1,90,2|2,0:0|0:0,0:0:0:0:
12,160,14341,1,0,0:0:0:0:
8,176,14424,2,0,L|108:152,1,90,8|0,0:0|0:0,0:0:0:0:
112,164,14674,1,0,0:0:0:0:
128,172,14758,1,2,0:0:0:0:
156,284,14924,1,0,0:0:0:0:
156,284,15091,1,2,0:0:0:0:
256,228,15258,21,12,0:0:0:0:
196,4,15591,1,12,0:0:0:0:
416,80,15924,1,12,0:0:0:0:
384,212,16258,21,2,0:0:0:0:
380,300,16424,2,0,B|336:292|336:292|232:324,1,135,8|0,0:0|0:0,0:0:0:0:
244,336,16758,1,10,0:0:0:0:
240,352,16841,2,0,L|232:248,1,90
228,192,17091,2,0,B|272:200|272:200|320:180,1,90,8|0,0:0|0:0,0:0:0:0:
188,132,17341,1,0,0:0:0:0:
188,132,17424,2,0,B|144:124|144:124|96:144,1,90,2|0,0:0|0:0,0:0:0:0:
28,192,17758,5,8,0:0:0:0:
36,48,17924,1,0,0:0:0:0:
52,40,18008,1,0,0:0:0:0:
68,32,18091,1,0,0:0:0:0:
84,24,18174,1,0,0:0:0:0:
100,16,18258,2,0,B|144:24|144:24|192:4,1,90,2|0,0:0|0:0,0:0:0:0:
220,16,18508,1,0,0:0:0:0:
236,24,18591,2,0,B|280:16|280:16|328:36,1,90,8|0,0:0|0:0,0:0:0:0:
332,20,18841,1,0,0:0:0:0:
340,4,18924,2,0,L|340:116,1,90,0|8,0:0|0:0,0:0:0:0:
380,156,19258,37,0,0:0:0:0:
388,172,19341,1,0,0:0:0:0:
396,188,19424,1,0,0:0:0:0:
300,164,19591,1,0,0:0:0:0:
240,108,19758,2,0,L|252:88,7,22.5
240,108,20091,1,2,0:0:0:0:
212,184,20258,1,0,0:0:0:0:
156,124,20424,5,8,0:0:0:0:
104,184,20591,1,0,0:0:0:0:
100,200,20674,1,0,0:0:0:0:
96,216,20758,1,0,0:0:0:0:
92,232,20841,1,0,0:0:0:0:
88,248,20924,1,2,0:0:0:0:
16,176,21091,1,0,0:0:0:0:
184,256,21258,1,8,0:0:0:0:
60,340,21424,37,0,0:0:0:0:
60,340,21508,1,0,0:0:0:0:
60,340,21591,2,0,B|104:348|104:348|168:332,1,90,0|8,0:0|0:0,0:0:0:0:
320,348,21924,2,0,B|276:340|276:340|212:356,1,90,2|10,0:0|0:0,0:0:0:0:
220,336,22174,1,10,0:0:0:0:
228,300,22258,1,10,0:0:0:0:
253,275,22341,1,10,0:0:0:0:
286,259,22424,1,10,0:0:0:0:
321,254,22507,1,10,0:0:0:0:
356,260,22591,1,10,0:0:0:0:
388,277,22674,1,10,0:0:0:0:
404,308,22758,6,0,B|396:260|396:260|408:208|408:208|400:144,1,135,4|0,0:0|0:0,0:0:0:0:
416,160,23091,1,8,0:0:0:0:
392,328,23258,1,0,0:0:0:0:
304,308,23424,1,0,0:0:0:0:
280,312,23508,1,0,0:0:0:0:
256,316,23591,1,2,0:0:0:0:
316,384,23758,1,0,0:0:0:0:
264,228,23924,1,8,0:0:0:0:
176,344,24091,38,0,B|128:352|128:352|40:328,1,135,2|0,0:0|0:0,0:0:0:0:
32,340,24424,1,8,0:0:0:0:
145,276,24591,1,0,0:0:0:0:
164,272,24674,1,0,0:0:0:0:
180,268,24758,1,0,0:0:0:0:
188,196,24924,1,2,0:0:0:0:
248,236,25091,1,8,0:0:0:0:
252,164,25258,1,0,0:0:0:0:
180,268,25424,6,0,P|128:240|136:136,1,135,2|0,0:0|0:0,0:0:0:0:
128,160,25758,2,0,P|140:124|120:64,1,90,8|0,0:0|0:0,0:0:0:0:
108,76,26008,1,0,0:0:0:0:
92,76,26091,2,0,L|208:76,1,90,0|2,0:0|0:0,0:0:0:0:
232,16,26424,1,0,0:0:0:0:
224,136,26591,1,8,0:0:0:0:
320,84,26758,37,2,0:0:0:0:
324,68,26841,1,0,0:0:0:0:
328,52,26924,1,0,0:0:0:0:
376,140,27091,1,8,0:0:0:0:
452,112,27258,1,0,0:0:0:0:
440,192,27424,1,0,0:0:0:0:
440,192,27508,1,0,0:0:0:0:
440,192,27591,2,0,L|428:248,1,45,10|10,0:0|0:0,0:0:0:0:
468,344,27758,2,0,L|480:288,1,45,10|10,0:0|0:0,0:0:0:0:
428,200,27924,2,0,L|416:256,1,45,10|10,0:0|0:0,0:0:0:0:
484,336,28091,6,0,B|500:276|500:276|492:196,1,135.000005149842,12|0,0:0|0:0,0:0:0:0:
472,140,28591,1,0,0:0:0:0:
436,80,28758,2,0,P|368:52|304:52,1,135.000005149842
252,92,29258,1,0,0:0:0:0:
200,48,29424,2,0,P|132:49|71:76,1,135.000005149842
40,136,29924,1,0,0:0:0:0:
19,203,30091,2,0,B|12:276|12:276|28:336,1,135.000005149842,8|0,0:0|0:0,0:0:0:0:
80,380,30591,1,0,0:0:0:0:
180,320,30758,5,2,0:0:0:0:
144,256,30924,1,2,0:0:0:0:
316,340,31091,1,2,0:0:0:0:
280,276,31258,1,2,0:0:0:0:
356,280,31424,1,2,0:0:0:0:
372,284,31508,1,2,0:0:0:0:
388,288,31591,2,0,L|368:232,1,45,2|2,0:0|0:0,0:0:0:0:
364,156,31758,2,0,L|419:176,1,45,2|2,0:0|0:0,0:0:0:0:
488,220,31924,2,0,L|436:249,1,45,2|2,0:0|0:0,0:0:0:0:
400,292,32091,5,2,0:0:0:0:
316,340,32258,1,0,0:0:0:0:
300,348,32341,1,0,0:0:0:0:
284,356,32424,2,0,P|280:248|272:228,1,90
232,192,32758,1,12,0:0:0:0:
108,320,32924,1,12,0:0:0:0:
108,320,33424,6,0,B|96:272|96:272|120:164,1,135,6|0,0:0|0:0,0:0:0:0:
108,172,33758,1,8,0:0:0:0:
60,76,33924,1,0,0:0:0:0:
56,60,34008,1,0,0:0:0:0:
52,44,34091,1,0,0:0:0:0:
48,28,34174,1,0,0:0:0:0:
44,12,34258,2,0,B|72:24|72:24|168:12,1,90,2|0,0:0|0:0,0:0:0:0:
148,24,34508,1,0,0:0:0:0:
164,32,34591,2,0,B|284:16,1,90,8|0,0:0|0:0,0:0:0:0:
260,4,34841,2,0,L|256:56,1,45,0|2,0:0|0:0,0:0:0:0:
252,120,35008,1,0,0:0:0:0:
252,120,35091,6,0,L|256:224,1,90,8|0,0:0|0:0,0:0:0:0:
336,172,35424,1,2,0:0:0:0:
164,200,35591,1,2,0:0:0:0:
312,284,35758,1,8,0:0:0:0:
224,296,35924,1,0,0:0:0:0:
256,212,36091,5,2,0:0:0:0:
256,212,36258,1,0,0:0:0:0:
256,212,36424,1,0,0:0:0:0:
224,296,36591,5,0,0:0:0:0:
52,240,36924,1,2,0:0:0:0:
172,104,37258,1,0,0:0:0:0:
52,240,37591,5,2,0:0:0:0:
76,328,37758,2,0,B|116:352|116:352|208:340,1,135,8|0,0:0|0:0,0:0:0:0:
212,356,38091,1,2,0:0:0:0:
220,372,38174,2,0,L|216:260,1,90
212,204,38424,2,0,B|176:220|176:220|104:204,1,90,8|0,0:0|0:0,0:0:0:0:
220,132,38674,1,0,0:0:0:0:
220,132,38758,2,0,B|256:116|256:116|328:132,1,90,2|0,0:0|0:0,0:0:0:0:
404,148,39091,5,8,0:0:0:0:
392,48,39258,1,0,0:0:0:0:
376,44,39341,1,0,0:0:0:0:
360,40,39424,1,0,0:0:0:0:
344,36,39508,1,0,0:0:0:0:
328,32,39591,2,0,B|296:20|296:20|220:36,1,90,2|0,0:0|0:0,0:0:0:0:
208,12,39841,1,0,0:0:0:0:
192,4,39924,2,0,B|160:16|160:16|84:0,1,90,0|2,0:0|0:0,0:0:0:0:
96,20,40174,1,0,0:0:0:0:
88,36,40258,2,0,L|204:56,1,90,2|8,0:0|0:0,0:0:0:0:
264,76,40591,37,8,0:0:0:0:
256,92,40674,1,0,0:0:0:0:
248,108,40758,1,2,0:0:0:0:
352,56,40924,1,0,0:0:0:0:
416,120,41091,1,10,0:0:0:0:
266,213,41258,1,2,0:0:0:0:
328,148,41424,1,8,0:0:0:0:
356,232,41591,2,0,L|456:212,1,90,8|8,0:0|0:0,0:0:0:0:
420,300,41924,2,0,L|288:324,1,135,2|0,0:0|0:0,0:0:0:0:
280,340,42258,2,0,P|264:296|264:232,1,90,8|2,0:0|0:0,0:0:0:0:
300,172,42591,1,8,0:0:0:0:
284,164,42674,1,0,0:0:0:0:
268,156,42758,2,0,L|288:128,7,22.5
252,148,43091,1,8,0:0:0:0:
192,200,43258,2,0,L|178:218,7,22.5
204,208,43591,21,2,0:0:0:0:
220,216,43674,1,2,0:0:0:0:
236,224,43758,2,0,L|280:248,1,45,2|2,0:0|0:0,0:0:0:0:
216,316,43924,2,0,L|169:334,1,45,2|2,0:0|0:0,0:0:0:0:
136,256,44091,22,0,B|156:212|156:212|147:125,1,135,6|0,0:0|0:0,0:0:0:0:
156,112,44424,1,8,0:0:0:0:
120,268,44591,1,0,0:0:0:0:
104,276,44674,1,0,0:0:0:0:
88,284,44758,1,0,0:0:0:0:
72,292,44841,1,0,0:0:0:0:
56,300,44924,2,0,L|48:188,1,90,2|0,0:0|0:0,0:0:0:0:
48,136,45174,1,0,0:0:0:0:
48,136,45258,2,0,B|92:128|92:128|128:92,1,90,8|0,0:0|0:0,0:0:0:0:
144,96,45508,2,0,L|108:144,1,45,0|2,0:0|0:0,0:0:0:0:
164,188,45674,1,0,0:0:0:0:
164,188,45758,6,0,L|264:192,1,90,8|0,0:0|0:0,0:0:0:0:
248,76,46091,1,2,0:0:0:0:
248,296,46258,1,2,0:0:0:0:
372,140,46424,1,8,0:0:0:0:
360,260,46591,1,0,0:0:0:0:
253,191,46758,5,2,0:0:0:0:
253,191,46924,1,0,0:0:0:0:
253,191,47091,1,0,0:0:0:0:
360,260,47258,5,12,0:0:0:0:
324,12,47591,1,12,0:0:0:0:
248,296,47924,1,12,0:0:0:0:
253,191,48258,5,2,0:0:0:0:
196,112,48424,2,0,P|148:96|60:144,1,135,8|0,0:0|0:0,0:0:0:0:
72,108,48758,1,2,0:0:0:0:
72,108,48841,2,0,L|64:224,1,90
60,272,49091,2,0,B|96:256|96:256|172:272,1,90
220,188,49341,1,0,0:0:0:0:
220,188,49424,2,0,B|184:204|184:204|108:188,1,90,6|0,0:0|0:0,0:0:0:0:
56,160,49758,6,0,B|72:104|72:104|52:24,1,135
68,20,50091,1,8,0:2:0:0:
40,172,50341,1,0,0:0:0:0:
152,100,50591,1,2,0:0:0:0:
299,29,50758,6,0,B|255:45|255:45|207:25,1,90,2|0,0:0|2:0,0:0:0:0:
458,29,51091,38,0,B|440:104|440:104|456:160,1,135
472,172,51424,1,8,0:0:0:0:
444,20,51674,1,0,0:0:0:0:
360,100,51924,1,2,0:0:0:0:
368,232,52091,37,2,0:0:0:0:
380,244,52174,1,2,0:0:0:0:
392,256,52258,1,2,0:0:0:0:
404,268,52341,1,2,0:0:0:0:
416,280,52424,2,0,L|352:276,1,45,8|0,0:0|0:0,0:0:0:0:
388,352,52591,2,0,L|452:356,1,45,8|0,0:0|0:0,0:0:0:0:
312,324,52758,2,0,L|272:320,7,22.5
272,320,53091,2,0,L|232:324,7,22.5,0|0|0|0|2|0|0|0,0:0|0:0|0:0|0:0|0:0|0:0|0:0|0:0,0:0:0:0:
232,320,53424,5,2,0:0:0:0:
220,248,53591,1,2,0:0:0:0:
116,304,53758,1,2,0:0:0:0:
104,376,53925,1,2,0:0:0:0:
12,292,54091,38,0,L|24:236,1,45,2|2,0:0|0:0,0:0:0:0:
104,136,54258,2,0,L|92:192,1,45,2|2,0:0|0:0,0:0:0:0:
28,284,54424,2,0,L|40:228,1,45,2|2,0:0|0:0,0:0:0:0:
120,128,54591,2,0,L|108:184,1,45,2|2,0:0|0:0,0:0:0:0:
48,272,54758,1,10,0:0:0:0:
203,240,56758,38,0,P|184:251|162:256,1,45,2|0,0:0|0:0,0:0:0:0:
308,143,56924,2,0,P|327:132|349:127,1,45,2|0,0:0|0:0,0:0:0:0:
303,243,57091,2,0,P|311:265|312:287,1,45,8|0,0:0|0:0,0:0:0:0:
208,140,57258,34,0,P|200:118|199:96,1,45,8|0,0:0|0:0,0:0:0:0:
256,192,57424,1,14,0:0:0:0:
256,192,57508,12,0,60008,0:0:0:0:
