osu file format v13

[General]
AudioFilename: Neurotoxin.mp3
AudioLeadIn: 0
PreviewTime: 17705
Countdown: 0
SampleSet: Soft
StackLeniency: 0.7
Mode: 0
LetterboxInBreaks: 0
WidescreenStoryboard: 1

[Editor]
DistanceSpacing: 0.7
BeatDivisor: 4
GridSize: 4
TimelineZoom: 1.1

[Metadata]
Title:Neurotoxin
TitleUnicode:Neurotoxin
Artist:sakuzyo
ArtistUnicode:削除
Creator:kiddly
Version:Standard
Source:
Tags:BMS selentia bof2011 Liquefied Cyber Punk dnb drum&bass Low jacob
BeatmapID:481966
BeatmapSetID:192995

[Difficulty]
HPDrainRate:3
CircleSize:3
OverallDifficulty:2
ApproachRate:4
SliderMultiplier:1.1
SliderTickRate:1

[Events]
//Background and Video events
0,0,"BG.jpg",0,0
//Break Periods
2,84571,93718
2,100571,103718
//Storyboard Layer 0 (Background)
//Storyboard Layer 1 (Fail)
//Storyboard Layer 2 (Pass)
//Storyboard Layer 3 (Foreground)
//Storyboard Sound Samples
//Background Colour Transformations
3,100,163,162,255

[TimingPoints]
372,333.333333333333,4,2,0,35,1,0
6871,-100,4,1,0,80,0,0
95023,-100,4,1,0,30,0,0
96371,-100,4,1,0,40,0,0
97705,-100,4,1,0,50,0,0
99038,-100,4,1,0,60,0,0
105038,-100,4,1,0,80,0,0
127038,-100,4,1,0,80,0,1
137705,-100,4,1,0,80,0,0
148371,-100,4,2,0,5,0,0

[Colours]
Combo1 : 159,146,102
Combo2 : 154,154,154
Combo3 : 55,118,223
Combo4 : 87,100,119

[HitObjects]
444,184,6538,6,0,L|434:259,1,55,0|2,0:0|0:0,0:0:0:0:
360,320,7038,6,0,P|300:288|244:300,1,110,0|8,0:0|0:0,0:0:0:0:
108,356,7871,1,0,0:0:0:0:
48,264,8205,1,8,0:0:0:0:
140,200,8538,6,0,L|216:200,1,55,0|8,0:0|0:0,0:0:0:0:
56,108,9205,2,0,P|80:96|116:96,1,55,0|8,0:0|0:0,0:0:0:0:
216,104,9705,6,0,P|264:92|308:40,1,110,0|8,0:0|0:0,0:0:0:0:
468,76,10538,2,0,P|436:68|400:68,1,55,0|8,0:0|0:0,0:0:0:0:
288,176,11205,2,0,P|315:177|341:185,1,55,0|8,0:0|0:0,0:0:0:0:
448,312,11871,2,0,P|416:304|380:304,1,55,0|8,0:0|0:0,0:0:0:0:
292,344,12371,6,0,L|176:344,1,110,0|8,0:0|0:0,0:0:0:0:
48,248,13205,2,0,P|12:176|20:140,1,110,0|8,0:0|0:0,0:0:0:0:
104,84,13871,2,0,L|164:100,1,55,0|8,0:0|0:0,0:0:0:0:
140,260,14538,2,0,L|200:272,1,55,0|8,0:0|0:0,0:0:0:0:
264,184,15038,6,0,B|252:144|252:144|264:112|264:112|256:76,1,110,0|8,0:0|0:0,0:0:0:0:
396,168,15871,2,0,P|416:224|388:276,1,110,0|8,0:0|0:0,0:0:0:0:
360,272,16371,2,0,P|304:252|248:260,1,110,0|2,0:0|2:2,0:0:0:0:
116,348,17205,2,0,L|40:344,1,55,0|8,0:0|0:0,0:0:0:0:
28,240,17705,6,0,P|4:160|44:76,1,165,0|2,0:0|0:2,0:0:0:0:
332,228,19205,2,0,P|396:208|444:216,1,110,0|2,0:0|0:2,0:0:0:0:
392,316,19871,2,0,P|328:336|280:328,1,110,0|2,0:0|0:2,0:0:0:0:
68,328,20871,5,2,0:2:0:0:
172,296,21205,1,0,0:0:0:0:
88,224,21538,1,2,0:2:0:0:
300,48,22371,5,2,0:2:0:0:
404,80,22705,1,0,0:0:0:0:
320,152,23038,2,0,P|384:192|480:160,1,165,4|2,0:0|0:2,0:0:0:0:
196,120,24371,6,0,P|132:80|36:112,1,165,4|2,0:0|0:2,0:0:0:0:
324,76,25705,2,0,L|300:264,1,165,4|2,0:0|0:2,0:0:0:0:
172,336,26705,1,2,0:2:0:0:
68,372,27038,2,0,P|16:276|92:192,1,220,4|6,0:0|0:2,0:0:0:0:
296,192,28371,6,0,B|352:200|352:200|396:180|396:180|464:192,1,165,0|2,0:0|0:2,0:0:0:0:
148,316,29871,2,0,B|112:352|112:352|44:340,1,110,0|2,0:0|0:2,0:0:0:0:
96,240,30538,2,0,B|132:204|132:204|200:216,1,110,0|2,0:0|0:2,0:0:0:0:
368,344,31538,5,2,0:2:0:0:
347,237,31872,1,0,0:0:0:0:
450,277,32205,1,2,0:2:0:0:
212,140,33038,5,2,0:2:0:0:
233,247,33372,1,0,0:0:0:0:
130,207,33705,2,0,B|96:160|96:160|128:48,1,165,0|2,0:0|0:2,0:0:0:0:
364,192,35038,2,0,B|398:239|398:239|366:351,1,165,4|2,0:0|0:2,0:0:0:0:
164,156,36371,6,0,L|40:148,1,110,4|2,0:0|0:2,0:0:0:0:
116,240,37038,2,0,P|164:252|232:224,1,110,6|0,0:2|0:0,0:0:0:0:
244,204,37538,1,6,0:2:0:0:
480,64,38371,2,0,L|352:56,1,110,2|0,0:2|0:0,0:0:0:0:
260,48,39038,1,4,0:0:0:0:
52,296,41705,6,0,P|88:264|164:272,1,110
176,288,42205,2,0,L|292:296,1,110,0|2,0:0|0:0,0:0:0:0:
376,356,42871,2,0,L|492:364,1,110,0|2,0:0|0:0,0:0:0:0:
460,256,43538,2,0,P|416:220|356:220,1,110,0|2,0:0|0:0,0:0:0:0:
332,236,44038,1,0,0:0:0:0:
328,128,44371,6,0,L|464:120,1,110
460,92,44871,2,0,P|424:48|352:48,1,110,0|2,0:0|0:0,0:0:0:0:
268,64,45538,2,0,L|136:72,1,110,0|2,0:0|0:0,0:0:0:0:
192,176,46205,2,0,P|120:184|72:152,1,110,0|2,0:0|0:0,0:0:0:0:
68,136,46705,1,0,0:0:0:0:
16,232,47038,6,0,L|32:352,1,110
64,360,47538,2,0,P|104:328|168:328,1,110,0|2,0:0|0:0,0:0:0:0:
260,276,48205,2,0,P|300:308|364:308,1,110,0|2,0:0|0:0,0:0:0:0:
460,348,48871,2,0,L|440:232,1,110,0|2,0:0|0:0,0:0:0:0:
432,200,49371,1,0,0:0:0:0:
327,164,49705,6,0,P|263:156|215:192,1,110
207,212,50205,2,0,L|23:228,1,165
58,261,50871,1,0,0:0:0:0:
72,296,51038,1,0,0:0:0:0:
172,344,51371,1,2,0:0:0:0:
276,384,51705,2,0,L|388:376,1,110,0|2,0:0|0:0,0:0:0:0:
460,296,52371,6,0,P|418:261|364:263,1,110
336,288,52871,2,0,L|226:295,1,110,0|2,0:0|0:0,0:0:0:0:
136,356,53537,2,0,L|26:363,1,110,0|2,0:0|0:0,0:0:0:0:
52,255,54204,2,0,P|93:221|147:217,1,110,0|2,0:0|0:0,0:0:0:0:
180,236,54704,1,0,0:0:0:0:
184,128,55038,6,0,L|74:121,1,110
51,92,55538,2,0,P|85:49|138:40,1,110,0|2,0:0|0:0,0:0:0:0:
244,64,56205,2,0,L|353:70,1,110,0|2,0:0|0:0,0:0:0:0:
319,175,56872,2,0,P|373:187|423:167,1,110,0|2,0:0|0:0,0:0:0:0:
444,136,57371,1,0,0:0:0:0:
496,232,57705,6,0,L|481:341,1,110
448,360,58205,2,0,P|405:326|351:325,1,110,0|2,0:0|0:0,0:0:0:0:
252,275,58872,2,0,P|209:309|155:310,1,110,0|2,0:0|0:0,0:0:0:0:
52,348,59538,2,0,L|70:239,1,110,0|2,0:0|0:0,0:0:0:0:
80,200,60037,1,0,0:0:0:0:
180,152,60371,6,0,L|312:156,3,110,0|2|0|2,0:0|0:0|0:0|0:0,0:0:0:0:
320,132,61538,1,0,0:0:0:0:
352,108,61705,2,0,L|484:112,2,110,0|2|4,0:0|0:0|0:0,0:0:0:0:
408,252,63038,6,0,P|360:284|288:272,1,110,0|8,0:0|0:0,0:0:0:0:
200,252,63871,2,0,L|128:264,2,55,0|0|8,0:0|0:0|0:0,0:0:0:0:
64,180,64871,2,0,L|-8:192,1,55,0|0,0:0|0:0,0:0:0:0:
100,64,65705,6,0,P|148:32|220:44,1,110,0|8,0:0|0:0,0:0:0:0:
308,64,66538,2,0,L|380:52,2,55,0|0|8,0:0|0:0|0:0,0:0:0:0:
444,136,67538,2,0,L|516:124,1,55,0|0,0:0|0:0,0:0:0:0:
484,236,68038,1,0,0:0:0:0:
380,204,68371,6,0,P|324:164|232:188,1,165
264,348,69371,1,8,0:0:0:0:
164,304,69705,2,0,P|108:344|16:320,1,165
132,200,70705,1,8,0:0:0:0:
240,220,71038,6,0,L|352:224,1,110,0|8,0:0|0:0,0:0:0:0:
424,140,71705,2,0,L|314:136,1,110,0|8,0:0|0:0,0:0:0:0:
204,136,72371,1,0,0:0:0:0:
408,132,73705,6,0,P|360:100|288:112,1,110,0|8,0:0|0:0,0:0:0:0:
200,132,74538,2,0,L|128:120,2,55,0|0|8,0:0|0:0|0:0,0:0:0:0:
64,204,75538,2,0,L|-8:192,1,55,0|0,0:0|0:0,0:0:0:0:
100,320,76372,6,0,P|148:352|220:340,1,110,0|8,0:0|0:0,0:0:0:0:
308,320,77205,2,0,L|380:332,2,55,0|0|8,0:0|0:0|0:0,0:0:0:0:
444,248,78205,2,0,L|516:260,1,55,0|0,0:0|0:0,0:0:0:0:
484,148,78705,1,0,0:0:0:0:
380,180,79038,6,0,P|324:220|232:196,1,165,0|0,0:0|0:0,0:0:0:0:
240,160,79705,1,8,0:0:0:0:
256,52,80038,1,0,0:0:0:0:
156,96,80372,2,0,P|100:56|8:80,1,165
16,116,81038,1,8,0:0:0:0:
36,224,81372,1,0,0:0:0:0:
140,192,81705,6,0,L|252:188,1,110,0|8,0:0|0:0,0:0:0:0:
288,292,82372,2,0,L|397:288,1,110,0|8,0:0|0:0,0:0:0:0:
464,200,83038,1,4,0:0:0:0:
256,192,83205,12,0,84371,0:0:0:0:
192,296,95038,6,0,L|264:288,2,55,0|0|8,0:0|0:0|0:0,0:0:0:0:
36,348,95871,6,0,P|0:272|20:232,1,110,0|8,0:0|0:0,0:0:0:0:
32,224,96371,2,0,L|104:216,2,55,0|0|8,0:0|0:0|0:0,0:0:0:0:
188,168,97205,6,0,P|264:152|304:172,1,110,0|8,0:0|0:0,0:0:0:0:
324,184,97705,2,0,L|392:168,2,55,0|0|8,0:0|0:0|0:0,0:0:0:0:
428,312,98538,6,0,P|352:328|312:308,1,110,0|8,0:0|0:0,0:0:0:0:
292,296,99038,2,0,L|224:312,2,55,0|0|8,0:0|0:0|0:0,0:0:0:0:
188,168,99871,6,0,P|184:128|196:100,2,55,0|8|0,0:0|0:0|0:0,0:0:0:0:
220,187,100371,1,4,0:0:0:0:
244,120,105038,6,0,L|176:128,1,55
28,144,105705,6,0,P|4:224|44:308,1,165,0|2,0:0|0:2,0:0:0:0:
332,156,107205,2,0,P|396:176|444:168,1,110,0|2,0:0|0:2,0:0:0:0:
392,68,107871,2,0,P|328:48|280:56,1,110,0|2,0:0|0:2,0:0:0:0:
68,56,108871,5,2,0:2:0:0:
172,88,109205,1,0,0:0:0:0:
88,160,109538,1,2,0:2:0:0:
300,336,110371,5,2,0:2:0:0:
404,304,110705,1,0,0:0:0:0:
320,232,111038,2,0,P|384:192|480:224,1,165,4|2,0:0|0:2,0:0:0:0:
196,264,112371,6,0,P|132:304|36:272,1,165,4|2,0:0|0:2,0:0:0:0:
324,308,113705,2,0,L|300:120,1,165,4|2,0:0|0:2,0:0:0:0:
172,48,114705,1,2,0:2:0:0:
68,12,115038,2,0,P|16:108|92:192,1,220,4|6,0:0|0:2,0:0:0:0:
296,192,116371,6,0,B|352:184|352:184|396:204|396:204|464:192,1,165,0|2,0:0|0:2,0:0:0:0:
148,68,117871,2,0,B|112:32|112:32|44:44,1,110,0|2,0:0|0:2,0:0:0:0:
96,144,118538,2,0,B|132:180|132:180|200:168,1,110,0|2,0:0|0:2,0:0:0:0:
368,40,119538,5,2,0:2:0:0:
347,147,119872,1,0,0:0:0:0:
450,107,120205,1,2,0:2:0:0:
212,244,121038,5,2,0:2:0:0:
233,137,121372,1,0,0:0:0:0:
130,177,121705,2,0,B|96:224|96:224|128:336,1,165,4|2,0:0|0:2,0:0:0:0:
364,192,123038,2,0,B|398:145|398:145|366:33,1,165,4|2,0:0|0:2,0:0:0:0:
164,228,124371,6,0,L|40:236,1,110,4|2,0:0|0:2,0:0:0:0:
116,144,125038,2,0,P|164:132|232:160,1,110,6|0,0:2|0:0,0:0:0:0:
244,180,125538,1,6,0:2:0:0:
480,320,126371,6,0,L|352:328,1,110,2|0,0:2|0:0,0:0:0:0:
260,344,127038,6,2,P|184:316|144:332,1,110,2|0,0:0|0:0,0:0:0:0:
56,360,127705,2,2,P|28:284|72:220,1,165
400,196,129205,6,2,P|416:260|416:264,2,55,0|2|0,0:0|0:0|0:0,0:0:0:0:
368,176,129705,2,2,P|424:144|484:152,1,110,0|2,0:0|0:0,0:0:0:0:
392,52,130371,2,2,P|308:36|220:36,1,165,0|2,0:0|0:0,0:0:0:0:
80,108,131371,6,2,P|112:148|104:216,2,110,2|0|2,0:0|0:0|0:0,0:0:0:0:
4,188,132371,2,0,L|16:252,1,55,0|2,0:0|0:0,0:0:0:0:
28,352,132871,6,2,P|88:320|152:332,1,110,2|0,0:0|0:0,0:0:0:0:
228,372,133538,1,2,0:0:0:0:
268,368,133705,2,2,L|384:360,1,110,0|2,0:0|0:0,0:0:0:0:
468,300,134371,2,2,P|492:228|464:180,1,110,0|2,0:0|0:0,0:0:0:0:
388,140,135038,5,4,0:0:0:0:
184,52,135705,1,8,0:0:0:0:
96,256,136371,1,4,0:0:0:0:
300,344,137038,1,8,0:0:0:0:
440,172,137705,6,0,P|464:252|424:336,1,165,0|2,0:0|0:2,0:0:0:0:
136,184,139205,2,0,P|72:204|24:196,1,110,0|2,0:0|0:2,0:0:0:0:
76,96,139871,2,0,P|140:76|188:84,1,110,0|2,0:0|0:2,0:0:0:0:
400,84,140871,5,2,0:2:0:0:
296,116,141205,1,0,0:0:0:0:
380,188,141538,1,2,0:2:0:0:
168,364,142371,5,2,0:2:0:0:
64,332,142705,1,0,0:0:0:0:
148,260,143038,2,0,P|84:220|-12:252,1,165,4|2,0:0|0:2,0:0:0:0:
272,292,144371,6,0,P|336:332|432:300,1,165,4|2,0:0|0:2,0:0:0:0:
144,336,145705,2,0,L|156:208,1,110,4|8,0:0|1:1,0:0:0:0:
164,116,146371,1,12,0:0:0:0:
260,168,146705,1,2,0:2:0:0:
296,156,146871,2,0,P|348:252|272:336,1,220,8|2,0:0|0:2,0:0:0:0:
180,304,147871,1,0,0:0:0:0:
76,272,148205,1,0,0:0:0:0:
256,192,148371,12,0,151038,0:0:0:0:
