osu file format v13

[General]
AudioFilename: Neurotoxin.mp3
AudioLeadIn: 0
PreviewTime: 17705
Countdown: 0
SampleSet: Soft
StackLeniency: 0.7
Mode: 0
LetterboxInBreaks: 0
WidescreenStoryboard: 1

[Editor]
DistanceSpacing: 1
BeatDivisor: 4
GridSize: 4
TimelineZoom: 1.000001

[Metadata]
Title:Neurotoxin
TitleUnicode:Neurotoxin
Artist:sakuzyo
ArtistUnicode:削除
Creator:kiddly
Version:Hyper
Source:
Tags:BMS selentia bof2011 Liquefied Cyber Punk dnb drum&bass Low jacob
BeatmapID:465022
BeatmapSetID:192995

[Difficulty]
HPDrainRate:5
CircleSize:4
OverallDifficulty:7
ApproachRate:8.3
SliderMultiplier:1.6
SliderTickRate:1

[Events]
//Background and Video events
0,0,"BG.jpg",0,0
//Break Periods
2,84571,94288
//Storyboard Layer 0 (Background)
//Storyboard Layer 1 (Fail)
//Storyboard Layer 2 (Pass)
//Storyboard Layer 3 (Foreground)
//Storyboard Sound Samples
//Background Colour Transformations
3,100,163,162,255

[TimingPoints]
372,333.333333333333,4,2,0,15,1,0
4038,-100,4,2,0,25,0,0
4371,-100,4,2,0,30,0,0
4705,-100,4,2,0,40,0,0
5038,-100,4,2,0,50,0,0
5371,-100,4,2,0,60,0,0
5705,-100,4,2,0,70,0,0
6371,-100,4,2,0,5,0,0
6705,-100,4,2,0,65,0,0
6871,-100,4,2,1,100,0,0
23038,-100,4,1,0,70,0,0
23705,-100,4,2,1,100,0,0
24371,-100,4,1,0,70,0,0
25038,-100,4,2,1,100,0,0
25705,-100,4,1,0,70,0,0
28205,-100,4,2,1,100,0,0
33705,-100,4,1,0,70,0,0
34538,-100,4,2,1,100,0,0
35038,-100,4,1,0,70,0,0
35871,-100,4,2,1,100,0,0
36371,-100,4,1,0,70,0,0
39121,-100,4,2,1,30,0,0
40371,-100,4,2,1,40,0,0
40538,-100,4,2,1,45,0,0
40705,-100,4,2,1,50,0,0
40871,-100,4,2,1,55,0,0
41038,-100,4,2,1,60,0,0
41205,-100,4,2,1,65,0,0
41371,-100,4,2,0,70,0,0
41705,-100,4,2,1,100,0,0
51038,-100,4,1,0,70,0,0
52371,-100,4,2,1,100,0,0
60371,-100,4,1,0,70,0,0
63038,-100,4,2,2,100,0,0
79038,-100,4,1,0,70,0,0
79205,-100,4,2,2,100,0,0
79705,-100,4,1,0,70,0,0
79871,-100,4,2,2,100,0,0
81038,-100,4,1,0,70,0,0
81205,-100,4,2,2,100,0,0
83038,-100,4,2,0,30,0,0
83205,-100,4,2,0,39,0,0
83371,-100,4,2,0,48,0,0
83538,-100,4,2,0,56,0,0
83705,-100,4,2,0,65,0,0
83871,-100,4,2,0,74,0,0
84038,-100,4,2,0,83,0,0
84205,-100,4,2,0,92,0,0
95038,-100,4,1,0,30,0,0
96371,-100,4,1,0,40,0,0
97705,-100,4,1,0,50,0,0
99038,-100,4,1,0,60,0,0
99205,-100,4,1,0,60,0,0
100038,-100,4,1,0,60,0,0
100202,-100,4,1,0,70,0,0
100371,-100,4,2,3,80,0,0
105038,-100,4,1,0,70,0,0
105705,-100,4,2,1,100,0,0
111038,-100,4,1,0,70,0,0
111871,-100,4,2,1,100,0,0
112371,-100,4,1,0,70,0,0
113205,-100,4,2,1,100,0,0
113705,-100,4,1,0,70,0,0
116371,-100,4,2,1,100,0,0
121705,-100,4,1,0,70,0,0
122538,-100,4,2,1,100,0,0
123038,-100,4,1,0,70,0,0
123871,-100,4,2,1,100,0,0
124371,-100,4,1,0,70,0,0
126371,-100,4,2,0,70,0,0
127038,-100,4,1,0,70,0,1
137705,-100,4,2,1,100,0,0
143038,-100,4,1,0,70,0,0
143871,-100,4,2,1,100,0,0
144371,-100,4,1,0,70,0,0
145205,-100,4,2,1,100,0,0
145705,-100,4,1,0,70,0,0
148371,-100,4,2,1,5,0,0

[Colours]
Combo1 : 159,146,102
Combo2 : 154,154,154
Combo3 : 55,118,223
Combo4 : 87,100,119

[HitObjects]
256,192,3038,12,0,6371,0:0:0:0:
300,252,7038,6,0,P|356:208|452:220,1,160,4|8,0:0|0:0,0:0:0:0:
476,284,7538,1,2,0:0:0:0:
396,360,7705,5,2,0:0:0:0:
384,364,7788,1,2,0:0:0:0:
372,368,7871,2,0,L|384:280,1,80,4|2,0:0|0:0,0:0:0:0:
396,208,8205,1,8,0:0:0:0:
280,128,8538,6,0,L|290:48,2,80,4|8|2,0:0|0:0|0:0,0:0:0:0:
268,136,8955,1,2,0:0:0:0:
256,144,9038,1,2,0:0:0:0:
184,104,9205,1,4,0:0:0:0:
104,104,9371,1,8,0:0:0:0:
36,148,9538,1,2,0:0:0:0:
16,228,9705,6,0,B|26:282|26:282|58:321|58:321|70:384,1,160,4|8,0:0|0:0,0:0:0:0:
152,352,10205,1,2,0:0:0:0:
212,292,10371,1,2,0:0:0:0:
220,300,10455,1,2,0:0:0:0:
228,308,10538,2,0,L|328:316,2,80,4|8|2,0:0|0:0|0:0,0:0:0:0:
488,232,11205,6,0,L|408:225,1,80,4|8,0:0|0:0,0:0:0:0:
352,160,11538,1,2,0:0:0:0:
360,148,11621,1,2,0:0:0:0:
368,136,11705,1,2,0:0:0:0:
308,224,11871,1,4,0:0:0:0:
272,152,12038,1,8,0:0:0:0:
236,80,12205,1,2,0:0:0:0:
176,168,12371,6,0,P|112:136|24:156,1,160,4|8,0:0|0:0,0:0:0:0:
48,308,12871,1,2,0:0:0:0:
124,244,13038,1,2,0:0:0:0:
124,244,13121,1,2,0:0:0:0:
124,244,13205,2,0,L|212:256,1,80,4|2,0:0|0:0,0:0:0:0:
248,364,13538,2,0,P|288:372|328:352,1,80,8|2,0:0|0:0,0:0:0:0:
368,284,13871,5,4,0:0:0:0:
368,284,14038,2,0,L|356:192,1,80,8|2,0:0|0:0,0:0:0:0:
424,160,14288,1,2,0:0:0:0:
436,168,14371,2,0,L|446:247,1,80,2|4,0:0|0:0,0:0:0:0:
284,244,14705,2,0,L|273:164,1,80,8|2,0:0|0:0,0:0:0:0:
192,304,15038,6,0,B|132:313|132:313|90:303|90:303|31:313,1,160,4|8,0:0|0:0,0:0:0:0:
44,200,15538,2,0,P|48:152|60:104,1,80,2|2,0:0|0:0,0:0:0:0:
65,115,15788,1,2,0:0:0:0:
76,112,15871,2,0,P|136:162|116:240,1,160,4|8,0:0|0:0,0:0:0:0:
28,304,16371,5,4,0:0:0:0:
140,356,16538,1,2,0:0:0:0:
160,360,16621,1,2,0:0:0:0:
180,364,16705,1,2,0:0:0:0:
200,368,16788,1,2,0:0:0:0:
220,372,16871,2,0,L|252:328,6,40,2|2|2|2|4|2|8,0:0|0:0|0:0|0:0|0:0|0:0|0:0,0:0:0:0:
289,176,17705,6,0,P|207:185|112:204,1,160,4|8,0:0|0:0,0:0:0:0:
84,284,18205,1,2,0:0:0:0:
156,344,18371,1,2,0:0:0:0:
156,344,18455,1,2,0:0:0:0:
156,344,18538,2,0,P|204:348|248:328,1,80,4|2,0:0|0:0,0:0:0:0:
304,260,18871,1,8,0:0:0:0:
420,376,19205,5,4,0:0:0:0:
504,344,19371,1,8,0:0:0:0:
420,376,19538,2,0,P|424:300|496:256,1,160,2|4,0:0|0:0,0:0:0:0:
504,344,20038,1,8,0:0:0:0:
400,200,20205,6,0,B|340:188|340:188|297:210|297:210|243:200,1,160,2|2,0:0|0:0,0:0:0:0:
140,202,20705,1,8,0:0:0:0:
36,224,20871,2,0,P|38:169|63:136,1,80,2|2,0:0|0:0,2:0:0:0:
61,143,21121,1,2,2:0:0:0:
74,140,21205,1,4,2:0:0:0:
100,276,21371,1,8,0:0:0:0:
16,320,21538,6,0,P|96:308|156:356,1,160,2|4,0:0|0:0,0:0:0:0:
248,268,22038,2,0,L|340:260,1,80,8|2,0:0|0:0,0:0:0:0:
372,348,22371,2,0,P|444:352|468:380,1,80,2|4,0:0|0:0,0:0:0:0:
448,220,22705,2,0,P|472:184|468:136,1,80,8|2,0:0|0:0,0:0:0:0:
360,87,23038,5,2,0:0:0:0:
278,123,23205,1,0,0:0:0:0:
314,205,23371,1,0,0:0:0:0:
396,168,23538,1,2,0:0:0:0:
396,168,23871,5,4,0:0:0:0:
360,88,24038,2,0,P|321:64|261:70,1,80,2|8,2:0|0:0,0:0:0:0:
208,88,24371,5,2,0:0:0:0:
69,146,24538,1,0,0:0:0:0:
189,236,24705,1,0,0:0:0:0:
155,157,24871,1,2,0:0:0:0:
155,157,25205,5,4,0:0:0:0:
104,224,25371,2,0,P|104:284|132:320,1,80,8|2,0:0|0:0,0:0:0:0:
176,360,25705,6,0,L|264:352,1,80,2|0,0:0|0:0,0:0:0:0:
304,204,26038,2,0,P|256:197|204:220,1,80,2|0,0:0|0:0,0:0:0:0:
312,284,26371,2,0,L|400:276,1,80,2|2,0:0|0:0,0:0:0:0:
472,296,26705,2,0,P|484:340|472:384,1,80,0|2,0:0|0:0,0:0:0:0:
384,184,27038,5,0,0:0:0:0:
372,192,27121,1,0,0:0:0:0:
360,200,27205,2,0,P|348:156|360:112,1,80,2|2,0:0|0:0,0:0:0:0:
456,152,27538,1,0,0:0:0:0:
268,176,27705,2,0,P|180:164|108:168,1,160,4|0,0:0|0:0,0:0:0:0:
268,360,28371,6,0,P|220:297|135:309,1,160,4|8,0:0|0:0,0:0:0:0:
96,380,28871,1,2,0:0:0:0:
24,324,29038,1,2,0:0:0:0:
24,324,29121,1,2,0:0:0:0:
24,324,29205,2,0,P|14:283|26:227,2,80,4|2|8,0:0|0:0|2:0,2:0:0:0:
24,324,29871,5,4,0:0:0:0:
104,280,30038,1,8,0:0:0:0:
140,196,30205,2,0,P|140:120|96:40,1,160,2|4,0:0|0:0,0:0:0:0:
4,176,30705,1,8,0:0:0:0:
68,224,30871,6,0,B|128:212|128:212|171:234|171:234|225:224,1,160,2|2,0:0|0:0,0:0:0:0:
296,172,31371,1,8,0:0:0:0:
356,100,31538,2,0,P|364:56|352:12,1,80,2|2,0:0|0:0,0:0:0:0:
348,16,31788,1,2,0:0:0:0:
340,8,31871,1,4,0:0:0:0:
296,172,32038,1,8,0:0:0:0:
244,104,32205,6,0,P|188:84|84:100,1,160,2|4,0:0|0:0,0:0:0:0:
32,168,32705,2,0,P|24:216|32:264,1,80,8|2,0:0|0:0,0:0:0:0:
160,356,33038,2,0,L|148:256,1,80,2|4,0:0|0:0,0:0:0:0:
244,104,33371,2,0,P|260:148|256:200,1,80,8|2,0:0|0:0,0:0:0:0:
220,280,33705,5,2,0:0:0:0:
356,264,33871,1,0,0:0:0:0:
296,336,34038,1,0,0:0:0:0:
220,280,34205,2,0,B|170:289|170:289|127:267|127:267|67:279,1,160,2|2,0:0|0:0,0:0:0:0:
56,288,34621,1,2,0:0:0:0:
48,300,34705,2,0,P|43:349|71:397,1,80,8|2,0:0|0:0,0:0:0:0:
135,248,35038,5,2,0:0:0:0:
151,98,35205,1,0,0:0:0:0:
14,159,35372,1,0,0:0:0:0:
100,168,35538,2,0,P|147:108|135:20,1,160,2|2,0:0|0:0,0:0:0:0:
128,24,35955,1,2,0:0:0:0:
116,20,36038,2,0,L|32:28,1,80,8|2,0:0|0:0,0:0:0:0:
208,72,36371,6,0,P|232:124|228:164,1,80,2|0,0:0|0:0,0:0:0:0:
263,223,36705,2,0,P|205:217|173:194,1,80,2|0,0:0|0:0,0:0:0:0:
104,196,37038,2,0,P|137:149|173:132,1,80,2|2,0:0|0:0,0:0:0:0:
276,176,37371,2,0,L|380:164,1,80,0|2,0:0|0:0,0:0:0:0:
444,216,37705,5,0,0:0:0:0:
509,291,37871,1,2,0:0:0:0:
457,377,38038,1,2,0:0:0:0:
359,354,38205,1,0,0:0:0:0:
351,254,38371,6,0,B|301:263|301:263|258:241|258:241|200:256,1,160,2|0,0:0|0:0,0:0:0:0:
199,256,39038,1,4,0:0:0:0:
256,192,39121,12,0,41371,0:0:0:0:
472,152,41705,5,4,0:0:0:0:
472,152,42038,1,8,0:0:0:0:
428,80,42205,2,0,P|356:44|280:64,1,160,4|2,0:0|0:1,0:0:0:0:
200,56,42705,1,8,0:0:0:0:
260,292,42871,2,0,L|229:136,1,160,4|2,0:0|0:1,0:0:0:0:
272,376,43371,1,8,0:0:0:0:
220,216,43538,2,0,P|176:280|189:358,1,160,4|2,0:0|0:1,0:0:0:0:
308,248,44038,2,0,L|392:240,1,80,8|0,0:0|0:0,0:0:0:0:
472,232,44371,1,4,0:0:0:0:
472,232,44705,5,8,0:0:0:0:
387,240,44871,2,0,L|224:256,1,160,4|2,0:0|0:1,0:0:0:0:
224,112,45371,1,8,0:0:0:0:
264,176,45538,2,0,P|202:234|115:227,1,160,4|2,0:0|0:1,0:0:0:0:
28,332,46038,1,8,0:0:0:0:
100,312,46205,2,0,B|109:262|109:262|87:219|87:219|99:159,1,160,4|2,0:0|0:1,0:0:0:0:
144,92,46705,2,0,P|200:68|264:80,1,120,8|8,0:0|0:0,0:0:0:0:
268,92,47038,2,0,L|428:100,1,160,4|8,0:0|0:0,0:0:0:0:
448,196,47538,6,0,L|288:188,1,160,4|2,0:0|0:1,0:0:0:0:
208,236,48038,1,8,0:0:0:0:
208,236,48205,2,0,P|128:204|40:228,1,160,4|2,0:0|0:1,0:0:0:0:
84,384,48705,1,8,0:0:0:0:
120,312,48871,2,0,L|280:304,1,160,4|2,0:0|0:1,0:0:0:0:
352,256,49371,2,0,P|360:204|344:168,1,80,8|0,0:0|0:0,0:0:0:0:
428,340,49705,1,4,0:0:0:0:
428,340,50038,5,8,0:0:0:0:
484,280,50205,2,0,P|500:200|472:120,1,160,4|2,0:0|0:1,0:0:0:0:
376,52,50705,2,0,L|276:64,1,80,8|4,0:0|0:0,0:0:0:0:
224,112,51038,1,0,0:0:0:0:
232,120,51205,1,2,0:0:0:0:
336,160,51371,5,0,0:0:0:0:
328,168,51538,1,2,0:0:0:0:
288,272,51705,5,2,0:0:0:0:
280,264,51872,1,2,0:0:0:0:
176,224,52038,5,0,0:0:0:0:
184,216,52205,1,2,0:0:0:0:
152,144,52371,6,8,P|96:120|-12:152,1,160,4|0,0:0|0:0,0:0:0:0:
76,200,52871,2,0,B|126:191|126:191|169:213|169:213|229:201,1,160,4|2,0:0|0:1,0:0:0:0:
256,312,53371,1,8,0:0:0:0:
256,312,53538,2,0,P|348:292|416:292,1,160,4|2,0:0|0:1,0:0:0:0:
500,152,54038,1,8,0:0:0:0:
500,152,54205,2,0,P|436:100|348:120,1,160,4|0,0:0|0:1,0:0:0:0:
292,144,54705,2,0,L|276:40,1,80,8|2,0:0|2:0,0:0:0:0:
204,100,55038,6,0,L|224:272,1,160,4|8,0:0|0:0,0:0:0:0:
312,240,55538,2,0,P|392:272|480:236,1,160,4|2,0:0|0:1,0:0:0:0:
492,180,56038,1,8,0:0:0:0:
332,272,56205,2,0,P|255:252|183:284,1,160,4|2,0:0|0:1,0:0:0:0:
152,356,56705,1,8,0:0:0:0:
324,344,56871,2,0,L|340:180,1,160,4|0,0:0|0:1,0:0:0:0:
280,124,57371,2,0,P|236:112|184:124,1,80,8|4,0:0|0:0,0:0:0:0:
16,104,57705,6,0,P|96:92|124:20,1,160,4|8,0:0|0:0,0:0:0:0:
124,25,58205,2,0,L|104:192,1,160,4|2,0:0|0:1,0:0:0:0:
260,324,58705,1,8,0:0:0:0:
260,324,58871,2,0,P|288:244|264:168,1,160,4|2,0:0|0:1,0:0:0:0:
196,144,59371,1,8,0:0:0:0:
196,144,59538,2,0,B|246:135|246:135|289:157|289:157|349:145,1,160,4|2,0:0|0:1,0:0:0:0:
468,220,60038,2,0,P|484:280|456:316,1,80,8|4,0:0|0:0,0:0:0:0:
404,264,60371,5,0,0:0:0:0:
283,246,60538,1,2,0:0:0:0:
300,126,60705,1,0,0:0:0:0:
421,143,60871,1,2,0:0:0:0:
394,258,61038,5,2,0:0:0:0:
289,236,61205,1,0,0:0:0:0:
310,131,61371,1,2,0:0:0:0:
415,153,61538,1,2,0:0:0:0:
395,258,61705,5,0,0:0:0:0:
294,244,61871,1,2,0:0:0:0:
276,142,62037,1,2,0:0:0:0:
366,94,62205,1,0,0:0:0:0:
440,164,62371,2,0,P|452:240|388:320,1,160,2|0,0:0|0:0,0:0:0:0:
168,304,63038,6,0,P|215:303|255:319,1,80,4|2,0:0|0:0,0:0:0:0:
92,364,63371,1,10,0:0:0:0:
36,284,63538,1,2,0:0:0:0:
40,272,63621,1,2,0:0:0:0:
44,260,63705,1,2,0:0:0:0:
96,180,63871,2,0,P|96:132|68:92,1,80,4|2,0:0|0:0,0:0:0:0:
16,156,64205,1,8,0:0:0:0:
16,156,64538,5,4,0:0:0:0:
96,180,64705,2,0,L|184:164,1,80,8|2,0:0|0:0,0:0:0:0:
184,176,64955,1,2,0:0:0:0:
192,188,65038,1,2,0:0:0:0:
260,112,65205,2,0,P|268:68|252:28,2,80,4|8|2,0:0|0:0|0:0,0:0:0:0:
196,236,65705,6,0,L|212:328,1,80,4|2,0:0|0:0,0:0:0:0:
284,364,66038,1,8,0:0:0:0:
356,312,66205,1,2,0:0:0:0:
388,308,66288,1,2,0:0:0:0:
420,316,66371,1,2,0:0:0:0:
484,368,66538,2,0,P|500:332|488:268,1,80,4|10,0:0|0:0,0:0:0:0:
456,224,66871,1,2,0:0:0:0:
456,224,67205,6,0,L|468:136,1,80,4|8,0:0|0:0,0:0:0:0:
332,40,67538,1,2,0:0:0:0:
324,48,67621,1,2,0:0:0:0:
316,56,67705,2,0,P|316:104|340:144,1,80,2|4,0:0|0:0,0:0:0:0:
261,235,68038,2,0,P|263:275|248:312,1,80,8|2,0:0|0:0,0:0:0:0:
204,176,68371,5,4,0:0:0:0:
124,168,68538,1,2,0:0:0:0:
44,160,68705,1,8,0:0:0:0:
0,304,68871,1,2,0:0:0:0:
8,312,68955,1,2,0:0:0:0:
16,320,69038,2,0,P|36:288|32:232,1,80,2|4,0:0|0:0,0:0:0:0:
132,312,69371,2,0,P|156:352|156:400,1,80,2|8,0:0|0:0,0:0:0:0:
184,236,69705,5,4,0:0:0:0:
200,156,69871,1,2,0:0:0:0:
120,184,70038,1,8,0:0:0:0:
264,202,70205,1,2,0:0:0:0:
268,192,70288,1,2,0:0:0:0:
276,184,70371,2,0,P|320:184|364:212,1,80,2|4,0:0|0:0,0:0:0:0:
452,244,70705,2,0,L|472:140,1,80,8|2,0:0|0:0,0:0:0:0:
332,28,71038,6,0,P|324:72|344:112,2,80,4|2|8,0:0|0:0|0:0,0:0:0:0:
452,244,71538,1,2,0:0:0:0:
460,248,71621,1,2,0:0:0:0:
468,252,71705,2,0,P|481:214|472:176,2,80,4|2|8,0:0|0:0|0:0,0:0:0:0:
332,296,72205,5,2,0:0:0:0:
300,280,72288,1,2,0:0:0:0:
268,264,72371,2,0,L|172:280,1,80,2|2,0:0|0:0,0:0:0:0:
108,368,72705,2,0,L|12:384,1,80,2|2,0:0|0:0,0:0:0:0:
100,264,73038,2,0,L|76:224,3,40,2|2|2|2,0:0|0:0|0:0|0:0,0:0:0:0:
88,212,73371,1,2,0:0:0:0:
100,196,73455,1,2,0:0:0:0:
112,180,73538,1,2,0:0:0:0:
124,164,73621,1,2,0:0:0:0:
136,148,73705,6,0,P|176:140|228:148,1,80,4|2,0:0|0:0,0:0:0:0:
268,208,74038,1,8,0:0:0:0:
328,92,74205,1,2,0:0:0:0:
336,104,74288,1,2,0:0:0:0:
344,116,74371,2,0,L|364:28,1,80,2|4,0:0|0:0,0:0:0:0:
464,104,74705,2,0,L|446:182,1,80,2|8,0:0|0:0,0:0:0:0:
324,228,75038,6,0,L|341:306,1,80,2|4,0:0|0:0,0:0:0:0:
348,320,75288,1,4,0:0:0:0:
356,332,75371,2,0,P|388:344|440:340,1,80,4|8,0:0|0:0,0:0:0:0:
248,364,75705,2,0,P|216:352|164:356,1,80,2|4,0:0|0:0,0:0:0:0:
72,332,76038,1,8,0:0:0:0:
60,320,76121,1,8,0:0:0:0:
104,196,76288,5,8,0:0:0:0:
104,196,76371,2,0,L|188:180,1,80,4|2,0:0|0:0,0:0:0:0:
84,108,76705,2,0,L|5:122,1,80,8|2,0:0|0:0,0:0:0:0:
12,112,76955,1,2,0:0:0:0:
20,100,77038,1,2,0:0:0:0:
152,40,77205,2,0,P|204:28|248:52,1,80,4|8,0:0|0:0,0:0:0:0:
288,104,77538,1,2,0:0:0:0:
448,200,77705,6,0,L|464:163,2,40,2|2|4,0:0|0:0|0:0,0:0:0:0:
456,212,78038,2,0,L|376:218,1,80,8|2,0:0|0:0,0:0:0:0:
312,256,78288,1,2,0:0:0:0:
304,268,78371,2,0,L|224:274,1,80,2|4,0:0|0:0,0:0:0:0:
132,212,78705,2,0,P|116:164|136:124,1,80,8|2,0:0|0:0,0:0:0:0:
40,268,79038,6,0,P|56:316|36:356,1,80,6|2,0:0|0:0,0:0:0:0:
36,348,79288,1,2,0:0:0:0:
24,352,79371,1,8,0:0:0:0:
188,320,79538,2,0,L|280:320,2,80,4|2|8,0:0|0:0|0:0,0:0:0:0:
352,280,80038,1,2,1:1:0:0:
368,280,80121,1,8,0:0:0:0:
456,256,80288,1,2,0:0:0:0:
472,256,80371,6,0,P|488:200|464:156,1,80,6|2,1:1|0:0,0:0:0:0:
472,168,80621,2,2,L|476:120,1,40,2|8,0:0|0:0,0:0:0:0:
336,120,80871,2,0,L|244:120,2,80,4|2|8,0:0|0:0|0:0,0:0:0:0:
172,80,81371,1,2,1:0:0:0:
156,80,81454,1,8,0:0:0:0:
68,44,81621,1,2,0:0:0:0:
52,44,81704,6,0,P|36:100|60:144,1,80,6|2,1:0|0:0,0:0:0:0:
52,128,81955,1,2,0:0:0:0:
62,136,82038,2,0,L|46:224,1,80,8|2,0:0|0:0,0:0:0:0:
88,280,82288,1,2,0:0:0:0:
96,292,82371,2,0,P|136:304|188:272,1,80,2|2,1:0|0:0,0:0:0:0:
229,239,82621,1,2,0:0:0:0:
260,266,82705,1,8,0:0:0:0:
296,277,82788,1,8,0:0:0:0:
332,271,82871,1,2,0:0:0:0:
364,251,82955,1,8,0:0:0:0:
385,220,83038,6,0,P|377:200|353:180,3,40,2|2|2|2,0:0|0:0|0:0|0:0,0:0:0:0:
405,164,83371,2,0,P|388:150|357:145,3,40,2|2|2|2,0:0|0:0|0:0|0:0,0:0:0:0:
394,105,83705,2,0,P|372:101|343:112,3,40,2|2|2|2,0:0|0:0|0:0|0:0,0:0:0:0:
355,59,84038,2,0,P|334:67|314:91,3,40,2|2|2|2,0:0|0:0|0:0|0:0,0:0:0:0:
321,78,84371,1,4,0:0:0:0:
160,288,95038,6,0,P|204:276|260:296,2,80,0|0|8,0:0|0:0|0:0,0:0:0:0:
60,328,95537,1,0,0:0:0:0:
52,340,95621,1,0,0:0:0:0:
44,352,95704,2,0,L|28:268,1,80
112,200,96038,2,0,L|116:108,1,80,8|0,0:0|0:0,0:0:0:0:
224,200,96371,6,0,L|220:279,2,80,0|0|8,0:0|0:0|0:0,0:0:0:0:
260,112,96871,1,0,0:0:0:0:
271,102,96955,1,0,0:0:0:0:
284,96,97038,2,0,P|340:100|373:133,1,80,0|0,0:0|0:0,2:0:0:0:
504,60,97371,2,0,P|447:55|414:22,1,80,8|0,0:0|0:0,2:0:0:0:
380,196,97705,6,0,P|368:240|376:288,2,80,0|0|8,0:0|0:0|0:0,0:0:0:0:
472,240,98205,1,0,0:0:0:0:
480,248,98288,1,0,0:0:0:0:
488,256,98371,2,0,L|480:352,1,80,0|0,0:0|0:0,0:0:0:0:
368,188,98705,2,0,L|374:108,1,80,8|0,0:0|0:0,0:0:0:0:
236,328,99038,5,0,0:0:0:0:
236,328,99121,1,0,0:0:0:0:
236,328,99205,1,0,0:0:0:0:
236,328,99371,2,0,L|140:332,1,80,8|0,0:0|0:0,0:0:0:0:
8,204,99705,5,0,0:0:0:0:
8,204,99788,1,0,0:0:0:0:
8,204,99872,1,0,0:0:0:0:
8,204,100038,2,0,P|60:200|96:168,1,80,8|0,0:0|0:0,0:0:0:0:
152,36,100371,5,2,0:0:0:0:
160,32,100705,1,0,0:0:0:0:
169,30,101038,1,0,0:0:0:0:
179,30,101371,1,0,0:0:0:0:
254,167,101705,5,2,0:0:0:0:
247,173,102039,1,0,0:0:0:0:
242,180,102372,1,0,0:0:0:0:
239,190,102705,1,0,0:0:0:0:
447,237,103038,5,2,0:0:0:0:
440,228,103371,1,0,0:0:0:0:
432,224,103704,1,0,0:0:0:0:
424,221,104038,1,0,0:0:0:0:
401,63,104371,5,2,0:0:0:0:
409,59,104705,1,0,0:0:0:0:
419,57,105038,2,0,L|407:141,1,80,4|0,0:0|0:0,0:0:0:0:
407,136,105705,6,0,P|341:88|246:111,1,160,4|8,0:0|0:0,0:0:0:0:
192,148,106205,2,0,L|84:136,1,80,2|2,0:0|0:0,0:0:0:0:
104,128,106455,1,2,0:0:0:0:
96,116,106538,1,4,0:0:0:0:
12,152,106705,2,0,P|4:200|36:252,1,80,2|8,0:0|0:0,0:0:0:0:
14,228,107205,5,4,0:0:0:0:
61,318,107371,1,8,0:0:0:0:
15,228,107538,2,0,P|107:228|155:284,1,160,2|4,0:0|0:0,0:0:0:0:
164,368,108038,5,8,0:0:0:0:
164,368,108205,2,0,L|328:348,1,160,2|2,0:0|0:0,0:0:0:0:
416,384,108705,1,8,0:0:0:0:
480,304,108871,2,0,P|488:244|468:208,1,80,2|2,0:0|0:0,0:0:0:0:
468,220,109121,1,2,0:0:0:0:
456,212,109205,1,4,0:0:0:0:
364,196,109371,1,8,0:0:0:0:
308,276,109538,6,0,P|264:204|300:124,1,160,2|4,0:0|0:0,0:0:0:0:
360,92,110038,2,0,L|464:88,1,80,8|2,0:0|0:0,0:0:0:0:
292,28,110371,2,0,P|248:24|204:40,1,80,2|4,0:0|0:0,0:0:0:0:
276,176,110705,2,0,L|355:179,1,80,8|2,0:0|0:0,0:0:0:0:
220,116,111038,5,2,0:0:0:0:
212,104,111205,1,0,0:0:0:0:
204,92,111371,1,0,0:0:0:0:
196,80,111538,2,0,B|208:140|208:140|186:183|186:183|196:237,1,160,2|4,0:0|0:0,0:0:0:0:
128,132,112038,2,0,L|112:40,1,80,2|8,0:0|0:0,0:0:0:0:
64,188,112371,5,2,0:0:0:0:
52,196,112538,1,0,0:0:0:0:
40,204,112704,1,0,0:0:0:0:
28,212,112871,2,0,B|88:200|88:200|131:222|131:222|185:212,1,160,2|4,0:0|0:0,0:0:0:0:
80,280,113371,2,0,L|-12:296,1,80,2|8,0:0|0:0,0:0:0:0:
152,308,113705,5,2,0:0:0:0:
156,320,113871,1,0,0:0:0:0:
232,360,114038,5,2,0:0:0:0:
236,348,114204,1,0,0:0:0:0:
300,296,114371,5,2,0:0:0:0:
304,308,114537,1,2,0:0:0:0:
380,348,114704,5,0,0:0:0:0:
384,336,114870,1,2,0:0:0:0:
472,292,115038,6,0,L|516:288,2,40,0|0|2,0:0|0:0|0:0,0:0:0:0:
464,304,115371,2,0,P|448:260|460:208,1,80,2|0,0:0|0:0,0:0:0:0:
500,168,115705,2,2,P|432:208|336:184,1,160,2|0,0:0|0:0,0:0:0:0:
354,196,116371,6,0,L|192:216,1,160,4|8,0:0|0:0,0:0:0:0:
128,160,116871,1,2,0:0:0:0:
48,232,117038,1,2,0:0:0:0:
60,240,117121,1,2,0:0:0:0:
72,248,117205,2,0,P|80:292|60:336,1,80,4|2,0:0|0:0,0:0:0:0:
0,364,117538,1,8,0:0:0:0:
160,304,117871,5,4,0:0:0:0:
228,260,118038,1,8,0:0:0:0:
160,304,118205,2,0,B|220:292|220:292|263:314|263:314|317:304,1,160,2|4,0:0|0:0,0:0:0:0:
404,352,118705,1,8,0:0:0:0:
480,284,118871,2,0,P|508:208|472:132,1,160,2|2,0:0|0:0,0:0:0:0:
416,240,119371,6,0,L|436:328,1,80,8|2,0:0|0:0,0:0:0:0:
340,200,119705,1,2,0:0:0:0:
344,184,119788,1,2,0:0:0:0:
348,168,119871,1,4,0:0:0:0:
272,256,120038,1,8,0:0:0:0:
188,272,120205,1,2,0:0:0:0:
188,272,120538,5,4,0:0:0:0:
120,220,120705,2,0,P|104:176|116:132,1,80,8|2,0:0|0:0,0:0:0:0:
56,288,121038,2,0,L|48:367,1,80,2|4,0:0|0:0,0:0:0:0:
192,168,121371,2,0,P|224:156|280:156,1,80,8|2,0:0|0:0,0:0:0:0:
352,200,121705,5,2,0:0:0:0:
366,214,121871,1,0,0:0:0:0:
376,231,122037,1,0,0:0:0:0:
382,249,122205,2,0,P|392:156|451:121,1,160,2|4,0:0|0:0,0:0:0:0:
465,213,122705,2,0,L|460:304,1,80,8|2,0:0|0:0,0:0:0:0:
381,249,123038,5,2,0:0:0:0:
367,263,123204,1,0,0:0:0:0:
357,280,123370,1,0,0:0:0:0:
351,298,123538,2,0,P|341:205|282:170,1,160,2|2,0:0|0:0,0:0:0:0:
268,262,124038,2,0,L|273:353,1,80,8|2,0:0|0:0,0:0:0:0:
184,312,124371,5,2,0:0:0:0:
168,316,124538,1,0,0:0:0:0:
64,288,124705,5,2,0:0:0:0:
80,292,124872,1,0,0:0:0:0:
216,224,125038,5,2,0:0:0:0:
200,228,125205,1,2,0:0:0:0:
48,200,125371,5,0,0:0:0:0:
64,204,125538,1,2,0:0:0:0:
156,128,125705,5,0,0:0:0:0:
172,124,125788,1,0,0:0:0:0:
184,120,125871,1,0,0:0:0:0:
196,116,125955,1,0,0:0:0:0:
208,112,126038,1,0,0:0:0:0:
220,108,126121,1,0,0:0:0:0:
232,104,126205,1,0,0:0:0:0:
244,100,126288,1,0,0:0:0:0:
256,96,126371,2,0,P|272:68|296:48,3,40,0|0|0|0,0:0|0:0|0:0|0:0,0:0:0:0:
296,72,126705,6,0,L|324:68,5,26.6666666666667,0|0|0|0|0|0,0:0|0:0|0:0|0:0|0:0|0:0,0:0:0:0:
336,80,127038,6,2,P|432:96|468:148,1,160,2|8,0:0|0:0,0:0:0:0:
432,240,127538,2,0,L|416:344,1,80,0|2,0:0|0:0,0:0:0:0:
404,332,127788,1,0,0:0:0:0:
392,344,127871,1,0,0:0:0:0:
308,380,128038,1,8,0:0:0:0:
316,288,128205,1,2,0:0:0:0:
316,288,128538,5,2,0:0:0:0:
240,332,128705,2,0,L|152:344,1,80,8|2,0:0|0:0,0:0:0:0:
152,336,128955,1,0,0:0:0:0:
144,328,129038,1,2,0:0:0:0:
64,376,129205,1,0,0:0:0:0:
64,284,129371,2,0,P|48:240|60:192,1,80,8|0,0:0|0:0,0:0:0:0:
264,144,129705,6,2,B|215:154|215:154|172:132|172:132|112:144,1,160,2|8,0:0|0:0,0:0:0:0:
336,100,130205,2,0,P|348:56|332:16,1,80,0|2,0:0|0:0,0:0:0:0:
328,16,130455,1,0,0:0:0:0:
317,9,130538,1,0,0:0:0:0:
396,164,130705,2,0,L|496:148,1,80,8|2,0:0|0:0,0:0:0:0:
474,151,131205,5,2,0:0:0:0:
420,240,131371,2,0,P|380:252|332:236,1,80,8|2,0:0|0:0,0:0:0:0:
328,236,131621,2,0,L|284:244,1,40,0|2,0:0|0:0,0:0:0:0:
224,316,131871,1,0,0:0:0:0:
240,166,132038,1,10,0:0:0:0:
103,227,132205,1,0,0:0:0:0:
189,236,132371,6,2,P|236:176|224:88,1,160,2|8,0:0|0:0,0:0:0:0:
160,36,132871,1,2,0:0:0:0:
152,48,132955,1,0,0:0:0:0:
144,60,133038,2,0,L|64:72,1,80,2|0,0:0|0:0,0:0:0:0:
228,96,133371,1,8,0:0:0:0:
312,80,133538,1,2,0:0:0:0:
312,80,133871,5,2,0:0:0:0:
384,120,134038,2,0,P|400:180|380:212,1,80,8|2,0:0|0:0,0:0:0:0:
388,204,134287,1,0,0:0:0:0:
380,212,134371,1,2,0:0:0:0:
288,200,134538,2,0,L|200:208,2,80,0|8|0,0:0|0:0|0:0,0:0:0:0:
316,80,135038,5,2,0:0:0:0:
236,108,135205,1,0,0:0:0:0:
168,68,135371,1,10,0:0:0:0:
88,96,135539,1,0,0:0:0:0:
88,96,135705,5,10,0:0:0:0:
168,68,135871,1,2,0:0:0:0:
236,108,136039,1,0,0:0:0:0:
316,80,136206,1,2,0:0:0:0:
408,108,136371,6,0,L|396:156,2,40,0|0|2,0:0|0:0|0:0,0:0:0:0:
400,96,136705,2,0,P|444:80|500:88,1,80,10|2,0:0|0:0,0:0:0:0:
428,204,137038,2,0,P|332:188|296:124,1,160,4|8,0:0|0:0,0:0:0:0:
340,16,137538,1,0,0:0:0:0:
228,56,137705,6,0,B|168:44|168:44|125:66|125:66|71:56,1,160,4|8,0:0|0:0,0:0:0:0:
208,148,138205,2,0,P|248:156|296:136,1,80,2|2,0:0|0:0,0:0:0:0:
296,136,138455,1,2,0:0:0:0:
304,128,138538,1,4,0:0:0:0:
388,104,138705,2,0,L|476:112,1,80,2|8,0:0|0:0,0:0:0:0:
416,292,139205,5,4,0:0:0:0:
500,260,139371,1,8,0:0:0:0:
416,292,139538,2,0,P|420:216|492:172,1,160,2|4,0:0|0:0,0:0:0:0:
500,260,140038,1,8,0:0:0:0:
396,116,140205,6,0,B|336:104|336:104|293:126|293:126|239:116,1,160,2|2,0:0|0:0,0:0:0:0:
137,118,140705,1,8,0:0:0:0:
32,140,140871,2,0,P|34:85|59:52,1,80,2|2,0:0|0:0,2:0:0:0:
57,59,141121,1,2,2:0:0:0:
70,56,141205,1,4,2:0:0:0:
96,192,141371,1,8,0:0:0:0:
8,244,141538,6,0,P|88:232|148:280,1,160,2|4,0:0|0:0,0:0:0:0:
240,192,142038,2,0,L|332:184,1,80,8|2,0:0|0:0,0:0:0:0:
364,272,142371,2,0,P|436:276|460:304,1,80,2|4,0:0|0:0,0:0:0:0:
440,144,142705,2,0,P|464:108|460:60,1,80,8|2,0:0|0:0,0:0:0:0:
380,68,143038,5,2,0:0:0:0:
264,96,143205,1,0,0:0:0:0:
384,84,143371,1,0,0:0:0:0:
268,80,143538,2,0,B|208:68|208:68|165:90|165:90|111:80,1,160,2|2,0:0|0:0,0:0:0:0:
107,72,143955,1,2,0:0:0:0:
99,64,144038,1,8,0:0:0:0:
72,156,144205,1,2,0:0:0:0:
164,228,144371,5,2,0:0:0:0:
280,200,144538,1,0,0:0:0:0:
160,212,144704,1,0,0:0:0:0:
276,216,144871,2,0,B|336:228|336:228|379:206|379:206|433:216,1,160,2|2,0:0|0:0,0:0:0:0:
437,224,145288,1,2,0:0:0:0:
445,232,145371,1,8,0:0:0:0:
472,140,145538,1,2,0:0:0:0:
400,60,145705,5,6,0:0:0:0:
252,48,145871,1,0,0:0:0:0:
396,72,146038,1,2,0:0:0:0:
248,60,146204,1,0,0:0:0:0:
320,112,146371,1,2,0:0:0:0:
172,100,146537,1,2,0:0:0:0:
316,100,146704,1,0,0:0:0:0:
168,88,146870,1,2,0:0:0:0:
80,48,147038,6,0,P|40:52|28:56,2,40,0|0|2,0:0|0:0|0:0,0:0:0:0:
88,60,147371,2,0,P|92:104|72:144,1,80,8|0,0:0|0:0,0:0:0:0:
188,224,147705,2,0,P|184:268|204:308,1,80
368,240,148205,1,0,0:0:0:0:
256,192,148371,12,0,151038,0:0:0:0:
