osu file format v13

[General]
AudioFilename: Neurotoxin.mp3
AudioLeadIn: 0
PreviewTime: 17705
Countdown: 0
SampleSet: Soft
StackLeniency: 0.7
Mode: 0
LetterboxInBreaks: 0
WidescreenStoryboard: 1

[Editor]
DistanceSpacing: 1.2
BeatDivisor: 4
GridSize: 8
TimelineZoom: 1.1

[Metadata]
Title:Neurotoxin
TitleUnicode:Neurotoxin
Artist:sakuzyo
ArtistUnicode:削除
Creator:kiddly
Version:Hard
Source:
Tags:BMS selentia bof2011 Liquefied Cyber Punk dnb drum&bass Low jacob
BeatmapID:477029
BeatmapSetID:192995

[Difficulty]
HPDrainRate:4
CircleSize:4
OverallDifficulty:6
ApproachRate:7
SliderMultiplier:1.3
SliderTickRate:1

[Events]
//Background and Video events
0,0,"BG.jpg",0,0
//Break Periods
2,84571,94138
2,100571,104138
//Storyboard Layer 0 (Background)
//Storyboard Layer 1 (Fail)
//Storyboard Layer 2 (Pass)
//Storyboard Layer 3 (Foreground)
//Storyboard Sound Samples
//Background Colour Transformations
3,100,163,162,255

[TimingPoints]
372,333.333333333333,4,2,0,15,1,0
4038,-100,4,2,0,25,0,0
4371,-100,4,2,0,30,0,0
4705,-100,4,2,0,40,0,0
5038,-100,4,2,0,50,0,0
5371,-100,4,2,0,60,0,0
5705,-100,4,2,0,70,0,0
6371,-100,4,2,0,20,0,0
7038,-100,4,2,1,80,0,0
27705,-100,4,2,1,80,0,0
28205,-100,4,2,0,30,0,0
28371,-100,4,2,1,80,0,0
51038,-100,4,1,0,70,0,0
52371,-100,4,2,1,80,0,0
60371,-100,4,1,0,70,0,0
63038,-100,4,2,2,80,0,0
95038,-100,4,1,0,30,0,0
105038,-100,4,1,0,70,0,0
106038,-100,4,2,1,80,0,0
106121,-100,4,2,1,80,0,0
115705,-100,4,2,1,80,0,0
116371,-100,4,2,1,80,0,0
116455,-100,4,2,1,80,0,0
127038,-100,4,1,0,70,0,0
127371,-100,4,1,0,70,0,1
127455,-100,4,1,0,70,0,1
137705,-100,4,1,0,70,0,1
140371,-100,4,2,1,80,0,0
148371,-100,4,2,0,100,0,0
148455,-100,4,2,0,5,0,0

[Colours]
Combo1 : 159,146,102
Combo2 : 154,154,154
Combo3 : 55,118,223
Combo4 : 87,100,119

[HitObjects]
256,192,3038,12,0,6371,0:0:0:0:
96,96,7038,6,0,B|96:208|96:208|80:240,1,130,4|8,0:0|0:0,0:0:0:0:
48,288,7538,1,2,2:0:0:0:
192,352,7871,1,4,0:0:0:0:
256,304,8038,1,2,0:0:0:0:
320,256,8205,1,8,0:0:0:0:
464,336,8538,2,0,L|480:256,1,65,4|8,0:0|0:0,0:0:0:0:
448,352,9205,6,0,L|464:272,1,65,4|8,0:0|0:0,0:0:0:0:
472,208,9538,1,2,0:0:0:0:
488,128,9705,5,4,0:0:0:0:
336,72,10038,1,8,0:0:0:0:
296,144,10205,1,2,0:0:0:0:
160,64,10538,2,0,L|80:80,1,65,4|8,0:0|0:0,0:0:0:0:
152,80,11205,6,0,L|72:96,1,65,4|8,0:0|0:0,0:0:0:0:
144,96,11871,6,0,L|64:112,1,65,4|8,0:0|0:0,0:0:0:0:
8,248,12371,5,4,0:0:0:0:
144,336,12705,1,0,0:0:0:0:
144,336,12871,1,2,0:0:0:0:
64,144,13205,1,4,0:0:0:0:
144,128,13371,1,0,0:0:0:0:
224,112,13538,1,8,0:0:0:0:
320,240,13871,2,0,L|320:336,1,65,4|8,0:0|0:0,0:0:0:0:
336,256,14538,6,0,L|336:336,1,65,4|8,0:0|0:0,0:0:0:0:
432,192,15038,5,4,0:0:0:0:
336,64,15371,1,8,0:0:0:0:
256,64,15538,1,2,0:0:0:0:
96,64,15871,1,4,0:0:0:0:
128,224,16205,1,8,0:0:0:0:
128,224,16371,6,0,B|176:240|176:240|208:224,1,65,4|2,0:0|0:0,0:0:0:0:
240,288,16705,2,0,B|288:304|288:304|320:288,1,65,2|2,0:0|0:0,0:0:0:0:
352,352,17038,2,0,B|400:368|400:368|432:352,1,65,2|6,0:0|0:0,0:0:0:0:
480,320,17371,1,8,0:0:0:0:
480,320,17705,6,0,B|496:176|496:176|448:192,1,195,4|2,1:1|0:0,0:0:0:0:
377,226,18371,1,2,0:0:0:0:
304,256,18538,1,4,0:0:0:0:
176,176,18871,1,8,0:0:0:0:
19,287,19205,5,4,0:0:0:0:
19,287,19371,2,0,L|31:223,1,65,8|2,0:0|0:0,0:0:0:0:
32,144,19705,1,2,0:0:0:0:
80,80,19871,1,4,0:0:0:0:
80,80,20038,2,0,L|96:4,1,65,8|2,0:0|0:0,0:0:0:0:
144,128,20371,5,4,0:0:0:0:
224,112,20538,1,2,0:0:0:0:
304,96,20705,1,8,0:0:0:0:
368,144,20871,2,0,B|441:189|441:189|506:179,2,130,2|4|2,0:0|0:0|0:0,0:0:0:0:
272,256,21871,5,4,0:0:0:0:
200,280,22038,1,8,0:0:0:0:
128,304,22205,2,0,B|104:272|104:272|64:256,1,65,2|2,0:0|0:0,0:0:0:0:
40,200,22538,1,4,0:0:0:0:
72,128,22705,1,8,0:0:0:0:
224,96,23038,5,4,0:0:0:0:
295,127,23205,1,2,0:0:0:0:
368,160,23371,2,0,L|368:224,1,65,8|2,0:0|0:0,0:0:0:0:
240,304,23871,1,4,0:0:0:0:
176,160,24205,1,0,0:0:0:0:
240,112,24371,5,2,0:0:0:0:
312,141,24538,1,4,0:0:0:0:
384,176,24705,2,0,L|384:240,1,65,8|2,0:0|0:0,0:0:0:0:
240,288,25205,2,0,L|240:208,1,65,4|8,0:0|0:0,0:0:0:0:
224,64,25705,5,4,0:0:0:0:
80,144,26038,1,8,0:0:0:0:
160,272,26371,1,8,0:0:0:0:
96,320,26538,1,4,0:0:0:0:
176,352,26705,1,0,0:0:0:0:
256,336,26871,6,0,L|400:320,1,130,8|4,0:0|0:0,0:0:0:0:
432,256,27371,1,8,0:0:0:0:
368,112,27705,2,0,B|320:128|320:128|328:80|320:40,1,130,4|2,0:0|0:0,0:0:0:0:
240,80,28205,1,2,0:0:0:0:
240,80,28371,6,0,B|128:80|128:80|88:92,1,130,4|8,1:0|0:0,0:0:0:0:
40,108,28871,1,2,0:0:0:0:
64,256,29205,1,4,0:0:0:0:
141,265,29371,1,0,0:0:0:0:
224,272,29538,1,8,0:0:0:0:
384,288,29871,6,0,L|384:368,1,65,4|8,0:0|0:0,0:0:0:0:
464,320,30205,1,2,0:0:0:0:
416,176,30538,2,0,L|416:96,1,65,4|8,0:0|0:0,0:0:0:0:
336,144,30872,1,2,0:0:0:0:
272,192,31038,6,0,B|208:208|208:208|128:192,1,130,4|8,0:0|0:0,0:0:0:0:
68,176,31538,2,0,B|24:116|24:116|40:44,1,130,2|4,0:0|0:0,0:0:0:0:
112,52,32038,1,8,0:0:0:0:
188,32,32205,1,2,0:0:0:0:
220,104,32371,1,2,0:0:0:0:
292,76,32538,5,4,0:0:0:0:
288,160,32705,2,0,L|288:304,1,130,8|2,0:0|0:0,0:0:0:0:
432,240,33371,1,8,0:0:0:0:
444,159,33538,1,2,0:0:0:0:
448,80,33705,6,0,B|384:16|384:16|272:16,1,195,4|8,0:0|0:0,0:0:0:0:
128,64,34538,2,0,L|128:128,1,65,2|8,0:0|0:0,0:0:0:0:
79,191,34871,1,2,0:0:0:0:
32,256,35038,6,0,B|96:320|96:320|208:320,1,195,4|8,0:0|0:0,0:0:0:0:
336,240,35871,2,0,L|336:175,1,65,2|8,0:0|0:0,0:0:0:0:
302,95,36205,1,2,0:0:0:0:
224,80,36371,6,0,L|224:224,1,130,4|8,0:0|0:0,0:0:0:0:
96,288,37038,1,8,0:0:0:0:
80,208,37205,1,4,0:0:0:0:
64,128,37371,1,0,0:0:0:0:
48,48,37538,6,0,B|96:80|96:80|160:32,1,130,8|4,0:0|0:0,0:0:0:0:
216,80,38038,1,8,0:0:0:0:
352,160,38371,2,0,L|320:304,1,130,4|8,0:0|0:0,0:0:0:0:
256,320,38871,1,2,0:0:0:0:
256,320,39038,5,4,1:0:0:0:
64,64,41705,5,4,0:0:0:0:
208,128,42038,2,0,L|288:128,1,65,8|4,0:0|0:0,0:0:0:0:
96,240,42538,6,2,L|160:240,1,65,2|8,0:1|0:0,0:1:0:0:
224,288,42871,1,4,0:0:0:0:
80,256,43205,6,2,L|144:256,1,65,2|8,0:1|0:0,0:1:0:0:
208,304,43538,1,4,0:0:0:0:
64,272,43871,6,2,L|128:272,1,65,2|8,0:1|0:0,0:1:0:0:
272,352,44371,6,0,B|336:320|336:320|336:240,1,130,4|8,0:0|0:0,0:0:0:0:
288,192,44871,1,0,0:0:0:0:
352,48,45205,6,2,L|288:48,1,65,2|8,0:1|0:0,0:1:0:0:
224,96,45538,1,4,0:0:0:0:
368,64,45872,6,2,L|304:64,1,65,2|8,0:1|0:0,0:1:0:0:
240,112,46205,1,4,0:0:0:0:
384,80,46538,6,2,L|320:80,1,65,2|8,0:1|0:0,0:1:0:0:
160,64,47038,6,0,L|144:208,1,130,4|8,0:1|0:0,0:0:0:0:
80,240,47538,1,4,0:0:0:0:
208,320,47871,6,2,L|273:320,2,65,2|8|4,0:1|0:0|0:0,0:1:0:0:
320,208,48538,6,2,L|255:208,2,65,2|8|4,0:1|0:0|0:0,0:1:0:0:
208,96,49205,6,2,L|273:96,2,65,2|8|4,0:1|0:0|0:0,0:1:0:0:
128,128,49705,5,4,0:0:0:0:
32,240,50038,1,8,0:0:0:0:
64,304,50205,1,4,0:0:0:0:
208,352,50538,6,2,L|273:352,1,65,2|8,0:1|0:0,0:1:0:0:
336,304,50871,1,4,0:0:0:0:
272,256,51038,6,0,B|256:224|256:224|256:176,1,65,0|2,0:0|0:0,0:0:0:0:
336,176,51371,2,0,B|352:144|352:144|352:96,1,65,0|0,0:0|0:0,0:0:0:0:
272,96,51705,2,0,B|256:64|256:64|256:16,1,65,4|0,0:0|0:0,0:0:0:0:
176,48,52038,2,0,B|148:38|148:38|112:48,1,65,8|2,0:0|0:0,0:0:0:0:
64,112,52371,5,4,0:1:0:0:
208,176,52705,2,0,L|208:96,1,65,8|4,0:0|0:0,0:0:0:0:
320,288,53205,6,2,L|320:224,1,65,2|8,0:1|0:0,0:1:0:0:
368,160,53538,1,4,0:0:0:0:
336,304,53872,6,2,L|336:240,1,65,2|8,0:1|0:0,0:1:0:0:
384,176,54205,1,4,0:0:0:0:
352,320,54538,6,2,L|352:256,1,65,2|8,0:1|0:0,0:1:0:0:
432,112,55038,6,0,B|400:48|400:48|320:48,1,130,4|8,0:0|0:0,0:0:0:0:
272,96,55538,1,0,0:0:0:0:
112,48,55872,6,2,L|112:112,1,65,2|8,0:1|0:0,0:1:0:0:
176,160,56205,1,4,0:0:0:0:
128,32,56539,6,2,L|128:96,1,65,2|8,0:1|0:0,0:1:0:0:
192,144,56872,1,4,0:0:0:0:
144,16,57205,6,2,L|144:80,1,65,2|8,0:1|0:0,0:1:0:0:
144,224,57705,6,0,L|288:240,1,130,4|8,0:1|0:0,0:0:0:0:
320,304,58205,1,4,0:0:0:0:
400,176,58538,6,2,L|400:111,2,65,2|8|4,0:1|0:0|0:0,0:1:0:0:
288,64,59205,6,2,L|288:129,2,65,2|8|4,0:1|0:0|0:0,0:1:0:0:
176,176,59872,6,2,L|176:111,2,65,2|8|4,0:1|0:0|0:0,0:1:0:0:
112,224,60372,5,2,0:0:0:0:
224,336,60705,1,0,0:0:0:0:
352,256,61038,1,10,0:0:0:0:
464,368,61371,2,0,L|480:288,1,65,0|8,0:0|0:0,0:0:0:0:
448,224,61705,6,0,L|464:144,1,65,6|4,0:0|0:0,0:0:0:0:
432,80,62038,2,0,L|448:0,1,65,10|4,0:0|0:0,0:0:0:0:
368,16,62371,2,2,L|224:32,1,130,6|0,0:0|1:0,0:0:0:0:
96,96,63038,5,4,0:1:0:0:
200,212,63371,2,0,L|188:288,1,65,8|2,0:0|0:0,0:0:0:0:
240,336,63705,1,2,0:0:0:0:
316,340,63871,1,4,0:0:0:0:
448,256,64205,6,0,B|432:208|432:208|432:128,1,130,8|4,0:0|0:0,0:0:0:0:
464,48,64705,1,0,0:0:0:0:
384,48,64871,1,2,0:0:0:0:
304,48,65038,2,0,L|224:64,1,65,2|4,0:0|0:0,0:0:0:0:
160,32,65371,1,8,0:0:0:0:
256,176,65705,6,0,L|240:320,1,130,4|8,0:0|0:0,0:0:0:0:
176,352,66205,1,2,0:0:0:0:
48,272,66538,1,4,0:0:0:0:
32,192,66705,1,2,0:0:0:0:
48,112,66871,1,2,0:0:0:0:
208,80,67205,6,0,L|272:96,1,65,4|8,0:0|0:0,0:0:0:0:
208,240,67705,1,2,0:0:0:0:
208,240,67871,2,0,L|272:256,1,65,4|8,0:0|0:0,0:0:0:0:
432,288,68371,5,4,0:0:0:0:
384,224,68538,1,2,0:0:0:0:
336,160,68705,1,8,0:0:0:0:
256,160,68871,2,0,B|192:160|192:160|128:112,1,130,2|4,0:0|0:0,0:0:0:0:
288,72,69538,5,8,0:0:0:0:
360,48,69705,1,8,0:0:0:0:
344,120,69871,1,4,0:0:0:0:
288,72,70038,1,8,0:0:0:0:
408,184,70371,1,2,0:0:0:0:
463,239,70538,1,4,0:0:0:0:
392,256,70705,1,8,0:0:0:0:
272,352,71038,6,0,L|128:336,1,130,4|8,0:0|0:0,0:0:0:0:
64,320,71538,1,2,0:0:0:0:
32,240,71705,2,0,L|160:160,1,130,4|8,0:0|0:0,0:0:0:0:
208,128,72205,1,2,0:0:0:0:
272,176,72371,6,0,L|416:192,3,130,0|2|2|2,3:0|0:0|0:0|0:0,0:0:0:0:
304,304,73705,6,0,L|144:288,1,130,4|8,0:0|0:0,0:0:0:0:
96,320,74205,2,0,B|48:304|48:304|48:256|48:256|80:224,1,130,2|4,0:0|0:0,0:0:0:0:
192,128,74871,1,8,0:0:0:0:
320,208,75205,5,4,0:0:0:0:
320,208,75371,1,4,0:0:0:0:
400,204,75538,1,8,0:0:0:0:
428,132,75705,2,0,B|436:96|436:96|400:72,1,65,2|4,0:0|0:0,0:0:0:0:
336,64,76038,1,8,0:0:0:0:
264,96,76205,1,8,0:0:0:0:
192,128,76371,6,0,L|176:272,1,130,4|8,0:0|0:0,0:0:0:0:
128,320,76871,1,2,0:0:0:0:
288,320,77205,2,0,L|368:336,1,65,4|8,0:0|0:0,0:0:0:0:
432,304,77538,1,2,0:0:0:0:
384,240,77705,1,2,0:0:0:0:
328,184,77871,5,4,0:0:0:0:
256,216,78038,1,8,0:0:0:0:
184,240,78205,2,0,L|120:224,1,65,2|2,0:0|0:0,0:0:0:0:
80,160,78538,2,0,L|144:144,1,65,4|2,0:0|0:0,0:0:0:0:
216,120,78871,1,2,0:0:0:0:
248,48,79038,5,4,0:0:0:0:
384,144,79371,1,8,0:0:0:0:
384,144,79538,1,4,0:0:0:0:
288,272,79871,2,0,B|240:272|240:272|192:240,1,97.5,8|8,0:0|0:0,0:0:0:0:
112,160,80371,1,4,0:0:0:0:
16,288,80705,5,8,0:0:0:0:
16,288,80871,1,4,0:0:0:0:
160,208,81205,2,0,B|219:222|219:222|256:192,1,97.5,8|8,0:0|0:0,0:0:0:0:
336,112,81705,5,4,0:0:0:0:
480,176,82038,1,8,0:0:0:0:
368,288,82371,1,4,0:0:0:0:
224,224,82705,2,0,L|128:224,1,65,8|8,0:0|0:0,0:0:0:0:
96,272,83038,5,4,0:0:0:0:
256,192,83121,12,4,84371,0:1:0:0:
112,144,95038,6,0,B|176:144|176:144|240:96,1,130,4|0,0:0|0:0,0:0:0:0:
288,48,95538,1,0,0:0:0:0:
416,128,95871,1,0,0:0:0:0:
336,256,96205,5,2,0:2:0:0:
208,88,96871,5,2,0:2:0:0:
64,144,97371,5,2,0:2:0:0:
64,144,97705,6,0,L|48:288,1,130,2|0,0:2|0:0,0:0:0:0:
48,352,98205,1,0,0:0:0:0:
224,336,98538,1,0,0:0:0:0:
208,176,98871,5,2,0:2:0:0:
368,312,99538,5,2,0:2:0:0:
464,192,100038,5,2,0:2:0:0:
464,88,100371,5,4,0:0:0:0:
224,112,105038,6,0,L|224:208,1,65,0|2,0:0|0:2,0:0:0:0:
144,64,105705,1,0,0:0:0:0:
224,192,106038,6,0,L|224:272,1,65,8|2,0:0|0:0,0:0:0:0:
352,336,106538,1,4,0:0:0:0:
411,284,106705,1,2,0:0:0:0:
464,224,106871,1,8,0:0:0:0:
336,144,107205,6,0,L|304:64,2,65,4|8|2,0:0|0:0|0:0,0:0:0:0:
265,177,107705,1,2,0:0:0:0:
192,208,107871,2,0,L|216:268,2,65,4|8|2,0:0|0:0|0:0,0:0:0:0:
112,176,108371,5,4,0:0:0:0:
192,32,108705,1,8,0:0:0:0:
192,32,108871,1,2,0:0:0:0:
320,112,109205,1,4,0:0:0:0:
352,192,109371,2,0,B|368:240|368:240|352:336,1,130,8|2,0:0|0:0,0:0:0:0:
288,352,109871,6,0,L|224:336,1,65,4|8,0:0|0:0,0:0:0:0:
147,350,110205,1,2,0:0:0:0:
64,320,110371,1,2,0:0:0:0:
128,272,110538,2,0,L|144:208,1,65,4|8,0:0|0:0,0:0:0:0:
48,80,111038,5,4,0:0:0:0:
192,128,111371,1,8,0:0:0:0:
240,192,111538,2,0,B|272:240|272:240|368:224,1,130,2|4,0:0|0:0,0:0:0:0:
385,162,112038,1,2,0:0:0:0:
416,96,112205,5,8,0:0:0:0:
464,240,112538,1,4,0:0:0:0:
464,320,112705,1,8,0:0:0:0:
384,336,112871,1,0,0:0:0:0:
304,304,113038,2,0,L|224:320,1,65,2|4,0:0|0:0,0:0:0:0:
176,352,113371,1,8,0:0:0:0:
64,240,113705,6,0,B|32:192|32:192|32:96,1,130,4|8,0:0|0:0,0:0:0:0:
176,64,114371,2,0,L|256:64,1,65,8|4,0:0|0:0,0:0:0:0:
320,80,114705,1,4,0:0:0:0:
400,96,114871,1,8,0:0:0:0:
320,224,115205,6,0,L|256:224,1,65,4|8,0:0|0:0,0:0:0:0:
176,192,115538,1,2,0:0:0:0:
96,176,115705,2,0,B|32:224|32:224|64:288,1,130,4|0,0:0|0:3,0:0:0:0:
192,336,116371,5,4,1:0:0:0:
336,288,116705,1,8,0:0:0:0:
352,208,116871,1,2,0:0:0:0:
496,128,117205,1,4,0:0:0:0:
352,64,117538,6,0,L|208:80,1,130,8|4,0:0|0:0,0:0:0:0:
144,64,118038,1,8,0:0:0:0:
80,112,118205,1,2,0:0:0:0:
64,192,118371,2,0,L|160:192,1,65,2|4,0:0|0:0,0:0:0:0:
192,240,118705,1,8,0:0:0:0:
336,288,119038,6,0,B|368:272|368:272|368:160,1,130,4|8,0:0|0:0,0:0:0:0:
336,104,119538,1,2,0:0:0:0:
184,168,119871,1,2,0:0:0:0:
184,88,120038,1,8,0:0:0:0:
112,128,120205,1,2,0:0:0:0:
40,168,120371,1,2,0:0:0:0:
112,208,120538,5,4,0:0:0:0:
112,208,120705,2,0,L|256:224,1,130,8|2,0:0|0:0,0:0:0:0:
320,256,121205,1,4,0:0:0:0:
384,208,121371,2,0,B|416:176|416:176|432:64,1,130,8|4,0:0|0:0,0:0:0:0:
352,96,121871,5,2,0:0:0:0:
272,112,122038,2,0,L|192:112,1,65,2|8,0:0|0:0,0:0:0:0:
64,192,122538,2,0,L|129:192,1,65,2|8,0:0|0:0,0:0:0:0:
240,288,123038,5,4,0:0:0:0:
240,208,123205,1,2,0:0:0:0:
240,128,123371,2,0,L|160:128,1,65,2|8,0:0|0:0,0:0:0:0:
32,208,123871,2,0,L|97:208,1,65,2|8,0:0|0:0,0:0:0:0:
208,304,124371,5,4,0:0:0:0:
344,224,124705,1,2,0:0:0:0:
368,296,124871,1,2,0:0:0:0:
444,304,125038,1,8,0:0:0:0:
484,240,125205,1,4,0:0:0:0:
496,160,125371,2,0,L|496:80,1,65,4|8,0:0|0:0,0:0:0:0:
336,31,125871,2,0,L|336:96,1,65,4|8,0:0|0:0,0:0:0:0:
320,176,126205,6,0,B|272:181|272:181|243:216|243:216|191:173|191:173|148:226|148:226|100:231,1,260,4|2,0:0|0:0,0:0:0:0:
32,224,127038,1,0,0:1:0:0:
144,336,127371,6,0,L|208:320,1,65,4|0,0:2|0:0,0:0:0:0:
352,272,127871,1,0,0:0:0:0:
336,192,128038,1,0,0:0:0:0:
320,112,128205,2,2,B|304:80|304:80|192:64,1,130,2|0,0:0|0:0,0:0:0:0:
128,64,128705,5,0,0:0:0:0:
96,224,129038,2,0,L|96:288,1,65,2|0,0:0|0:0,0:0:0:0:
131,357,129371,1,0,0:0:0:0:
208,352,129538,2,2,B|272:320|272:320|400:352,1,195,2|0,0:0|0:0,0:0:0:0:
448,288,130205,5,2,0:0:0:0:
392,232,130371,1,0,0:0:0:0:
336,176,130538,1,2,0:0:0:0:
432,48,130871,2,2,B|368:96|368:96|288:96|288:96|240:64,1,195,2|0,0:0|0:0,0:0:0:0:
192,32,131538,5,2,0:0:0:0:
144,96,131705,2,0,L|128:176,1,65,2|2,0:0|0:0,0:0:0:0:
112,240,132038,1,0,0:0:0:0:
96,320,132205,1,2,0:0:0:0:
96,320,132371,6,0,B|128:352|128:352|240:336,1,130,0|0,0:0|0:0,0:0:0:0:
288,352,132871,2,2,B|368:336|368:336|320:256|320:256|423:236,1,260,2|0,0:0|0:0,0:0:0:0:
416,160,133705,6,2,B|222:197|222:197|167:163,1,260,2|0,0:0|0:0,0:0:0:0:
112,112,134538,1,0,0:0:0:0:
32,128,134705,1,0,0:0:0:0:
32,208,134871,6,2,L|208:336,1,195,2|0,0:0|0:0,0:0:0:0:
272,320,135538,1,2,0:0:0:0:
336,272,135705,2,2,B|368:288|368:288|384:208|384:208|352:128,1,195,2|0,0:0|0:0,0:0:0:0:
272,144,136371,6,0,B|224:192|224:192|160:64,1,195,2|2,0:0|0:0,0:0:0:0:
96,32,137038,1,0,0:0:0:0:
48,176,137371,1,0,0:0:0:0:
48,256,137538,1,4,0:0:0:0:
96,320,137705,6,2,B|224:368|224:368|176:256|176:256|304:352|304:352|256:208|256:208|400:320|400:320|352:160|352:160|480:224,1,1040,6|0,0:0|0:0,0:0:0:0:
416,64,140705,5,8,0:0:0:0:
336,80,140871,2,0,L|192:64,1,130,2|2,0:0|0:0,0:0:0:0:
136,96,141371,1,8,0:0:0:0:
64,128,141538,1,2,0:0:0:0:
160,256,141871,6,0,L|144:336,1,65,4|8,0:0|0:0,0:0:0:0:
304,368,142371,1,2,0:0:0:0:
312,288,142538,1,4,0:0:0:0:
320,208,142705,1,8,0:0:0:0:
176,160,143038,6,0,B|128:160|128:160|48:112,1,130,4|2,0:0|0:0,0:0:0:0:
119,70,143538,2,0,B|150:89|150:89|262:89,1,130,8|2,0:0|0:0,0:0:0:0:
320,64,144038,1,8,0:0:0:0:
416,176,144371,6,0,L|432:320,1,130,4|2,0:0|0:0,0:0:0:0:
352,288,144871,2,0,L|337:158,1,130,8|2,0:0|0:0,0:0:0:0:
336,80,145371,1,0,0:0:0:0:
176,48,145705,5,4,0:0:0:0:
48,128,146038,1,2,0:0:0:0:
32,224,146205,1,2,0:0:0:0:
128,256,146371,1,8,0:0:0:0:
272,176,146705,1,4,0:0:0:0:
272,176,146871,6,0,L|272:264,2,65,8|2|4,0:0|0:0|0:0,0:0:0:0:
336,128,147371,6,0,L|336:63,2,65,8|4|4,0:0|0:0|0:0,0:0:0:0:
400,176,147871,6,0,L|400:264,2,65,8|2|10,0:0|0:0|0:0,0:0:0:0:
256,192,148371,12,0,150954,0:0:0:0:
