osu file format v13

[General]
AudioFilename: Neurotoxin.mp3
AudioLeadIn: 0
PreviewTime: 17705
Countdown: 0
SampleSet: Soft
StackLeniency: 0.7
Mode: 0
LetterboxInBreaks: 0
WidescreenStoryboard: 1

[Editor]
DistanceSpacing: 1
BeatDivisor: 4
GridSize: 4
TimelineZoom: 1.1

[Metadata]
Title:Neurotoxin
TitleUnicode:Neurotoxin
Artist:sakuzyo
ArtistUnicode:削除
Creator:kiddly
Version:Beginner
Source:
Tags:BMS selentia bof2011 Liquefied Cyber Punk dnb drum&bass Low jacob
BeatmapID:474943
BeatmapSetID:192995

[Difficulty]
HPDrainRate:1
CircleSize:3
OverallDifficulty:1
ApproachRate:2
SliderMultiplier:0.8
SliderTickRate:1

[Events]
//Background and Video events
0,0,"BG.jpg",0,0
//Break Periods
2,84571,93478
2,100571,103478
//Storyboard Layer 0 (Background)
//Storyboard Layer 1 (Fail)
//Storyboard Layer 2 (Pass)
//Storyboard Layer 3 (Foreground)
//Storyboard Sound Samples
//Background Colour Transformations
3,100,163,162,255

[TimingPoints]
372,333.333333333333,4,2,0,35,1,0
6705,-100,4,1,0,80,0,0
95023,-100,4,1,0,30,0,0
96371,-100,4,1,0,40,0,0
97705,-100,4,1,0,50,0,0
99038,-100,4,1,0,60,0,0
105038,-100,4,1,0,80,0,0
127038,-100,4,1,0,80,0,1
137705,-100,4,1,0,80,0,0
148371,-100,4,2,0,5,0,0

[Colours]
Combo1 : 159,146,102
Combo2 : 154,154,154
Combo3 : 55,118,223
Combo4 : 87,100,119

[HitObjects]
116,344,7038,5,0,0:0:0:0:
192,320,7371,2,0,P|212:240|124:164,1,200,8|8,0:0|0:0,0:0:0:0:
92,52,8705,2,0,B|142:43|142:43|194:64|194:64|260:54,1,160,8|8,0:0|0:0,0:0:0:0:
316,100,9705,5,0,0:0:0:0:
388,60,10038,2,0,P|436:136|412:208,1,160,8|8,0:0|0:0,0:0:0:0:
320,324,11371,2,0,P|272:248|296:176,1,160,8|8,0:0|0:0,0:0:0:0:
364,240,12371,5,0,0:0:0:0:
408,160,12705,2,0,L|396:36,1,120,8|0,0:0|0:0,0:0:0:0:
316,28,13538,1,8,0:0:0:0:
256,132,14038,2,0,P|160:128|120:80,1,160,8|8,0:0|0:0,0:0:0:0:
52,124,15038,5,0,0:0:0:0:
100,187,15371,2,0,P|116:275|32:351,1,200,8|8,0:0|0:0,0:0:0:0:
144,312,17705,6,0,P|208:304|260:340,1,120,4|2,0:0|0:2,0:0:0:0:
465,218,19205,2,0,L|368:232,1,80,2|0,0:2|0:0,0:0:0:0:
328,174,19871,2,0,L|231:188,1,80,0|2,0:0|0:2,0:0:0:0:
93,224,20871,5,0,0:0:0:0:
80,144,21205,1,0,0:0:0:0:
66,65,21538,1,2,0:2:0:0:
237,167,22371,5,0,0:0:0:0:
224,247,22705,1,0,0:0:0:0:
210,326,23038,2,0,P|276:301|333:323,1,120,0|2,0:0|0:2,0:0:0:0:
470,181,24371,2,0,L|486:52,1,120,0|2,0:0|0:2,0:0:0:0:
301,138,25705,6,0,L|291:223,1,80
287,257,26205,2,0,P|229:213|171:218,1,120,2|0,0:2|0:0,0:0:0:0:
115,254,27038,1,2,0:2:0:0:
219,132,27705,1,0,0:0:0:0:
367,72,28371,6,0,P|309:81|258:52,1,120,4|2,0:0|0:2,0:0:0:0:
47,166,29872,2,0,L|126:154,1,80,2|0,0:2|0:0,0:0:0:0:
184,210,30538,2,0,L|263:198,1,80,0|2,0:0|0:2,0:0:0:0:
419,160,31538,5,0,0:0:0:0:
432,240,31872,1,0,0:0:0:0:
446,319,32205,1,2,0:2:0:0:
275,217,33038,5,0,0:0:0:0:
288,137,33372,1,0,0:0:0:0:
301,58,33704,2,0,P|248:82|190:69,1,120,0|2,0:0|0:2,0:0:0:0:
42,203,35038,6,0,L|27:322,1,120,0|2,0:0|0:2,0:0:0:0:
211,246,36372,6,0,L|220:166,1,80
261,93,37038,2,0,P|297:139|297:198,1,120,2|0,0:2|0:0,0:0:0:0:
117,290,38372,1,0,0:0:0:0:
64,138,39038,1,4,0:0:0:0:
58,338,41705,5,4,0:0:0:0:
136,247,42205,2,0,P|221:234|295:279,2,160,0|0|0,0:0|0:0|0:0,0:0:0:0:
58,338,44038,1,0,0:0:0:0:
137,332,44371,5,4,0:0:0:0:
212,238,44871,2,0,B|224:181|224:181|211:134|211:134|227:74,2,160,0|0|0,0:0|0:0|0:0,0:0:0:0:
137,332,46705,1,0,0:0:0:0:
216,323,47038,5,4,0:0:0:0:
330,358,47538,2,0,P|420:345|455:287,2,160,0|0|0,0:0|0:0|0:0,0:0:0:0:
216,323,49371,1,0,0:0:0:0:
254,252,49705,5,4,0:0:0:0:
195,147,50205,2,0,P|133:158|86:117,1,120
156,79,51038,6,0,L|240:48,1,80,0|0,0:0|0:0,0:0:0:0:
305,80,51705,2,0,L|389:49,1,80,0|0,0:0|0:0,0:0:0:0:
451,87,52371,5,4,0:0:0:0:
383,186,52871,2,0,P|298:199|224:154,2,160,0|0|0,0:0|0:0|0:0,0:0:0:0:
451,87,54704,1,0,0:0:0:0:
372,93,55037,5,4,0:0:0:0:
307,195,55537,2,0,B|295:252|295:252|308:299|308:299|292:359,2,160,0|0|0,0:0|0:0|0:0,0:0:0:0:
372,93,57371,1,0,0:0:0:0:
292,88,57704,5,4,0:0:0:0:
179,46,58204,2,0,P|89:59|54:117,2,160,0|0|0,0:0|0:0|0:0,0:0:0:0:
292,88,60038,1,4,0:0:0:0:
351,141,60371,6,0,L|448:150,1,80,4|0,0:0|0:0,0:0:0:0:
459,223,61038,2,0,P|462:272|438:303,1,80,0|0,0:0|0:0,0:0:0:0:
370,268,61705,2,0,L|290:260,1,80,4|0,0:0|0:0,0:0:0:0:
224,305,62371,2,0,P|173:251|90:262,1,160,4|0,0:0|0:0,0:0:0:0:
36,316,63371,5,8,0:0:0:0:
46,196,63871,2,0,P|35:147|14:119,1,80,0|8,0:0|0:0,0:0:0:0:
36,316,65038,1,0,0:0:0:0:
195,303,65705,6,0,L|287:296,1,80,0|8,0:0|0:0,0:0:0:0:
351,205,66538,2,0,P|311:192|268:201,1,80,0|8,0:0|0:0,0:0:0:0:
402,352,67705,1,0,0:0:0:0:
435,279,68038,1,0,0:0:0:0:
462,204,68371,6,0,P|461:137|421:96,2,120,0|2|0,0:0|0:2|0:0,0:0:0:0:
381,205,69705,2,0,P|336:254|337:311,2,120,0|2|0,0:0|0:2|0:0,0:0:0:0:
417,280,71038,5,0,0:0:0:0:
255,313,71705,1,0,0:0:0:0:
112,246,72371,2,0,L|144:165,1,80,2|0,2:0|2:0,0:0:0:0:
219,154,73038,2,0,L|251:73,1,80,2|0,2:0|2:0,0:0:0:0:
179,42,73705,6,0,P|134:33|94:42,1,80,0|8,0:0|0:0,0:0:0:0:
81,157,74538,2,0,P|70:206|49:234,1,80,0|8,0:0|0:0,0:0:0:0:
58,39,75705,1,0,0:0:0:0:
215,69,76372,6,0,L|307:76,1,80,0|8,0:0|0:0,0:0:0:0:
354,180,77205,2,0,P|314:193|271:184,1,80,0|8,0:0|0:0,0:0:0:0:
402,32,78372,1,0,0:0:0:0:
435,105,78705,1,0,0:0:0:0:
462,180,79038,6,2,P|449:275|383:307,1,160,2|0,0:0|0:0,0:0:0:0:
319,296,80038,1,0,0:0:0:0:
245,265,80371,6,2,B|155:250|184:317|74:284,1,160,2|0,0:0|0:0,0:0:0:0:
36,230,81371,1,0,0:0:0:0:
75,160,81705,6,2,P|107:139|157:137,1,80,2|0,0:0|0:0,0:0:0:0:
218,175,82371,2,2,P|256:181|302:164,1,80,2|0,0:0|0:0,0:0:0:0:
323,94,83038,2,0,P|452:160|369:197,1,320,0|4,0:0|2:2,0:0:0:0:
56,257,95038,6,0,P|144:250|212:293,1,160,4|0,0:0|0:0,0:0:0:0:
237,357,96038,1,0,0:0:0:0:
286,294,96371,2,0,P|374:301|442:258,1,160,0|0,0:0|0:0,0:0:0:0:
450,188,97371,1,0,0:0:0:0:
372,210,97705,6,0,B|319:217|319:217|267:196|267:196|217:205,1,160,4|0,0:0|0:0,0:0:0:0:
155,256,98705,1,0,0:0:0:0:
141,177,99038,2,0,P|117:97|164:35,1,160
233,64,100038,1,0,0:0:0:0:
310,82,100371,1,4,0:0:0:0:
368,72,105038,5,4,0:0:0:0:
368,72,105705,2,0,P|304:80|252:44,1,120,4|2,0:0|0:2,0:0:0:0:
47,166,107205,2,0,L|144:152,1,80,2|0,0:2|0:0,0:0:0:0:
184,210,107871,2,0,L|281:196,1,80,0|2,0:0|0:2,0:0:0:0:
419,160,108871,5,0,0:0:0:0:
432,240,109205,1,0,0:0:0:0:
446,319,109538,1,2,0:2:0:0:
275,217,110371,5,0,0:0:0:0:
288,137,110705,1,0,0:0:0:0:
302,58,111038,2,0,P|236:83|179:61,1,120,0|2,0:0|0:2,0:0:0:0:
42,203,112371,2,0,L|26:332,1,120,0|2,0:0|0:2,0:0:0:0:
211,246,113705,6,0,L|221:161,1,80
225,127,114205,2,0,P|283:171|341:166,1,120,2|0,0:2|0:0,0:0:0:0:
397,130,115038,1,2,0:2:0:0:
294,252,115705,1,0,0:0:0:0:
145,312,116371,6,0,P|203:303|254:332,1,120,4|2,0:0|0:2,0:0:0:0:
465,218,117872,2,0,L|386:230,1,80,2|0,0:2|0:0,0:0:0:0:
328,174,118538,2,0,L|249:186,1,80,0|2,0:0|0:2,0:0:0:0:
93,224,119538,5,0,0:0:0:0:
80,144,119872,1,0,0:0:0:0:
66,65,120205,1,2,0:2:0:0:
237,167,121038,5,0,0:0:0:0:
224,247,121372,1,0,0:0:0:0:
211,326,121704,2,0,P|264:302|324:316,1,120,0|2,0:0|0:2,0:0:0:0:
470,181,123038,2,0,L|485:62,1,120,0|2,0:0|0:2,0:0:0:0:
301,138,124372,6,0,L|292:218,1,80
251,290,125038,2,0,P|215:244|215:185,1,120,2|0,0:2|0:0,0:0:0:0:
395,94,126372,1,0,0:0:0:0:
448,244,127038,6,2,B|358:259|387:192|277:225,2,160,2|8|0,0:0|0:0|0:0,0:0:0:0:
305,62,129371,5,8,0:0:0:0:
253,123,129705,2,2,P|237:183|310:248,1,160,2|0,0:0|0:0,0:0:0:0:
414,134,131038,2,2,P|430:74|357:9,1,160,2|0,0:0|0:0,0:0:0:0:
305,62,132038,1,8,0:0:0:0:
229,39,132371,6,2,B|192:46|192:46|153:31|153:31|100:40,2,120,0|2|0,0:0|0:0|0:0,0:0:0:0:
267,111,133705,2,2,P|309:186|279:250,2,160,0|2|0,0:0|0:0|0:0,0:0:0:0:
110,141,135705,1,2,0:0:0:0:
63,294,136371,1,0,0:0:0:0:
183,188,137038,1,2,0:0:0:0:
131,340,137705,6,0,P|189:331|240:360,1,120,4|2,0:0|0:2,0:0:0:0:
451,246,139206,2,0,L|372:258,1,80,2|0,0:2|0:0,0:0:0:0:
314,202,139872,2,0,L|235:214,1,80,0|2,0:0|0:2,0:0:0:0:
79,252,140872,5,0,0:0:0:0:
66,172,141206,1,0,0:0:0:0:
52,93,141539,1,2,0:2:0:0:
223,195,142372,5,0,0:0:0:0:
210,275,142706,1,0,0:0:0:0:
197,354,143038,2,0,P|250:330|308:343,1,120,4|2,0:0|0:2,0:0:0:0:
456,209,144372,2,0,L|471:90,1,120,4|2,0:0|0:2,0:0:0:0:
287,166,145706,6,0,L|278:246,1,80,4|0,0:0|0:0,0:0:0:0:
237,318,146372,2,0,P|201:272|201:213,1,120,2|0,0:2|0:0,0:0:0:0:
351,147,147538,2,0,P|402:157|446:160,2,80,0|0|4,0:0|0:0|0:2,0:0:0:0:
256,192,148371,12,0,151038,0:0:0:0:
