osu file format v13

[General]
AudioFilename: Neurotoxin.mp3
AudioLeadIn: 0
PreviewTime: 17705
Countdown: 0
SampleSet: Normal
StackLeniency: 0.7
Mode: 0
LetterboxInBreaks: 0
WidescreenStoryboard: 0

[Editor]
DistanceSpacing: 0.6
BeatDivisor: 4
GridSize: 4
TimelineZoom: 1.300001

[Metadata]
Title:Neurotoxin
TitleUnicode:Neurotoxin
Artist:sakuzyo
ArtistUnicode:削除
Creator:kiddly
Version:Another
Source:
Tags:BMS selentia bof2011 Liquefied Cyber Punk dnb drum&bass Low jacob
BeatmapID:458793
BeatmapSetID:192995

[Difficulty]
HPDrainRate:8
CircleSize:5
OverallDifficulty:8
ApproachRate:9.3
SliderMultiplier:1.7
SliderTickRate:1

[Events]
//Background and Video events
0,0,"BG.jpg",0,0
//Break Periods
//Storyboard Layer 0 (Background)
//Storyboard Layer 1 (Fail)
//Storyboard Layer 2 (Pass)
//Storyboard Layer 3 (Foreground)
//Storyboard Sound Samples
//Background Colour Transformations
3,100,163,162,255

[TimingPoints]
372,333.333333333333,4,2,0,15,1,0
4038,-100,4,2,0,25,0,0
4371,-100,4,2,0,30,0,0
4705,-100,4,2,0,40,0,0
5038,-100,4,2,0,50,0,0
5371,-100,4,2,0,60,0,0
5705,-100,4,2,0,70,0,0
7038,-100,4,2,1,100,0,0
7205,-100,4,2,0,100,0,0
7371,-100,4,2,1,100,0,0
8038,-100,4,2,0,100,0,0
8205,-100,4,2,1,100,0,0
9538,-100,4,2,0,100,0,0
9621,-100,4,2,1,100,0,0
9871,-100,4,2,0,100,0,0
10038,-100,4,2,1,100,0,0
12538,-100,4,2,0,100,0,0
12705,-100,4,2,1,100,0,0
13371,-100,4,2,0,100,0,0
13538,-100,4,2,1,100,0,0
13705,-100,4,2,0,100,0,0
13871,-100,4,2,1,100,0,0
14871,-100,4,2,0,100,0,0
14955,-100,4,2,1,100,0,0
15205,-100,4,2,0,100,0,0
15371,-100,4,2,1,100,0,0
15538,-100,4,2,0,100,0,0
15705,-100,4,2,1,100,0,0
18705,-100,4,2,0,100,0,0
18871,-100,4,2,1,100,0,0
19038,-100,4,2,0,100,0,0
19205,-100,4,2,1,100,0,0
20538,-100,4,2,0,100,0,0
20705,-100,4,2,1,100,0,0
21538,-100,4,2,0,100,0,0
21788,-100,4,2,1,100,0,0
22871,-100,4,2,0,100,0,0
22955,-100,4,2,1,100,0,0
23038,-100,4,1,0,70,0,0
23621,-100,4,2,1,100,0,0
24038,-100,4,2,0,100,0,0
24205,-100,4,2,1,100,0,0
24371,-100,4,1,0,70,0,0
24955,-100,4,2,1,100,0,0
25705,-100,4,1,0,70,0,0
27705,-200,4,2,1,100,0,0
28038,-100,4,2,1,100,0,0
29371,-100,4,2,0,100,0,0
29538,-100,4,2,1,100,0,0
29705,-100,4,2,0,100,0,0
29871,-100,4,2,1,100,0,0
31205,-100,4,2,0,100,0,0
31371,-100,4,2,1,100,0,0
31538,-100,4,2,0,100,0,0
31705,-100,4,2,1,100,0,0
33705,-100,4,1,0,70,0,0
34538,-100,4,2,1,100,0,0
34871,-100,4,2,0,100,0,0
35038,-100,4,1,0,70,0,0
35871,-100,4,2,1,100,0,0
36205,-100,4,2,0,100,0,0
36371,-100,4,1,0,60,0,0
38705,-100,4,2,1,100,0,0
38871,-100,4,1,0,70,0,0
39121,-100,4,2,1,30,0,0
40371,-100,4,2,1,40,0,0
40538,-100,4,2,1,45,0,0
40705,-100,4,2,1,50,0,0
40871,-100,4,2,1,55,0,0
41038,-100,4,2,1,60,0,0
41205,-100,4,2,1,65,0,0
41371,-100,4,2,1,70,0,0
44038,-151.515151515152,4,2,1,100,0,0
44371,-100,4,2,1,100,0,0
46705,-151.515151515152,4,2,1,100,0,0
47038,-100,4,2,1,100,0,0
49371,-151.515151515152,4,2,1,100,0,0
49705,-100,4,2,1,100,0,0
51038,-100,4,1,1,50,0,0
52371,-100,4,2,1,100,0,0
54705,-100,4,2,0,70,0,0
55038,-100,4,2,1,100,0,0
60205,-100,4,2,0,70,0,0
60371,-100,4,1,0,50,0,0
62371,-200,4,1,0,30,0,0
63038,-100,4,2,2,100,0,0
63205,-100,4,2,0,70,0,0
63371,-100,4,2,2,100,0,0
64038,-100,4,2,0,70,0,0
64205,-100,4,2,2,100,0,0
64371,-100,4,2,0,70,0,0
64538,-100,4,2,2,100,0,0
65871,-100,4,2,0,70,0,0
66038,-100,4,2,2,100,0,0
66205,-100,4,2,0,70,0,0
66371,-100,4,2,2,100,0,0
68538,-100,4,2,0,70,0,0
68705,-100,4,2,2,100,0,0
69371,-100,4,2,0,70,0,0
69538,-100,4,2,2,100,0,0
69705,-100,4,2,0,70,0,0
69871,-100,4,2,2,100,0,0
71205,-100,4,2,0,70,0,0
71371,-100,4,2,2,100,0,0
71871,-100,4,2,0,70,0,0
72038,-100,4,2,2,100,0,0
72455,-100,4,2,0,60,0,0
72538,-100,4,2,2,100,0,0
72955,-100,4,2,0,60,0,0
73038,-100,4,2,2,100,0,0
73871,-100,4,2,0,70,0,0
74038,-100,4,2,2,100,0,0
74205,-100,4,2,0,70,0,0
74371,-100,4,2,2,100,0,0
74705,-100,4,2,0,70,0,0
74871,-100,4,2,2,100,0,0
75038,-100,4,2,0,70,0,0
75205,-100,4,2,2,90,0,0
76538,-100,4,2,0,70,0,0
76705,-100,4,2,2,100,0,0
76871,-100,4,2,0,70,0,0
77205,-100,4,2,2,100,0,0
79038,-100,4,1,0,70,0,0
79205,-100,4,2,2,100,0,0
79705,-100,4,1,0,70,0,0
79871,-100,4,2,2,100,0,0
81038,-100,4,1,0,70,0,0
81205,-100,4,2,2,100,0,0
83038,-100,4,2,0,30,0,0
83205,-100,4,2,0,39,0,0
83371,-100,4,2,0,48,0,0
83538,-100,4,2,0,56,0,0
83705,-100,4,2,0,65,0,0
83871,-100,4,2,0,74,0,0
84038,-100,4,2,0,83,0,0
84205,-100,4,2,0,92,0,0
84371,-166.666666666667,4,2,3,60,0,0
95038,-166.666666666667,4,1,0,30,0,0
96371,-136.986301369863,4,1,0,40,0,0
97705,-116.279069767442,4,1,0,50,0,0
99038,-100,4,1,0,60,0,0
99205,-100,4,1,0,60,0,0
100038,-66.6666666666667,4,1,0,60,0,0
100202,-66.6666666666667,4,1,0,70,0,0
100371,-400,4,2,3,80,0,0
104371,-200,4,2,3,80,0,0
105038,-57.1428571428571,4,1,0,70,0,0
105705,-166.666666666667,4,1,0,70,0,0
106205,-100,4,2,1,100,0,0
106705,-100,4,2,0,70,0,0
106871,-100,4,2,1,100,0,0
107038,-100,4,2,0,70,0,0
107205,-100,4,2,1,100,0,0
108538,-100,4,2,0,70,0,0
108705,-100,4,2,1,100,0,0
108871,-100,4,2,0,70,0,0
109038,-100,4,2,1,100,0,0
111038,-100,4,1,0,70,0,0
111621,-100,4,2,1,100,0,0
112371,-100,4,1,0,70,0,0
112955,-100,4,2,1,100,0,0
113538,-100,4,1,0,70,0,0
115705,-200,4,1,0,70,0,0
116371,-100,4,2,1,100,0,0
117705,-100,4,2,0,70,0,0
117871,-100,4,2,1,100,0,0
119121,-100,4,2,0,60,0,0
119371,-100,4,2,1,100,0,0
121705,-100,4,1,0,70,0,0
122538,-100,4,2,1,100,0,0
123038,-100,4,1,0,70,0,0
123871,-100,4,2,1,100,0,0
124121,-100,4,2,0,50,0,0
124371,-100,4,1,0,70,0,0
126371,-100,4,2,0,50,0,0
127038,-83.3333333333333,4,1,0,80,0,1
137038,-166.666666666667,4,1,0,80,0,0
137705,-100,4,2,1,100,0,0
138621,-100,4,2,0,60,0,0
138871,-100,4,2,1,100,0,0
138955,-100,4,2,0,60,0,0
139205,-100,4,2,1,100,0,0
140788,-100,4,2,0,60,0,0
141038,-100,4,2,1,100,0,0
141538,-100,4,2,0,60,0,0
141705,-100,4,2,1,100,0,0
143038,-100,4,1,0,75,0,0
143871,-100,4,2,1,100,0,0
144205,-100,4,2,0,80,0,0
144371,-100,4,1,0,70,0,0
145205,-100,4,2,1,100,0,0
145538,-100,4,2,0,80,0,0
145705,-100,4,1,0,70,0,0
148371,-100,4,2,1,5,0,0

[Colours]
Combo1 : 230,230,230
Combo2 : 154,154,154
Combo3 : 55,118,223
Combo4 : 87,100,119
Combo5 : 159,146,102

[HitObjects]
256,192,3038,12,0,6538,0:0:0:0:
192,336,6705,6,0,B|102:314|102:314|160:290,1,127.5,0|0,0:0|0:0,0:3:0:0:
200,268,7038,5,4,0:0:0:0:
276,232,7205,1,0,0:0:0:0:
268,316,7371,1,8,0:0:0:0:
152,324,7538,1,2,0:0:0:0:
132,320,7621,1,2,0:0:0:0:
112,316,7705,1,2,0:0:0:0:
92,312,7788,1,2,0:0:0:0:
72,308,7871,1,4,0:0:0:0:
12,364,8038,5,0,0:0:0:0:
244,324,8205,1,8,0:0:0:0:
400,369,8371,6,0,P|361:384|320:372,1,85,2|4,0:0|0:0,0:0:0:0:
368,276,8705,2,0,L|456:264,1,85,8|2,0:0|0:0,0:0:0:0:
440,252,8955,1,2,0:0:0:0:
428,240,9038,1,2,0:0:0:0:
416,228,9121,2,0,L|440:164,1,42.5,2|4,0:0|0:0,0:0:0:0:
488,44,9371,22,0,P|511:78|509:120,1,85,8|0,0:0|0:0,2:0:0:0:
436,116,9621,1,2,0:0:0:0:
442,100,9705,2,0,L|340:126,1,85,4|0,0:0|0:0,0:0:0:0:
304,28,10038,2,0,L|386:7,1,85,8|2,0:0|0:0,0:0:0:0:
268,120,10371,5,2,0:0:0:0:
256,108,10455,1,2,0:0:0:0:
244,96,10538,1,4,0:0:0:0:
320,176,10705,1,8,0:0:0:0:
268,120,10871,5,2,0:0:0:0:
256,108,10955,1,2,0:0:0:0:
244,96,11038,1,2,0:0:0:0:
232,84,11121,2,0,L|172:96,1,42.5,2|4,0:0|0:0,0:0:0:0:
16,252,11371,6,0,L|104:232,1,85,8|2,0:0|0:0,0:0:0:0:
108,220,11621,1,2,0:0:0:0:
119,208,11705,2,0,L|179:236,1,42.5,2|2,0:0|0:0,0:0:0:0:
220,256,11871,2,0,L|308:236,1,85,4|8,0:0|0:0,0:0:0:0:
488,256,12205,21,2,0:0:0:0:
480,248,12288,1,2,0:0:0:0:
472,240,12371,1,4,0:0:0:0:
378,284,12538,1,0,0:0:0:0:
463,343,12705,1,8,0:0:0:0:
304,248,12871,6,0,L|320:208,1,42.5,2|2,0:0|0:0,0:0:0:0:
248,192,13038,1,2,0:0:0:0:
240,176,13121,1,2,0:0:0:0:
232,160,13205,2,0,P|262:135|324:144,1,85,4|0,0:0|0:0,0:0:0:0:
500,180,13538,2,0,P|469:204|408:196,1,85,8|0,0:0|0:0,0:0:0:0:
324,152,13871,5,4,0:0:0:0:
351,368,14038,2,0,L|340:284,1,85,8|2,0:0|0:0,0:0:0:0:
258,264,14288,1,2,0:0:0:0:
268,284,14371,1,2,0:0:0:0:
271,306,14455,2,0,P|267:330|248:352,1,42.5,2|4,0:0|0:0,0:0:0:0:
148,316,14705,6,0,L|36:308,1,85,8|0,0:0|0:0,0:0:0:0:
12,252,14955,1,2,0:0:0:0:
0,240,15038,2,0,P|40:224|84:233,1,85,4|0,0:0|0:0,0:0:0:0:
184,384,15371,1,8,0:0:0:0:
224,232,15538,1,0,0:0:0:0:
332,344,15705,1,8,0:0:0:0:
340,332,15788,1,2,0:0:0:0:
348,320,15871,2,0,B|404:308|404:308|448:328|448:328|528:312,1,170,4|8,0:0|0:0,2:0:0:0:
304,260,16371,22,0,L|356:248,1,42.5,4|2,0:0|0:0,0:0:0:0:
438,245,16538,2,0,L|480:236,1,42.5,8|2,0:0|0:0,0:0:0:0:
481,86,16705,2,0,L|440:96,1,42.5,8|2,0:0|0:0,0:0:0:0:
380,188,16871,2,0,L|421:178,1,42.5,2|4,0:0|0:0,0:0:0:0:
360,112,17038,5,2,0:0:0:0:
328,96,17121,1,2,0:0:0:0:
292,88,17205,1,6,0:0:0:0:
256,92,17288,1,2,0:0:0:0:
224,108,17371,1,10,0:0:0:0:
192,308,17705,6,0,B|152:292|152:292|56:316,1,127.5,4|2,0:2|0:0,0:0:0:0:
16,356,18038,1,8,0:0:0:0:
244,236,18205,1,2,0:0:0:0:
252,252,18288,1,2,0:0:0:0:
260,268,18371,1,2,0:0:0:0:
268,284,18455,1,2,0:0:0:0:
276,300,18538,1,4,0:0:0:0:
489,298,18705,5,0,0:0:0:0:
342,351,18871,1,8,0:0:0:0:
430,221,19038,1,0,0:0:0:0:
435,378,19204,1,4,0:0:0:0:
340,256,19371,2,0,P|316:216|332:156,1,85,8|2,0:0|0:0,0:0:0:0:
368,136,19621,1,2,0:0:0:0:
384,132,19705,1,2,0:0:0:0:
400,128,19788,2,0,L|432:72,1,42.5,2|4,0:0|0:0,0:0:0:0:
372,212,20038,21,8,0:0:0:0:
476,152,20205,1,2,0:0:0:0:
492,148,20288,1,2,0:0:0:0:
508,144,20371,1,4,0:0:0:0:
432,252,20538,5,0,0:0:0:0:
372,212,20705,2,0,B|308:204|308:204|272:232,1,85,8|2,0:0|0:0,0:0:0:0:
152,300,21038,1,2,0:0:0:0:
160,312,21121,1,2,0:0:0:0:
168,324,21205,1,4,0:0:0:0:
108,364,21371,2,0,B|44:372|44:372|8:344,1,85,8|0,0:0|0:0,0:0:0:0:
240,260,21705,6,0,L|284:252,1,42.5,0|2,0:0|0:0,0:0:0:0:
348,268,21871,2,0,L|432:252,2,85,4|8|2,0:0|0:0|0:0,0:0:0:0:
340,284,22288,1,2,0:0:0:0:
332,300,22371,1,2,0:0:0:0:
324,316,22455,2,0,L|356:356,1,42.5,2|4,0:0|0:0,0:0:0:0:
484,240,22705,6,0,P|496:188|456:144,1,85,8|0,0:0|0:0,0:0:0:0:
471,155,22955,1,2,0:0:0:0:
460,148,23038,1,2,0:0:0:0:
412,196,23205,1,2,0:0:0:0:
244,168,23371,21,0,0:0:0:0:
292,120,23538,2,2,L|336:128,1,42.5,2|2,0:0|0:0,0:0:0:0:
352,120,23705,2,2,L|396:128,1,42.5
320,56,23871,2,0,B|260:44|260:44|220:64,2,85,4|0|8,0:0|0:0|0:0,0:0:0:0:
308,188,24371,5,2,0:0:0:0:
324,256,24538,1,2,0:0:0:0:
212,380,24705,5,0,0:0:0:0:
196,312,24871,2,2,L|132:304,1,42.5
88,316,25038,2,2,L|24:308,1,42.5
116,244,25205,2,0,B|137:233|137:233|197:245,2,85,4|8|2,0:0|0:0|0:0,0:0:0:0:
100,248,25621,1,2,0:0:0:0:
84,252,25705,5,2,0:0:0:0:
52,176,25871,1,0,0:0:0:0:
51,92,26038,1,2,0:0:0:0:
180,133,26205,21,0,0:0:0:0:
131,201,26371,1,2,0:0:0:0:
130,65,26538,5,2,0:0:0:0:
216,384,26705,2,0,B|232:356|232:356|220:288,1,85,0|2,0:0|0:0,0:0:0:0:
328,176,27038,1,0,0:0:0:0:
320,172,27121,1,0,0:0:0:0:
312,168,27205,2,0,B|296:196|296:196|308:264,1,85,2|2,0:0|0:0,0:0:0:0:
412,352,27538,5,0,0:0:0:0:
480,324,27705,2,0,P|486:275|462:237,1,85,4|2,1:1|0:0,0:0:0:0:
469,244,28371,6,0,B|380:264|380:264|344:236,1,127.5,4|2,0:2|0:0,0:0:0:0:
384,180,28705,1,8,0:0:0:0:
304,104,28871,1,2,0:0:0:0:
308,86,28955,1,2,0:0:0:0:
313,69,29038,1,2,0:0:0:0:
318,52,29121,1,2,0:0:0:0:
323,35,29205,1,4,0:0:0:0:
224,96,29371,22,0,P|228:148|272:180,1,85,0|8,0:0|0:0,0:0:0:0:
304,104,29705,1,0,0:0:0:0:
161,32,29871,1,4,0:0:0:0:
170,191,30038,1,8,0:0:0:0:
304,104,30205,5,2,0:0:0:0:
300,120,30288,1,2,0:0:0:0:
296,136,30371,2,2,L|328:196,1,42.5
380,152,30538,1,4,0:0:0:0:
380,152,30705,2,0,L|464:144,1,85,8|2,0:0|0:0,0:0:0:0:
504,212,30955,1,2,0:0:0:0:
492,224,31038,2,0,L|408:232,1,85,4|0,0:0|0:0,0:0:0:0:
256,332,31371,6,0,P|302:339|334:377,1,85,8|0,0:0|0:0,0:0:0:0:
168,344,31705,1,2,0:0:0:0:
152,356,31789,2,2,L|109:352,1,42.5,2|4,0:0|0:0,0:0:0:0:
108,260,32038,2,0,P|60:276|15:265,1,85,8|2,0:0|0:0,0:0:0:0:
0,212,32288,1,2,0:0:0:0:
16,200,32371,2,2,L|24:152,2,42.5,2|2|4,0:0|0:0|0:0,0:0:0:0:
212,216,32705,5,8,0:0:0:0:
284,52,32871,1,2,0:0:0:0:
324,48,32955,1,2,0:0:0:0:
364,44,33038,1,2,0:0:0:0:
404,40,33121,1,2,0:0:0:0:
444,36,33205,1,4,0:0:0:0:
336,120,33371,22,0,L|232:128,1,85,8|2,0:0|0:0,0:0:0:0:
241,116,33621,1,2,0:0:0:0:
231,105,33705,1,6,2:1:0:0:
89,146,33871,1,4,0:0:0:0:
137,44,34038,1,4,0:0:0:0:
210,314,34205,6,0,B|266:302|266:302|310:322|310:322|390:306,1,170,6|2,0:1|0:0,0:0:0:0:
384,320,34621,1,2,0:0:0:0:
395,330,34705,2,0,L|411:230,1,85,8|0,0:0|0:0,0:0:0:0:
488,128,35038,5,6,0:1:0:0:
336,80,35205,5,4,0:0:0:0:
400,64,35371,1,4,0:0:0:0:
432,188,35538,22,0,B|376:176|376:176|332:196|332:196|268:183,1,170,6|2,0:1|0:0,0:0:0:0:
216,132,35955,2,0,L|208:80,1,42.5,2|8,0:0|0:0,0:0:0:0:
152,256,36205,1,0,0:0:0:0:
88,296,36371,5,2,0:0:0:0:
151,185,36538,1,0,0:0:0:0:
215,296,36705,1,2,0:0:0:0:
152,256,36871,1,0,0:0:0:0:
88,224,37038,5,2,0:0:0:0:
268,244,37205,1,2,0:0:0:0:
156,384,37371,1,0,0:0:0:0:
20,264,37538,2,0,P|47:206|28:116,1,127.5,2|0,0:0|0:0,0:0:0:0:
0,80,37871,5,0,0:0:0:0:
221,28,38038,1,2,0:0:0:0:
155,245,38205,1,0,0:0:0:0:
128,128,38371,2,0,B|117:152|117:152|222:121,1,127.5,2|0,0:0|2:0,0:0:0:0:
359,74,38705,2,0,B|370:50|370:50|265:81,1,127.5,8|0,0:0|2:0,0:0:0:0:
228,224,39038,1,4,0:0:0:0:
256,192,39121,12,0,41371,0:0:0:0:
28,136,41705,22,0,P|84:92|184:108,1,170,4|8,0:0|0:0,0:0:0:0:
240,256,42205,6,0,B|280:264|280:264|320:256|320:256|392:272,1,127.5,4|2,0:0|2:2,0:0:0:0:
416,312,42538,2,2,L|516:300,1,85,2|8,0:1|0:0,0:1:0:0:
324,212,42871,22,0,P|392:204|452:248,1,127.5,4|2,0:0|0:2,0:0:0:0:
416,312,43205,2,0,L|516:300,1,85,2|8,0:1|0:0,0:0:0:0:
160,352,43538,22,0,P|225:371|292:338,1,127.5,4|2,0:0|0:2,0:0:0:0:
304,292,43871,1,2,0:1:0:0:
416,312,44038,2,0,L|508:300,1,84.1499997431946,8|2,0:0|2:2,0:0:0:0:
496,316,44371,6,0,P|428:252|448:184,1,170,4|8,0:0|0:0,0:0:0:0:
196,24,44871,6,0,P|250:75|234:129,1,127.5,4|2,0:0|0:2,0:0:0:0:
180,152,45205,2,0,L|84:144,1,85,2|8,0:1|0:0,0:0:0:0:
372,204,45538,38,0,B|328:176|328:176|224:200,1,127.5,4|2,0:0|0:2,0:0:0:0:
180,152,45871,2,0,L|84:144,1,85,2|8,0:1|0:0,0:0:0:0:
232,264,46205,6,0,B|309:319|309:319|296:289,1,127.5,4|2,0:0|0:2,0:0:0:0:
292,224,46538,1,2,0:1:0:0:
180,152,46705,2,0,L|88:144,1,84.1499997431946,8|8,0:0|0:0,0:0:0:0:
88,136,47038,6,0,B|72:184|72:184|88:248|88:248|68:308,1,170,4|8,0:0|0:0,0:0:0:0:
164,352,47538,6,0,B|196:260|196:260|208:324,1,127.5,4|2,0:0|0:2,0:0:0:0:
256,328,47871,2,0,P|292:312|340:312,1,85,2|8,0:1|0:0,0:0:0:0:
240,168,48205,22,0,P|192:232|228:284,1,127.5,4|2,0:0|0:2,0:0:0:0:
256,328,48538,2,0,P|292:312|340:312,1,85,2|8,0:1|0:0,0:0:0:0:
128,288,48871,6,0,B|48:272|48:272|18:307,1,127.5,4|2,0:0|0:2,0:0:0:0:
64,356,49205,1,2,0:1:0:0:
256,328,49371,2,0,P|292:344|340:344,1,84.1499997431946,8|2,0:0|0:2,0:0:0:0:
344,332,49705,6,0,B|400:320|400:320|444:340|444:340|524:324,1,170,4|8,0:0|0:0,0:0:0:0:
392,248,50205,6,0,P|328:224|268:244,1,127.5,4|2,0:0|0:2,0:0:0:0:
216,296,50538,1,2,0:1:0:0:
216,296,50705,2,0,L|234:382,1,85,8|4,0:0|0:0,0:0:0:0:
148,248,51038,21,0,0:0:0:0:
141,265,51205,1,0,0:0:0:0:
273,239,51371,21,0,0:0:0:0:
260,226,51538,1,0,0:0:0:0:
70,172,51705,5,0,0:0:0:0:
87,178,51871,1,0,0:0:0:0:
291,138,52038,21,8,0:0:0:0:
304,126,52205,1,0,0:0:0:0:
472,192,52371,6,0,B|488:231|488:231|461:314|461:314|442:270,1,170,4|8,0:0|0:0,0:0:0:0:
328,268,52871,6,0,B|280:272|280:272|256:300|256:300|188:308,1,127.5,4|2,0:0|0:2,0:0:0:0:
152,268,53205,2,0,P|140:224|164:176,1,85,2|8,0:1|0:0,0:0:0:0:
0,328,53538,38,0,B|48:332|48:332|72:360|72:360|140:368,1,127.5,4|2,0:0|0:2,0:0:0:0:
168,280,53871,2,0,P|180:236|156:188,1,85,2|8,0:1|0:0,0:0:0:0:
352,384,54205,6,0,B|329:372|329:372|304:377|304:377|281:366|281:366|256:370|256:370|234:359|234:359|209:363,1,127.5,4|2,0:0|0:2,0:0:0:0:
184,296,54538,1,2,0:1:0:0:
148,108,54705,1,2,0:0:0:0:
88,272,54871,1,2,0:0:0:0:
260,240,55038,6,0,P|300:180|260:88,1,170,4|8,0:0|0:0,0:0:0:0:
196,196,55538,6,0,B|103:216|103:216|134:228,1,127.5,4|2,0:0|0:2,0:0:0:0:
192,268,55871,2,0,L|275:251,1,85,2|8,0:1|0:0,0:0:0:0:
52,344,56205,22,0,B|84:312|84:312|188:336,1,127.5,4|2,0:0|0:2,0:0:0:0:
208,264,56538,2,0,L|291:247,1,85,2|8,0:1|0:0,0:0:0:0:
308,372,56871,6,0,P|256:344|260:280,1,127.5,4|2,0:0|0:2,0:0:0:0:
224,260,57205,1,2,0:1:0:0:
224,260,57371,2,0,L|307:243,1,85,8|4,0:0|0:0,0:0:0:0:
316,248,57621,1,8,0:0:0:0:
324,252,57705,2,0,B|444:228|444:228|424:284,1,170,4|8,0:0|0:0,0:0:0:0:
364,224,58205,6,0,P|328:164|356:104,1,127.5,4|2,0:0|0:2,0:0:0:0:
412,88,58538,2,0,L|508:96,1,85,2|8,0:1|0:0,0:0:0:0:
224,28,58871,6,0,B|247:38|247:38|272:31|272:31|296:41|296:41|320:35|320:35|343:44|343:44|368:38,1,127.5,4|2,0:0|0:2,0:0:0:0:
404,80,59205,2,0,L|500:88,1,85,2|8,0:1|0:0,0:0:0:0:
332,16,59538,22,0,P|368:76|340:136,1,127.5,4|2,0:0|0:2,0:0:0:0:
288,156,59871,1,2,0:1:0:0:
396,72,60038,2,0,L|492:80,1,85,8|2,0:0|0:0,0:0:0:0:
472,252,60371,5,6,0:0:0:0:
452,184,60538,1,0,0:0:0:0:
368,196,60705,1,4,0:0:0:0:
232,204,60871,5,2,0:0:0:0:
252,272,61038,1,4,0:0:0:0:
336,260,61205,1,2,0:0:0:0:
107,271,61371,5,4,0:0:0:0:
131,189,61538,1,2,0:0:0:0:
232,204,61705,21,4,0:0:0:0:
219,348,61871,1,6,0:0:0:0:
77,381,62038,1,4,0:0:0:0:
2,256,62205,1,6,0:0:0:0:
98,147,62371,2,2,P|152:132|200:152,1,85,2|0,0:0|0:0,0:0:0:0:
284,332,63038,5,4,0:0:0:0:
357,266,63205,1,0,0:0:0:0:
262,236,63371,1,8,0:0:0:0:
384,376,63538,5,2,0:0:0:0:
408,368,63621,1,2,0:0:0:0:
432,360,63705,1,2,0:0:0:0:
456,352,63788,1,2,0:0:0:0:
480,344,63871,1,4,0:0:0:0:
380,296,64038,2,0,P|340:276|292:288,1,85,0|8,0:0|0:0,0:0:0:0:
384,376,64371,5,0,0:0:0:0:
480,344,64538,1,4,0:0:0:0:
504,248,64705,2,0,L|404:292,1,85,8|2,0:0|0:0,0:0:0:0:
408,280,64955,1,2,0:0:0:0:
390,276,65038,1,2,0:0:0:0:
372,273,65121,2,2,L|412:242,1,42.5,2|4,0:0|0:0,0:0:0:0:
320,352,65371,22,0,B|280:336|280:336|220:348,1,85,8|2,0:0|0:0,0:0:0:0:
228,356,65621,1,2,0:0:0:0:
220,368,65705,1,4,0:0:0:0:
116,384,65871,1,0,0:0:0:0:
148,284,66038,1,8,0:0:0:0:
220,368,66205,1,0,0:0:0:0:
44,244,66371,5,2,0:0:0:0:
40,224,66455,1,2,0:0:0:0:
36,204,66538,1,4,0:0:0:0:
116,296,66705,1,8,0:0:0:0:
120,144,66871,6,2,L|176:132,1,42.5
172,120,67038,2,2,L|213:111,1,42.5
120,76,67205,2,0,P|96:40|116:-16,2,85,4|8|2,0:0|0:0|0:0,0:0:0:0:
132,64,67621,1,2,0:0:0:0:
144,52,67705,1,2,0:0:0:0:
156,40,67788,2,2,L|208:44,1,42.5,2|4,0:0|0:0,0:0:0:0:
236,176,68038,6,0,L|332:184,1,85,8|2,0:0|0:0,0:0:0:0:
360,60,68288,1,2,0:0:0:0:
368,48,68371,2,0,L|464:56,2,85,4|0|8,0:0|0:0|0:0,0:0:0:0:
488,156,68871,21,2,0:0:0:0:
472,156,68955,1,2,0:0:0:0:
416,188,69038,1,2,0:0:0:0:
400,188,69122,1,2,0:0:0:0:
344,156,69205,2,0,B|312:148|312:148|260:154,1,85,4|0,0:0|0:0,0:0:0:0:
204,288,69538,1,8,0:0:0:0:
112,200,69705,6,0,L|0:192,2,85,0|4|8,0:0|0:0|0:0,0:0:0:0:
76,304,70205,5,2,0:0:0:0:
92,308,70288,1,2,0:0:0:0:
144,268,70371,1,2,0:0:0:0:
160,272,70454,1,2,0:0:0:0:
216,304,70538,2,0,P|256:292|304:300,1,85,4|8,0:0|0:0,0:0:0:0:
440,324,70871,5,2,0:0:0:0:
452,336,70955,1,2,0:0:0:0:
464,348,71038,2,0,L|476:248,1,85,4|0,0:0|0:0,0:0:0:0:
380,220,71371,2,0,L|369:304,1,85,8|2,0:0|0:0,0:0:0:0:
462,251,71622,21,2,0:0:0:0:
474,263,71705,2,0,L|486:163,1,85,4|0,0:0|0:0,0:0:0:0:
390,135,72038,2,0,L|379:219,1,85,8|2,0:0|0:0,0:0:0:0:
476,80,72288,5,2,0:0:0:0:
488,68,72372,2,0,L|428:76,1,42.5,2|0,0:0|0:0,0:0:0:0:
388,44,72538,2,2,L|328:52,1,42.5
296,92,72705,5,2,0:0:0:0:
304,116,72788,1,2,0:0:0:0:
312,140,72871,1,2,0:0:0:0:
320,164,72955,1,0,0:0:0:0:
276,212,73038,6,2,L|220:220,1,42.5
180,256,73205,2,2,L|128:263,1,42.5,2|2,0:0|0:0,0:0:0:0:
0,196,73371,2,2,L|32:237,1,42.5,2|2,0:0|0:0,0:0:0:0:
38,381,73538,2,0,L|58:333,1,42.5,2|2,0:0|0:0,0:0:0:0:
73,278,73705,22,0,B|104:272|104:272|172:296,1,85,4|0,0:0|0:0,0:0:0:0:
84,384,74038,2,0,B|53:390|53:390|-15:366,1,85,8|0,0:0|0:0,0:0:0:0:
242,360,74371,6,2,L|224:332,3,21.25,2|2|2|2,0:0|0:0|0:0|0:0,0:0:0:0:
238,372,74538,2,0,P|286:352|342:364,1,85,4|0,0:0|0:0,0:0:0:0:
394,380,74871,1,8,0:0:0:0:
512,292,75038,6,0,P|460:276|404:296,1,85,0|4,0:0|0:0,0:0:0:0:
420,288,75288,1,4,0:0:0:0:
410,298,75371,1,4,0:0:0:0:
393,380,75538,1,8,0:0:0:0:
348,241,75705,1,2,0:0:0:0:
490,272,75871,1,4,0:0:0:0:
393,380,76038,5,8,0:0:0:0:
396,368,76121,1,8,0:0:0:0:
431,202,76288,1,8,0:0:0:0:
433,190,76371,1,4,0:0:0:0:
414,284,76538,1,0,0:0:0:0:
450,97,76705,1,8,0:0:0:0:
512,188,76871,22,0,B|456:176|456:176|412:196|412:196|332:180,1,170,0|4,0:0|0:0,0:0:0:0:
283,81,77371,2,0,L|380:99,1,85,8|2,0:0|0:0,0:0:0:0:
380,91,77621,1,2,0:0:0:0:
395,86,77705,2,0,L|418:43,1,42.5,2|2,0:0|0:0,0:0:0:0:
438,145,77871,6,0,L|334:179,1,85,4|8,0:0|0:0,0:0:0:0:
264,288,78205,2,2,L|259:317,4,21.25,2|2|2|2|2,0:0|0:0|0:0|0:0|0:0,0:0:0:0:
232,200,78538,1,4,0:0:0:0:
188,116,78705,2,0,L|136:108,1,42.5,8|2,0:0|0:0,0:0:0:0:
288,84,78871,2,0,L|236:76,1,42.5,2|2,0:0|0:0,0:0:0:0:
80,96,79038,6,2,B|64:128|64:128|80:192,1,85,6|2,0:0|0:0,0:0:0:0:
64,244,79288,2,0,L|76:300,1,42.5,2|8,0:0|0:0,0:0:0:0:
172,320,79538,5,4,0:0:0:0:
342,311,79705,1,2,1:0:0:0:
199,218,79871,1,8,0:0:0:0:
260,377,80038,1,2,1:0:0:0:
260,377,80121,1,8,0:0:0:0:
304,212,80288,1,0,1:0:0:0:
304,212,80371,22,2,B|333:210|333:210|401:247,1,85,6|2,1:0|0:0,1:0:0:0:
447,225,80621,2,0,L|491:248,1,42.5,2|8,0:0|0:0,0:0:0:0:
394,147,80871,5,2,0:0:0:0:
224,138,81038,1,2,0:0:0:0:
367,45,81204,1,8,0:0:0:0:
306,204,81371,1,2,1:0:0:0:
306,204,81454,1,8,0:0:0:0:
262,39,81621,1,0,1:0:0:0:
254,51,81704,6,0,B|148:63,1,85,6|2,1:0|0:0,0:0:0:0:
80,119,81955,1,2,0:0:0:0:
89,132,82038,2,2,B|195:144,1,85,8|2,0:0|0:0,0:0:0:0:
294,195,82288,1,2,0:0:0:0:
285,208,82371,2,0,B|179:220,1,85,6|2,1:0|0:0,0:0:0:0:
38,247,82621,5,2,0:0:0:0:
47,260,82705,2,0,L|96:266,1,42.5,8|8,0:0|0:0,0:0:0:0:
145,304,82871,2,0,L|194:310,1,42.5,2|8,0:0|0:0,0:0:0:0:
248,280,83038,21,2,2:0:0:0:
286,283,83121,1,2,2:0:0:0:
326,287,83205,1,2,2:0:0:0:
366,292,83288,1,2,2:0:0:0:
379,281,83371,5,2,2:0:0:0:
332,276,83454,1,2,2:0:0:0:
284,271,83538,1,2,2:0:0:0:
237,265,83621,1,2,2:0:0:0:
188,220,83705,5,2,2:0:0:0:
149,215,83788,1,2,2:0:0:0:
109,210,83872,1,2,2:0:0:0:
69,207,83955,1,2,2:0:0:0:
58,193,84038,5,2,2:0:0:0:
106,199,84121,1,2,2:0:0:0:
154,204,84205,1,2,2:0:0:0:
201,208,84288,1,2,2:0:0:0:
264,176,84371,22,0,P|312:160|376:184,1,101.999996887207,4|2,0:0|0:0,0:0:0:0:
408,264,84871,2,0,B|492:272|492:272|464:288,2,101.999996887207,0|0|0,0:0|0:0|0:0,0:0:0:0:
252,204,86205,2,0,L|313:200,1,50.9999984436036
144,196,87038,6,0,L|40:200,1,101.999996887207,0|2,0:0|0:0,0:0:0:0:
104,260,87538,2,0,P|148:236|212:244,1,101.999996887207
324,344,88204,2,0,B|379:336|379:336|414:355|414:355|450:357|450:357|483:343|486:296|451:277|451:277|423:275,1,254.999992218018,0|0,0:0|0:0,2:0:0:0:
248,304,89371,1,2,0:0:0:0:
164,340,89705,5,0,0:0:0:0:
152,336,89788,1,0,0:0:0:0:
72,340,89955,2,0,P|52:304|72:256,1,76.4999976654053,2|0,0:0|0:0,0:0:0:0:
112,226,90371,1,2,0:0:0:0:
119,232,90455,1,0,0:0:0:0:
127,237,90538,1,0,0:0:0:0:
136,240,90621,2,0,P|168:228|188:200,1,50.9999984436036,2|0,0:0|0:0,0:0:0:0:
184,204,90871,2,0,L|188:144,1,50.9999984436036,0|0,0:0|0:0,0:0:0:0:
261,157,91205,1,2,0:0:0:0:
256,168,91288,2,0,P|288:180|344:168,1,76.4999976654053
376,128,91705,1,2,0:0:0:0:
380,120,91788,1,0,0:0:0:0:
384,112,91871,1,0,0:0:0:0:
388,104,91955,1,0,0:0:0:0:
392,96,92038,2,0,L|428:88,2,25.4999992218018,2|0|0,0:0|0:0|0:0,0:0:0:0:
332,56,92371,5,0,0:0:0:0:
323,53,92455,1,0,0:0:0:0:
264,88,92621,1,0,0:0:0:0:
255,91,92705,1,2,0:0:0:0:
197,46,92871,1,0,0:0:0:0:
135,78,93038,1,2,0:0:0:0:
128,84,93121,1,0,0:0:0:0:
122,91,93205,1,0,0:0:0:0:
118,99,93288,2,0,P|118:139|144:177,1,76.4999976654053
181,226,93705,21,2,0:0:0:0:
192,228,93788,1,0,0:0:0:0:
259,229,93955,1,0,0:0:0:0:
270,226,94038,1,2,0:0:0:0:
335,220,94205,1,0,2:0:0:0:
404,225,94371,1,2,2:0:0:0:
418,292,94538,1,0,2:0:0:0:
360,328,94705,1,2,2:0:0:0:
308,284,94871,1,0,2:0:0:0:
308,284,95038,5,4,0:0:0:0:
399,358,95205,1,0,0:0:0:0:
418,241,95372,1,8,0:0:0:0:
308,284,95538,1,0,0:0:0:0:
296,300,95621,1,0,0:0:0:0:
292,320,95705,1,0,0:0:0:0:
296,340,95788,1,0,0:0:0:0:
308,356,95871,1,0,0:0:0:0:
399,358,96038,2,0,L|468:368,1,50.9999984436036,8|0,0:0|0:0,0:0:0:0:
220,300,96371,5,4,0:0:0:0:
144,324,96538,1,0,0:0:0:0:
202,378,96705,1,8,0:0:0:0:
160,248,96871,2,0,L|104:240,1,31.0250008521271
64,264,97038,1,0,0:0:0:0:
56,276,97121,1,0,0:0:0:0:
52,288,97205,2,0,P|36:248|40:224,1,62.0500017042542,0|8,0:0|0:0,0:0:0:0:
104,344,97538,1,0,0:0:0:0:
72,160,97705,6,0,L|144:168,1,73.1000011154175,4|0,0:0|0:0,0:0:0:0:
28,24,98038,2,0,P|4:60|16:100,1,73.1000011154175,8|0,0:0|0:0,0:0:0:0:
72,72,98288,1,0,0:0:0:0:
84,68,98371,1,0,0:0:0:0:
96,64,98455,2,0,L|160:80,1,36.5500005577087
244,104,98705,1,8,0:0:0:0:
260,196,98871,1,0,0:0:0:0:
276,288,99038,21,0,0:0:0:0:
288,300,99121,1,0,0:0:0:0:
300,312,99205,2,0,P|299:268|336:224,1,85,0|8,0:0|0:0,0:0:0:0:
456,304,99538,2,0,P|456:348|420:392,1,85
422,370,99788,1,0,0:0:0:0:
410,358,99871,1,0,0:0:0:0:
328,284,100038,6,0,B|280:292|280:292|244:284|244:284|176:296,1,127.500004863739,8|0,0:0|0:0,0:0:0:0:
112,328,100371,38,0,P|80:272|100:212,1,127.5,6|0,0:0|0:0,0:0:0:0:
184,120,101705,2,0,B|193:87|193:87|224:143|224:143|214:175,1,127.5,2|0,0:0|0:0,0:0:0:0:
264,280,103038,2,0,B|287:290|287:290|312:283|312:283|336:293|336:293|360:287|360:287|383:296|383:296|384:304,1,127.5,2|0,0:0|0:0,0:0:0:0:
468,144,104371,6,0,P|472:89|455:59,1,85,2|0,0:0|0:0,2:0:0:0:
404,112,105038,22,0,B|393:161|393:161|411:199|411:199|396:269,1,148.750001418591,4|4,0:0|0:0,0:0:0:0:
116,288,105705,6,0,P|168:280|220:308,1,101.999996887207
224,368,106205,22,0,L|260:264,1,85,2|2,0:0|0:0,0:0:0:0:
268,280,106455,1,2,0:0:0:0:
284,272,106538,1,6,0:0:0:0:
356,336,106705,1,0,0:0:0:0:
376,248,106871,1,8,0:0:0:0:
284,272,107038,5,0,0:0:0:0:
480,320,107205,1,4,0:0:0:0:
284,272,107371,2,0,B|236:280|236:280|192:320,1,85,8|2,0:0|0:0,0:0:0:0:
204,320,107621,1,2,0:0:0:0:
200,336,107705,1,2,0:0:0:0:
196,352,107788,1,2,0:0:0:0:
192,368,107871,2,0,B|172:336|172:336|188:276,1,85,4|8,0:0|0:0,0:0:0:0:
160,168,108205,5,2,0:0:0:0:
156,156,108288,1,2,0:0:0:0:
152,144,108371,1,4,0:0:0:0:
200,8,108538,1,0,0:0:0:0:
260,44,108705,1,8,0:0:0:0:
200,76,108871,6,0,L|112:72,1,85,0|2,0:0|0:0,0:0:0:0:
104,64,109121,1,2,0:0:0:0:
94,56,109204,1,4,0:0:0:0:
40,160,109371,22,0,P|80:180|128:172,1,85,8|2,0:0|0:0,0:0:0:0:
168,136,109621,1,2,0:0:0:0:
212,140,109705,1,2,0:0:0:0:
256,144,109788,1,2,0:0:0:0:
300,148,109871,1,4,0:0:0:0:
360,36,110038,22,0,P|401:38|460:44,1,85,8|2,0:0|0:0,0:0:0:0:
456,56,110288,1,2,0:0:0:0:
467,69,110371,2,2,L|448:116,1,42.5
392,140,110538,1,4,0:0:0:0:
392,140,110705,2,0,P|372:184|388:232,1,85,8|2,0:0|0:0,0:0:0:0:
428,264,110955,1,2,0:0:0:0:
428,264,111038,5,2,1:0:0:0:
204,284,111205,1,2,1:0:0:0:
256,240,111371,21,0,1:0:0:0:
376,308,111538,2,0,L|328:312,1,42.5,2|2,0:0|0:0,0:0:0:0:
276,344,111705,2,0,L|228:348,1,42.5,2|2,0:0|0:0,0:0:0:0:
64,376,111871,2,0,P|44:336|56:284,2,85,4|2|10,0:0|0:0|0:0,0:0:0:0:
184,316,112371,5,2,0:0:0:0:
176,240,112538,1,2,0:0:0:0:
48,192,112705,21,0,0:0:0:0:
40,116,112871,2,0,P|68:124|92:120,1,42.5,2|2,0:0|0:0,0:0:0:0:
136,16,113038,2,0,P|120:29|110:48,1,42.5,2|2,0:0|0:0,0:0:0:0:
176,188,113205,2,0,P|177:145|159:107,2,85,4|8|0,0:0|0:0|0:0,0:0:0:0:
152,344,113705,21,6,0:0:0:0:
148,360,113871,1,0,0:0:0:0:
278,208,114038,5,6,0:0:0:0:
293,204,114204,1,0,0:0:0:0:
97,167,114371,5,6,0:0:0:0:
86,155,114537,1,2,0:0:0:0:
176,240,114705,38,0,B|156:268|156:268|168:332,1,85,4|2,0:0|0:0,0:0:0:0:
276,144,115038,1,6,0:0:0:0:
284,152,115121,1,0,0:0:0:0:
292,160,115205,2,0,B|312:132|312:132|300:68,1,85,0|2,0:0|0:0,0:0:0:0:
396,232,115538,1,0,0:0:0:0:
396,232,115705,6,0,L|488:224,1,85,4|0,0:0|0:0,0:0:0:0:
464,216,116371,6,0,B|380:224|380:224|360:272,1,127.5,4|2,0:0|0:0,0:0:0:0:
376,276,116705,2,0,L|260:284,1,85,8|2,0:0|0:0,0:0:0:0:
234,324,116955,1,2,0:0:0:0:
252,340,117038,1,2,0:0:0:0:
276,348,117122,2,2,P|300:351|326:340,1,42.5,0|4,0:0|0:0,0:0:0:0:
408,156,117371,6,0,L|420:64,1,85,2|8,0:0|0:0,0:0:0:0:
304,124,117705,2,0,P|296:172|320:216,1,85,0|4,0:0|0:0,0:0:0:0:
408,260,118038,1,8,0:0:0:0:
408,260,118205,2,2,P|432:260|452:256,1,42.5
360,344,118371,2,2,P|391:348|403:352,1,42.5
296,268,118538,2,0,P|276:232|288:184,1,85,4|8,0:0|0:0,0:0:0:0:
448,24,118871,21,2,0:0:0:0:
456,32,118955,1,2,0:0:0:0:
464,40,119038,2,0,L|416:48,1,42.5,4|0,0:0|0:0,0:0:0:0:
384,124,119205,2,0,L|332:116,1,42.5,0|0,0:0|0:0,0:0:0:0:
232,52,119371,2,0,B|216:96|216:96|228:148,2,85,8|0|2,0:0|0:0|0:0,0:0:0:0:
244,64,119788,1,2,0:0:0:0:
256,76,119871,1,4,0:0:0:0:
144,120,120038,6,0,L|44:128,1,85,8|2,0:0|0:0,0:0:0:0:
12,200,120288,1,2,0:0:0:0:
20,212,120371,2,2,L|96:204,1,42.5
120,240,120538,2,0,L|204:233,1,85,4|8,0:0|0:0,0:0:0:0:
365,197,120872,5,2,0:0:0:0:
387,164,120955,1,2,0:0:0:0:
391,124,121039,1,2,0:0:0:0:
379,86,121122,1,2,0:0:0:0:
351,58,121205,1,4,0:0:0:0:
256,168,121371,2,0,L|272:264,1,85,8|2,0:0|0:0,0:0:0:0:
284,260,121621,1,2,0:0:0:0:
298,269,121705,5,2,0:0:0:0:
416,360,121871,1,0,0:0:0:0:
440,212,122038,1,0,0:0:0:0:
320,356,122205,22,0,B|264:344|264:344|220:364|220:364|140:348,1,170,6|2,0:1|0:0,0:0:0:0:
146,362,122621,1,2,0:0:0:0:
135,372,122705,2,0,L|119:272,1,85,8|0,0:0|0:0,0:0:0:0:
24,236,123038,1,2,0:0:0:0:
76,40,123205,5,0,0:0:0:0:
20,88,123371,1,0,0:0:0:0:
80,188,123538,6,0,B|64:227|64:227|91:310|91:310|110:266,1,170,2|2,0:0|0:0,0:0:0:0:
132,124,124038,2,0,L|174:120,1,42.5,8|0,0:0|0:0,0:0:0:0:
244,204,124205,2,0,L|201:207,1,42.5,0|0,0:0|0:0,0:0:0:0:
336,272,124370,5,6,0:0:0:0:
238,299,124538,1,0,0:0:0:0:
311,369,124704,1,6,0:0:0:0:
360,174,124870,21,0,0:0:0:0:
433,244,125037,1,6,0:0:0:0:
336,272,125205,1,2,0:0:0:0:
408,342,125371,5,4,0:0:0:0:
263,201,125538,1,2,0:0:0:0:
288,8,125705,5,0,0:0:0:0:
289,16,125788,1,0,0:0:0:0:
292,24,125871,1,0,0:0:0:0:
295,32,125955,1,0,0:0:0:0:
297,39,126038,1,0,0:0:0:0:
300,46,126121,1,0,0:0:0:0:
303,54,126205,1,0,0:0:0:0:
305,61,126288,1,0,0:0:0:0:
308,68,126371,6,0,L|296:120,1,42.5,0|0,1:2|0:0,0:0:0:0:
352,152,126538,2,0,L|336:204,1,42.5,0|0,1:0|0:0,0:0:0:0:
404,108,126705,2,2,L|431:75,5,28.3333333333333,2|2|2|2|2|2,0:0|0:0|0:0|0:0|0:0|0:0,0:0:0:0:
440,64,127038,6,2,P|488:88|480:196,1,152.999995330811,2|0,0:0|0:0,0:0:0:0:
424,184,127371,2,0,L|440:244,1,50.9999984436036,8|0,0:0|2:0,0:0:0:0:
424,224,127538,1,2,0:0:0:0:
412,216,127621,1,0,0:0:0:0:
400,208,127705,1,0,0:0:0:0:
388,200,127788,1,0,0:0:0:0:
376,192,127871,1,6,0:0:0:0:
312,120,128038,22,2,L|300:16,1,101.999996887207,2|8,0:0|0:0,0:0:0:0:
172,56,128371,1,0,0:0:0:0:
184,64,128455,1,0,0:0:0:0:
196,72,128538,2,2,L|207:173,1,101.999996887207,6|10,0:0|0:0,0:0:0:0:
116,256,128871,5,0,0:0:0:0:
104,244,128955,2,0,L|112:184,1,50.9999984436036
12,252,129121,1,0,0:0:0:0:
24,264,129205,2,0,L|16:324,1,50.9999984436036,6|0,0:0|2:0,0:0:0:0:
100,320,129371,2,0,B|164:312|164:312|204:340,1,101.999996887207,10|0,0:0|0:0,0:0:0:0:
188,344,129621,1,0,0:0:0:0:
182,355,129705,2,0,L|298:359,1,101.999996887207,6|0,0:0|0:0,0:0:0:0:
420,216,130038,5,8,0:0:0:0:
496,232,130205,1,2,0:0:0:0:
444,288,130371,1,2,0:0:0:0:
432,300,130455,2,0,L|360:308,1,50.9999984436036,0|4,0:0|0:0,0:0:0:0:
352,152,130705,2,0,B|248:164|248:164,1,101.999996887207,8|2,0:0|0:0,0:0:0:0:
240,180,130955,1,0,0:0:0:0:
228,196,131038,2,0,L|164:172,1,50.9999984436036,0|0,0:0|0:0,0:0:0:0:
124,216,131205,2,0,P|112:260|156:316,1,101.999996887207,6|8,0:0|0:0,0:0:0:0:
24,152,131538,5,2,0:0:0:0:
36,144,131621,1,0,0:0:0:0:
48,136,131705,1,2,0:0:0:0:
60,128,131788,1,0,0:0:0:0:
72,120,131871,2,0,P|84:76|40:20,1,101.999996887207,4|8,0:0|0:0,0:0:0:0:
184,100,132205,22,0,P|212:100|236:108,1,50.9999984436036
280,156,132371,1,6,0:0:0:0:
384,44,132538,2,0,B|440:36|440:36|492:52,2,101.999996887207,0|8|0,0:0|0:0|0:0,0:0:0:0:
320,16,132955,1,0,0:0:0:0:
312,32,133038,1,2,0:0:0:0:
304,48,133121,2,0,L|320:104,1,50.9999984436036,0|4,0:0|0:0,0:0:0:0:
356,264,133371,6,0,P|416:260|460:292,1,101.999996887207,0|10,0:0|0:0,0:0:0:0:
376,360,133705,2,0,L|256:352,1,101.999996887207,0|6,0:0|0:0,0:0:0:0:
472,376,134038,1,8,0:0:0:0:
356,264,134205,1,2,0:0:0:0:
368,232,134288,1,0,0:0:0:0:
380,200,134371,1,2,0:0:0:0:
392,168,134455,1,0,0:0:0:0:
404,136,134538,2,0,L|424:200,1,50.9999984436036,4|0,0:0|0:0,0:0:0:0:
344,176,134705,6,0,L|288:168,1,50.9999984436036,8|0,0:0|0:0,0:0:0:0:
232,196,134871,2,0,L|176:188,1,50.9999984436036,2|0,0:0|0:0,0:0:0:0:
84,176,135038,1,6,0:0:0:0:
84,176,135205,1,0,0:0:0:0:
124,356,135371,5,8,0:0:0:0:
124,356,135538,1,2,0:0:0:0:
12,288,135704,21,10,0:0:0:0:
12,288,135871,1,4,0:0:0:0:
284,220,136038,5,0,0:0:0:0:
284,220,136205,2,2,L|292:108,1,101.999996887207,10|0,0:0|0:0,0:0:0:0:
280,108,136455,1,0,0:0:0:0:
270,97,136538,1,2,0:0:0:0:
244,356,136705,5,8,0:0:0:0:
316,336,136871,1,2,0:0:0:0:
388,316,137038,2,2,L|396:204,1,101.999996887207,6|0,0:0|0:0,0:0:0:0:
276,40,137705,6,0,B|176:64|176:64|208:88,1,127.5,4|2,0:0|0:0,0:0:0:0:
208,88,138038,2,0,L|116:108,1,85,8|2,0:0|0:0,0:0:0:0:
116,116,138288,1,2,0:0:0:0:
108,128,138371,1,2,0:0:0:0:
100,140,138455,1,2,0:0:0:0:
92,152,138538,22,0,L|84:104,1,42.5,4|0,0:0|0:0,0:0:0:0:
4,224,138705,2,0,L|8:172,1,42.5
112,284,138871,2,0,L|104:236,1,42.5,8|0,0:0|0:0,0:0:0:0:
28,320,139038,2,0,P|72:312|124:336,1,85,0|4,0:0|0:0,0:0:0:0:
216,376,139371,2,0,L|316:364,1,85,8|2,0:0|0:0,0:0:0:0:
308,356,139621,1,2,0:0:0:0:
316,344,139705,1,2,0:0:0:0:
324,332,139788,2,0,L|268:340,1,42.5,2|4,0:0|0:0,0:0:0:0:
424,240,140038,6,0,B|468:232|468:232|488:168,1,85,8|2,0:0|0:0,0:0:0:0:
424,156,140288,1,2,0:0:0:0:
412,148,140371,2,0,L|304:172,1,85,4|0,0:0|0:0,0:0:0:0:
236,60,140705,6,0,P|241:92|248:108,1,42.5,8|0,0:0|0:0,0:0:0:0:
200,108,140871,2,0,P|220:133|234:143,1,42.5
192,167,141038,2,0,P|223:179|240:181,1,42.5,2|2,0:0|0:0,0:0:0:0:
332,76,141205,5,4,0:0:0:0:
404,64,141371,1,8,0:0:0:0:
476,52,141538,1,0,0:0:0:0:
396,216,141705,21,2,0:0:0:0:
404,232,141788,1,2,0:0:0:0:
412,248,141871,2,0,L|424:164,1,85,4|8,0:0|0:0,0:0:0:0:
348,368,142205,6,2,L|340:304,1,42.5,2|2,0:0|0:0,0:0:0:0:
292,280,142372,1,2,0:0:0:0:
284,296,142455,1,2,0:0:0:0:
276,312,142538,2,0,L|264:228,2,85,4|8|2,0:0|0:0|0:0,0:0:0:0:
216,348,142955,1,2,0:0:0:0:
208,364,143038,5,6,0:0:0:0:
136,376,143205,1,0,0:0:0:0:
64,384,143371,1,0,0:0:0:0:
68,128,143538,2,0,B|57:97|57:97|42:124|42:124|72:232,1,170,6|2,0:0|0:0,0:0:0:0:
116,280,143955,1,2,0:0:0:0:
132,272,144038,2,0,P|140:216|120:180,1,85,8|0,0:0|0:0,0:0:0:0:
208,284,144371,5,6,0:0:0:0:
280,296,144538,1,0,0:0:0:0:
372,376,144705,1,0,0:0:0:0:
480,212,144871,22,0,B|424:200|424:200|380:220|380:220|316:207,1,170,6|2,0:1|0:0,0:0:0:0:
264,156,145288,2,0,L|256:104,1,42.5,2|8,0:0|0:0,0:0:0:0:
280,296,145538,1,0,0:0:0:0:
152,240,145705,5,2,0:0:0:0:
153,247,145871,1,0,0:0:0:0:
154,255,146038,1,2,0:0:0:0:
155,263,146205,1,0,0:0:0:0:
360,144,146371,5,2,0:0:0:0:
358,136,146537,1,2,0:0:0:0:
357,128,146704,1,0,0:0:0:0:
356,120,146871,1,2,0:0:0:0:
200,56,147038,5,0,0:0:0:0:
196,48,147121,1,0,0:0:0:0:
192,40,147205,2,0,P|188:68|188:84,1,42.5,4|0,0:0|2:0,0:0:0:0:
332,80,147371,2,0,P|335:100|336:122,1,42.5,8|0,0:0|2:2,0:0:0:0:
176,212,147538,2,0,P|179:240|183:255,1,42.5,0|0,0:0|2:0,0:0:0:0:
340,236,147705,2,0,P|336:264|332:279,1,42.5,0|0,0:0|2:0,0:0:0:0:
252,360,147871,1,4,0:0:0:0:
252,360,148205,1,0,0:0:0:0:
256,192,148371,12,0,151038,0:0:0:0:
