osu file format v9

[General]
AudioFilename: Neurotoxin.mp3
AudioLeadIn: 0
PreviewTime: 105924
Countdown: 0
SampleSet: Soft
StackLeniency: 0.5
Mode: 0
LetterboxInBreaks: 0

[Editor]
DistanceSpacing: 1
BeatDivisor: 4
GridSize: 4

[Metadata]
Title:Neurotoxin
Artist:sakuzyo
Creator:Rein
Version:Another
Source:BMS
Tags:inaba-tan

[Difficulty]
HPDrainRate:7
CircleSize:6
OverallDifficulty:8
ApproachRate:9
SliderMultiplier:2.1
SliderTickRate:1

[Events]
//Background and Video events
0,0,"title.jpg"
Video,0,"BGA.avi"
//Break Periods
2,39624,41492
2,100959,104825
//Storyboard Layer 0 (Background)
//Storyboard Layer 1 (Fail)
//Storyboard Layer 2 (Pass)
//Storyboard Layer 3 (Foreground)
//Storyboard Sound Samples
//Background Colour Transformations
3,100,163,162,255

[TimingPoints]
6924,333.333333333333,4,2,0,70,1,0
7090,-100,4,2,0,70,0,1
7173,-100,4,2,0,70,0,0
7425,333.333333333333,4,2,0,90,1,0
7675,-100,4,1,0,90,0,0
7841,-100,4,2,0,90,0,0
8341,-100,4,1,0,90,0,0
8508,-100,4,2,0,90,0,0
8674,-100,4,1,0,90,0,0
8841,-100,4,2,0,90,0,0
9008,-100,4,1,0,90,0,0
9174,-100,4,2,0,90,0,0
9674,-100,4,1,0,90,0,0
9841,-100,4,2,0,90,0,0
10049,-100,4,1,0,90,0,0
10174,-100,4,2,0,90,0,0
10341,-100,4,1,0,90,0,0
10508,-100,4,2,0,90,0,0
11008,-100,4,1,0,90,0,0
11174,-100,4,2,0,90,0,0
11674,-100,4,1,0,90,0,0
11841,-100,4,2,0,90,0,0
12341,-100,4,1,0,90,0,0
12508,-100,4,2,0,90,0,0
12716,-100,4,1,0,90,0,0
12841,-100,4,2,0,90,0,0
13008,-100,4,1,0,90,0,0
13174,-100,4,2,0,90,0,0
13674,-100,4,1,0,90,0,0
13799,-100,4,2,0,90,0,0
14008,-100,4,1,0,90,0,0
14174,-100,4,2,0,90,0,0
14341,-100,4,1,0,90,0,0
14508,-100,4,2,0,90,0,0
15008,-100,4,1,0,90,0,0
15174,-100,4,2,0,90,0,0
15383,-100,4,1,0,90,0,0
15508,-100,4,2,0,90,0,0
15674,-100,4,1,0,90,0,0
15841,-100,4,2,0,90,0,0
16508,-100,4,1,0,90,0,0
16633,-100,4,2,0,90,0,0
16841,-100,4,1,0,90,0,0
16966,-100,4,2,0,90,0,0
17716,-100,4,1,0,90,0,0
17841,-100,4,2,0,90,0,0
18091,-100,4,2,0,100,0,1
18174,-100,4,2,0,70,0,0
28758,-100,4,2,0,100,0,1
28841,-100,4,2,0,70,0,0
42091,-100,4,2,0,90,0,0
42341,-100,4,1,0,70,0,0
42508,-100,4,2,0,90,0,0
43008,-100,4,1,0,70,0,0
43174,-100,4,2,0,90,0,0
43674,-100,4,1,0,70,0,0
43841,-100,4,2,0,90,0,0
44174,-100,4,1,0,70,0,0
44341,-100,4,2,0,90,0,0
44674,-100,4,1,0,70,0,0
45174,-100,4,2,0,90,0,0
45674,-100,4,1,0,70,0,0
45841,-100,4,2,0,90,0,0
46341,-100,4,1,0,70,0,0
46508,-100,4,2,0,90,0,0
46841,-100,4,1,0,70,0,0
47008,-100,4,2,0,90,0,0
47674,-100,4,1,0,70,0,0
47841,-100,4,2,0,90,0,0
48341,-100,4,1,0,70,0,0
48508,-100,4,2,0,90,0,0
49008,-100,4,1,0,70,0,0
49174,-100,4,2,0,90,0,0
49508,-100,4,1,0,70,0,0
49674,-100,4,2,0,90,0,0
50008,-100,4,1,0,70,0,0
50508,-100,4,2,0,90,0,0
51174,-100,4,1,0,70,0,0
51341,-100,4,2,0,70,0,0
51674,-100,4,1,0,60,0,0
51841,-100,4,2,0,70,0,0
52008,-100,4,2,0,90,0,0
52341,-100,4,1,0,80,0,0
52508,-100,4,2,0,90,0,0
53008,-100,4,1,0,70,0,0
53174,-100,4,2,0,90,0,0
53716,-100,4,1,0,70,0,0
53841,-100,4,2,0,90,0,0
54383,-100,4,1,0,70,0,0
54508,-100,4,2,0,90,0,0
55674,-100,4,1,0,70,0,0
55841,-100,4,2,0,90,0,0
56383,-100,4,1,0,70,0,0
56508,-100,4,2,0,90,0,0
57049,-100,4,1,0,70,0,0
57174,-100,4,2,0,90,0,0
58341,-100,4,1,0,70,0,0
58508,-100,4,2,0,90,0,0
59049,-100,4,1,0,70,0,0
59174,-100,4,2,0,90,0,0
59716,-100,4,1,0,70,0,0
59841,-100,4,2,0,90,0,0
60674,-100,4,2,0,90,0,0
60841,-100,4,1,0,90,0,0
61008,-100,4,1,0,92,0,0
61174,-100,4,2,0,92,0,0
61341,-100,4,2,0,94,0,0
61508,-100,4,1,0,94,0,0
61674,-100,4,1,0,96,0,0
61841,-100,4,2,0,96,0,0
62008,-100,4,2,0,98,0,0
62174,-100,4,1,0,98,0,0
62341,-100,4,1,0,100,0,0
62508,-100,4,1,0,100,0,0
62674,-100,4,1,0,100,0,0
63008,-100,4,1,0,100,0,1
63174,-100,4,1,0,90,0,0
63341,-100,4,1,0,90,0,0
63424,-100,4,1,0,100,0,1
63508,-100,4,2,0,90,0,0
64841,-100,4,1,0,90,0,0
65008,-100,4,2,0,90,0,0
65508,-100,4,1,0,90,0,0
65674,-100,4,2,0,90,0,0
67508,-100,4,1,0,90,0,0
67674,-100,4,2,0,90,0,0
68174,-100,4,1,0,90,0,0
68341,-100,4,2,0,90,0,0
69508,-100,4,1,0,90,0,0
69674,-100,4,2,0,90,0,0
71341,-100,4,1,0,90,0,0
71508,-100,4,2,0,90,0,0
74008,-100,4,1,0,90,0,0
74174,-100,4,2,0,90,0,0
75508,-100,4,1,0,90,0,0
75841,-100,4,2,0,90,0,0
77174,-100,4,1,0,90,0,0
77341,-100,4,2,0,90,0,0
78341,-100,4,1,0,90,0,0
78508,-100,4,2,0,90,0,0
84758,-100,4,2,0,70,0,0
105591,-100,4,2,0,70,0,1
105674,-100,4,2,0,70,0,0
106091,-100,4,2,0,100,0,1
126924,-100,4,2,0,100,0,0
127258,-100,4,2,0,25,0,1
127341,-100,4,2,0,5,0,0

[Colours]
Combo1 : 224,214,193
Combo2 : 92,85,99
Combo3 : 219,198,178
Combo4 : 63,56,84

[HitObjects]
256,192,6923,1,4
256,192,7091,1,4
52,248,7425,6,0,B|108:292|164:240,1,105,4|0
200,344,7758,1,0
292,292,7925,1,0
292,292,8009,1,0
292,292,8092,2,0,B|356:292,2,52.5,2|2|0
256,192,8425,2,0,B|200:148|144:200,1,105,0|0
260,112,8759,6,0,B|316:156|372:104,1,105
256,192,9092,1,0
160,148,9259,1,0
160,148,9341,1,0
160,148,9424,2,0,B|96:148,2,52.5,2|2|0
256,192,9759,1,0
352,148,9925,1,2
368,200,10009,1,2
336,244,10092,6,0,B|280:288|224:236,1,105
160,148,10425,2,0,B|216:104|272:156,1,105,0|0
336,244,10759,1,2
368,200,10842,1,2
416,184,10925,1,0
332,92,11092,1,0
256,192,11259,1,0
208,176,11342,1,0
176,132,11425,6,0,B|112:132,2,52.5,2|2|0
160,236,11759,1,0
256,192,11925,1,0
304,208,12008,1,0
336,252,12092,2,0,B|400:252,2,52.5,2|2|0
352,148,12425,1,0
336,252,12592,1,2
304,292,12674,1,2
336,332,12758,6,0,B|392:376|448:324,1,105
336,252,13092,2,0,B|280:208|224:260,1,105
200,280,13342,1,0
152,300,13425,2,0,B|88:300,2,52.5,2|2|0
276,332,13759,1,0
320,300,13842,1,2
336,252,13925,1,2
364,128,14092,6,0,B|420:172|476:120,1,105
360,208,14425,2,0,B|304:164|248:216,1,105
220,232,14675,1,0
200,280,14759,1,2
152,300,14842,1,2
100,292,14925,1,0
120,188,15092,1,0
184,104,15259,1,2
236,88,15341,1,2
280,120,15425,6,0,B|324:176|272:232,1,105
200,280,15759,2,0,B|156:336|208:392,1,105
284,288,16092,1,2
328,320,16175,1,2
380,304,16259,1,0
280,236,16424,1,2
148,212,16592,1,0
192,180,16675,1,2
244,196,16759,5,2
180,88,16925,1,0
136,60,17009,1,0
92,32,17092,2,0,B|28:32,2,52.5,2|2|0
104,184,17425,1,0
148,212,17509,1,0
192,240,17592,2,0,B|256:240,2,52.5,2|2|0
420,128,17924,1,0
420,128,18092,5,4
420,128,18592,1,0
192,240,18924,1,0
288,52,19091,1,0
92,128,19258,1,0
92,128,19592,5,0
152,148,19759,1,0
200,188,19925,1,0
252,72,20259,1,0
200,108,20424,1,0
152,148,20592,1,0
116,200,20759,5,2
116,200,21259,1,0
200,296,21592,1,0
304,224,21925,1,0
304,224,22092,5,2
116,200,22592,1,0
116,200,22759,1,0
200,296,23092,1,0
252,180,23425,5,2
312,156,23592,1,0
364,120,23759,1,0
404,72,23925,1,0
48,296,24258,1,2
48,296,24424,1,0
288,32,24759,5,2
296,96,24925,1,0
312,156,25092,1,0
348,208,25259,1,2
140,192,25591,1,2
140,192,25758,1,0
412,140,26092,5,0
356,108,26259,1,0
296,96,26425,1,0
232,100,26592,1,2
232,100,26924,1,0
232,100,27091,1,2
120,156,27425,6,0,B|176:200|232:148,1,105
316,240,27758,1,0
316,240,27925,2,0,B|260:196|204:248,1,105
120,156,28258,1,2
220,236,28425,1,0
92,256,28759,5,4
92,256,29259,1,0
312,196,29591,1,0
400,48,29758,1,0
420,256,29924,1,0
420,256,30259,5,0
360,236,30424,1,0
312,196,30592,1,0
260,312,30924,1,0
312,276,31091,1,0
360,236,31259,1,0
396,184,31424,5,2
396,184,31924,1,0
312,88,32259,1,0
208,160,32592,1,0
208,160,32759,5,2
396,184,33259,1,2
396,184,33424,1,0
312,88,33759,1,0
264,204,34092,5,2
208,236,34259,1,0
156,272,34424,1,0
112,316,34592,1,0
468,96,34924,1,2
468,96,35091,1,0
312,308,35425,5,2
256,276,35592,1,0
208,236,35759,1,0
172,184,35924,1,2
384,184,36258,1,0
384,184,36424,1,2
144,336,36759,5,0
200,304,36924,1,0
256,276,37092,1,0
320,264,37259,1,0
384,272,37425,1,2
256,276,37591,5,0
256,276,37759,2,0,B|187:257|194:181,1,105
322,197,38091,1,0
322,197,38259,2,0,B|390:215|383:291,1,105
304,340,38591,1,0
144,336,38759,5,2
98,343,38841,1,0
50,339,38924,1,0
18,303,39008,1,0
30,255,39092,1,0
74,235,39174,1,0
122,243,39258,1,0
170,243,39341,1,0
214,223,39424,1,4
328,212,42092,5,0
184,92,42425,1,0
272,128,42592,2,0,B|400:317,1,210,0|0
448,228,43092,1,0
380,160,43259,2,0,B|221:318,1,210,0|0
140,332,43759,1,0
60,280,43925,2,0,B|78:133|231:136,1,210
168,228,44425,2,0,B|392:228,1,210,2|0
456,56,45091,5,0
364,84,45259,2,0,B|247:116|220:255,1,210
304,284,45759,1,0
396,304,45925,2,0,B|359:187|237:145,1,210
168,132,46425,1,0
108,204,46592,2,0,B|315:288,1,210
264,196,47092,2,0,B|424:196,1,157.5,2|0
422,196,47425,5,4
256,100,47759,1,0
168,132,47925,2,0,B|164:236|296:315,1,210
180,316,48425,1,0
88,300,48592,2,0,B|155:208|285:194,1,210
344,248,49092,1,0
422,196,49259,2,0,B|377:77|240:64,1,210
308,152,49759,2,0,B|84:152,1,210,2|0
56,328,50424,5,0
56,328,50592,2,0,B|257:229,1,210
212,324,51092,2,0,B|324:324,1,105,2|0
424,260,51425,5,0
372,144,51592,1,0
252,188,51759,1,0
304,304,51924,1,0
148,220,52092,5,2
116,44,52259,1,2
276,32,52424,1,0
308,208,52592,1,2
308,208,52759,6,0,B|126:339,1,210
48,308,53259,2,0,B|229:176,1,210
232,176,53675,1,2
244,168,53759,1,0
240,72,53925,2,0,B|352:41|455:133,1,210
444,132,54342,1,2
448,148,54425,1,0
372,204,54592,2,0,B|268:268|148:204,1,210
172,120,55092,1,2
80,148,55259,1,2
80,148,55425,6,0,B|294:82,1,210
360,136,55925,2,0,B|145:201,1,210
144,204,56342,1,2
128,208,56424,1,0
88,296,56592,2,0,B|195:341|312:296,1,210
308,296,57009,1,2
320,284,57091,1,0
416,280,57259,2,0,B|421:143|278:103,1,210
272,200,57759,1,2
180,188,57925,1,2
180,188,58009,1,2
180,188,58092,6,0,B|175:325|318:365,1,210
308,264,58592,2,0,B|89:314,1,210
88,316,59009,1,2
72,320,59092,1,0
112,236,59259,2,0,B|330:185,1,210
332,184,59675,1,2
348,180,59759,1,0
440,200,59925,2,0,B|445:63|302:23,1,210
276,108,60425,1,6
100,36,60759,5,0
180,84,60925,1,0
80,140,61092,1,0
172,164,61259,1,0
96,252,61425,1,0
188,240,61592,1,0
136,344,61759,1,0
224,308,61925,1,0
340,308,62092,5,0
380,232,62259,1,0
276,188,62425,1,0
400,128,62592,1,0
264,48,62759,1,0
264,48,63092,1,12
140,192,63425,6,0,B|150:262|227:262,2,105,0|0|2
256,192,63924,1,2
264,200,64008,1,0
272,208,64091,1,0
372,192,64259,2,0,B|361:121|284:121,2,105,2|2|2
184,308,64758,1,0
184,308,64925,6,0,B|88:352,1,105
184,308,65259,1,2
208,260,65342,1,0
228,212,65425,1,2
228,212,65592,2,0,B|324:168,1,105
168,60,65924,1,0
168,60,66092,5,0
148,120,66258,1,0
108,168,66425,1,0
48,44,66591,1,0
48,44,66759,5,0
92,88,66924,1,0
148,120,67092,1,0
208,140,67258,1,2
308,64,67424,1,0
308,64,67592,5,0
252,92,67759,1,0
208,140,67925,1,0
176,196,68092,1,0
156,256,68259,2,0,B|100:300|44:248,2,105,0|2|2
208,140,68759,6,0,B|264:96|320:148,1,105
416,196,69092,2,0,B|360:240|304:188,1,105
208,140,69424,1,0
208,140,69591,6,0,B|152:96|96:148,2,105,0|2|2
156,256,70092,2,0,B|212:300|268:248,1,105
348,340,70425,2,0,B|292:296|236:348,1,105
156,256,70758,1,0
156,256,70925,5,0
212,288,71092,1,2
252,336,71258,1,2
252,336,71425,5,0
356,264,71591,5,0
356,264,71759,5,0
388,208,71924,1,0
436,168,72091,1,2
436,168,72258,5,0
356,264,72425,1,0
308,304,72592,1,2
252,336,72759,1,2
132,300,72925,1,0
160,176,73092,1,0
280,212,73258,1,2
280,212,73592,5,0
312,156,73759,1,0
360,116,73924,1,0
360,116,74091,1,0
360,116,74259,6,0,B|456:72,1,105,0|2
360,116,74592,1,2
336,164,74674,1,2
316,212,74759,1,0
316,212,74924,2,0,B|220:256,1,105,2|2
220,255,75258,1,2
220,255,75424,1,0
220,256,75592,5,0
268,280,75675,1,0
316,300,75758,1,0
316,300,75925,1,0
316,300,76092,6,0,B|412:256,1,105
316,212,76425,2,0,B|260:212,1,52.5,0|8
172,160,76675,2,0,B|228:160,1,52.5,0|8
284,140,76925,5,0
340,112,77092,1,0
380,64,77259,1,0
380,64,77424,1,0
380,64,77592,6,0,B|488:64,2,105,0|2|2
380,64,78091,1,0
380,64,78259,1,0
380,64,78425,6,0,B|309:53|287:126,1,105
168,108,78759,2,0,B|194:174|268:157,1,105
312,268,79092,2,0,B|356:212|304:156,1,105
316,172,79425,5,4
204,228,79592,2,0,B|120:228,2,52.5,0|2|2
168,108,79925,1,0
48,152,80092,1,2
48,152,80175,2,0,B|132:152,1,52.5,0|8
204,228,80425,2,0,B|120:228,1,52.5,0|8
340,228,80758,5,4
408,336,80924,2,0,B|492:336,2,52.5,0|2|2
340,228,81259,1,0
272,336,81424,1,2
272,336,81509,2,0,B|188:336,1,52.5,0|8
100,288,81759,2,0,B|184:288,1,52.5,0|8
340,288,82091,5,4
240,252,82258,1,0
208,252,82342,1,2
176,252,82425,1,2
224,160,82592,1,2
256,160,82675,1,2
288,160,82758,2,0,B|368:168|336:240,1,105
188,344,83092,1,0
160,344,83175,1,8
132,344,83259,1,8
104,344,83342,1,8
80,336,83425,5,8
60,320,83509,1,0
48,296,83592,1,0
48,268,83675,1,0
56,244,83759,1,0
72,224,83842,1,8
92,208,83925,1,0
116,196,84009,1,0
140,188,84092,1,0
164,184,84175,1,8
188,180,84258,1,0
216,176,84342,1,0
240,172,84425,1,0
264,164,84509,1,8
284,148,84592,1,0
300,128,84675,1,0
316,108,84759,6,0,B|360:60|360:60|400:60|400:60|428:100|428:100|468:100|468:100|496:56,1,210,0|0
420,176,85258,1,0
420,176,85424,1,2
420,176,85592,2,0,B|376:224|376:224|336:224|336:224|308:184|308:184|268:184|268:184|240:228,1,210,0|2
260,196,87425,6,0,B|220:224|220:224|176:224|176:224|144:256|144:256|160:296|160:296|200:296,1,210
292,280,87924,1,0
292,280,88092,1,2
292,280,88259,2,0,B|303:306|303:306|346:305|346:305|363:263|363:263|346:223|346:223|356:175,1,210
356,176,89425,5,0
336,72,89759,2,0,B|256:72|256:72|232:100|232:100|256:132|256:132|256:172|256:172|256:192,1,210,2|0
192,268,90424,1,2
192,268,90592,2,0,B|259:311|259:311|294:301|294:301|291:261|291:261|313:227|313:227|324:210,1,210,0|2
320,216,91259,1,2
320,216,92092,5,0
320,216,92425,1,0
320,216,92759,1,0
192,168,93259,1,0
192,168,93592,1,0
192,168,93925,1,2
192,168,94592,5,0
192,168,94925,1,0
252,188,95092,1,0
300,232,95259,1,0
332,288,95425,5,2
332,288,95759,1,0
332,288,95925,2,0,B|236:340|168:300|132:224,1,210
147,251,96592,1,0
132,211,97259,5,2
144,182,97759,1,2
144,182,98092,1,2
219,255,98425,1,0
219,255,98592,2,0,B|262:185|262:185|297:272|370:260,1,210
353,261,99259,1,2
386,235,99925,1,2
380,204,100425,1,2
380,204,100592,1,0
380,204,100759,5,4
256,192,105425,5,4
256,192,105592,1,4
256,192,106092,5,0
256,192,106424,1,6
192,276,106592,1,2
164,276,106675,1,0
136,276,106759,1,0
108,276,106842,1,0
80,276,106925,1,0
136,164,107092,2,0,B|192:120|248:172,1,105
348,216,107425,6,0,B|292:260|236:208,1,105
136,164,107759,1,2
236,88,107925,1,2
264,88,108008,1,0
292,88,108092,1,0
320,88,108175,1,0
348,88,108258,1,0
348,216,108425,1,0
220,220,108592,1,2
220,220,108675,1,2
220,220,108759,6,0,B|176:164|228:108,1,105
140,224,109092,2,0,B|184:280|132:336,1,105
220,220,109425,1,2
268,196,109509,1,2
316,172,109592,1,0
284,272,109759,1,2
316,172,109925,1,2
344,172,110008,1,0
372,172,110092,1,0
400,172,110175,1,0
428,172,110258,1,0
356,96,110425,5,2
328,96,110508,1,0
300,96,110592,1,0
272,96,110675,1,0
244,96,110758,1,0
172,172,110925,2,0,B|60:172,1,105
172,172,111259,1,2
208,212,111342,1,2
240,252,111425,1,0
240,252,111592,6,0,B|352:252,1,105
292,160,111925,1,0
292,160,112009,1,0
292,160,112092,2,0,B|368:160,2,52.5,2|2|0
240,252,112425,1,0
208,292,112509,1,0
172,332,112592,1,0
72,252,112759,6,0,B|116:308|64:364,1,105
148,244,113092,2,0,B|104:188|156:132,1,105
168,112,113342,1,0
204,92,113425,1,2
248,92,113509,1,2
284,112,113592,2,0,B|340:156|396:104,1,105
312,196,113925,1,0
352,228,114009,1,0
392,264,114092,1,0
312,196,114259,6,0,B|256:152|200:204,1,105
256,288,114592,2,0,B|200:332|144:280,1,105
80,224,114925,1,0
172,172,115092,1,2
80,120,115259,1,0
176,80,115425,5,2
176,80,115509,1,2
176,80,115592,1,0
272,120,115759,2,0,B|328:76|384:128,1,105
368,115,116092,1,0
368,115,116425,1,2
328,320,116759,6,0,B|384:364|440:312,1,105,6|0
392,224,117092,2,0,B|336:180|280:232,1,105
260,244,117342,1,0
224,264,117425,1,2
188,284,117509,1,2
152,304,117592,2,0,B|96:348|40:296,2,105
152,200,118092,5,0
152,200,118259,1,0
152,96,118425,2,0,B|208:52|264:104,1,105
288,124,118675,1,0
336,144,118758,2,0,B|400:144,2,52.5,2|2|0
288,240,119092,1,2
192,200,119259,2,0,B|128:200,2,52.5,2|2|0
256,116,119592,6,0,B|312:72|368:124,1,105
432,212,119925,2,0,B|376:256|320:204,1,105,0|0
256,116,120259,1,2
232,164,120342,1,2
192,200,120425,1,0
344,160,120592,1,0
392,176,120675,1,0
432,212,120758,6,0,B|496:212,2,52.5,2|2|0
316,264,121092,1,0
220,304,121258,1,0
172,288,121341,1,0
140,244,121424,2,0,B|76:244,2,52.5,2|2|0
112,348,121758,1,0
88,244,121925,1,2
56,204,122009,1,2
88,164,122092,6,0,B|144:120|200:172,1,105
236,228,122425,2,0,B|292:272|348:220,1,105
436,244,122758,1,0
480,148,122925,5,0
452,116,123008,1,0
416,96,123092,2,0,B|360:52|304:104,1,105,0|0
312,100,123425,5,2
308,108,123592,1,0
304,116,123759,1,0
300,124,123925,1,0
216,256,124091,1,0
152,108,124259,5,0
160,148,124342,1,0
192,176,124424,2,0,B|248:220|304:168,1,105
296,172,124759,5,2
304,164,124925,1,0
312,156,125091,1,0
460,304,125258,1,0
432,96,125425,6,0,B|476:152|424:208,1,105
372,248,125758,2,0,B|328:192|380:136,1,105
336,72,126092,5,0
300,52,126175,1,0
256,56,126259,2,0,B|192:88|215:160,1,105
216,152,126592,1,0
220,160,126759,1,0
224,168,126925,1,2
228,176,127258,5,6
