osu file format v9

[General]
AudioFilename: Neurotoxin_fin.mp3
AudioLeadIn: 0
PreviewTime: 62879
Countdown: 0
SampleSet: Soft
StackLeniency: 0.7
Mode: 0
LetterboxInBreaks: 1

[Editor]
Bookmarks: 6629,17879,39713,62879,84629,95379,104383
DistanceSpacing: 0.8
BeatDivisor: 4
GridSize: 4

[Metadata]
Title:Neurotoxin
Artist:sakuzyo
Creator:Maddy
Version:Standard
Source:BMS
Tags:BoF Battle of Fighters 2011 sekizoukun sekizou kun DnB -kevincela- NeoRainier

[Difficulty]
HPDrainRate:3
CircleSize:3
OverallDifficulty:3
ApproachRate:6
SliderMultiplier:1.4
SliderTickRate:2

[Events]
//Background and Video events
0,0,"neurotoxin.jpg"
Video,0,"BGA.avi"
//Break Periods
2,39661,41079
2,100995,104412
//Storyboard Layer 0 (Background)
//Storyboard Layer 1 (Fail)
//Storyboard Layer 2 (Pass)
//Storyboard Layer 3 (Foreground)
//Storyboard Sound Samples
//Background Colour Transformations
3,100,158,158,158

[TimingPoints]
796,333.333333333333,4,2,0,75,1,0
41796,-100,4,1,0,75,0,0
63462,-100,4,2,0,75,0,1
84795,-100,4,2,0,75,0,0
106461,-100,4,2,0,75,0,1
127462,-100,4,2,0,75,0,0

[Colours]
Combo1 : 190,139,139
Combo2 : 120,141,190
Combo3 : 176,154,203
Combo4 : 126,165,154

[HitObjects]
336,252,7462,2,8,B|368:180|336:108,2,140,8|8|2
184,328,8629,2,8,B|152:256|184:184,1,140
180,191,9129,1,8
248,100,9462,2,0,B|180:60|104:104,1,140,2|8
52,192,10129,6,0,B|56:272|136:312,1,140,2|8
216,224,10795,2,0,B|280:184,2,70,2|2|8
236,336,11462,2,0,B|380:336,1,140,2|8
420,172,12296,1,2
420,116,12462,6,8,B|368:52|280:72,1,140
212,144,13129,1,8
340,252,13629,1,2
312,300,13796,2,0,B|252:348|172:332,2,140,6|8|10
340,192,14796,2,0,B|412:192,2,70,0|0|8
228,196,15462,6,0,B|148:192|120:108,1,140,8|8
288,92,16296,1,0
344,92,16462,2,0,B|416:104|452:180,2,140,0|0|0
336,204,17462,1,0
232,248,17796,1,8
212,138,18129,6,2,B|156:131|109:173|94:239|124:284,1,210,6|2
312,96,19629,2,2,B|376:68,2,70
296,208,20295,2,2,B|228:240,2,70
100,312,21295,2,0,B|40:264|56:184,2,140,2|0|2
212,328,22295,2,0,B|280:300,1,70,0|8
388,308,22795,2,2,B|384:224|312:200,1,140
384,116,23462,6,2,B|452:116,2,70
384,116,23962,1,2
140,256,24795,2,2,B|68:256,2,70
140,256,25295,1,2
416,312,26129,5,4
312,276,26462,2,0,B|268:212|308:144,1,140,8|8
416,112,27129,2,0,B|416:188,1,70,0|8
328,112,27629,2,0,B|328:44,1,70,0|8
224,84,28129,6,2,B|232:248|88:312,1,280
96,140,29295,1,2
400,284,30295,2,2,B|436:212,2,70
368,128,30962,2,2,B|332:196,2,70
256,320,31962,5,2
204,220,32295,1,2
256,120,32629,2,0,B|332:128|384:56,1,140,2|0
377,64,33129,1,8
440,160,33462,2,2,B|372:204|360:280,1,140,2|10
256,304,34129,6,2,B|256:228,2,70
256,304,34629,1,2
256,80,35462,2,2,B|256:156,2,70
256,80,35962,1,2
84,300,36795,6,2,B|56:232|84:156,1,140,6|8
144,72,37462,1,8
196,172,37795,2,0,B|240:224,1,70
264,84,38462,1,0
372,52,38795,6,2,B|440:200|328:312,1,280
176,88,42129,6,0,B|112:132|116:212,1,140,4|0
115,207,42629,1,4
176,300,42962,2,0,B|240:260|236:172,1,140,2|0
292,84,43629,6,0,B|356:124|348:212,1,140,2|0
436,280,44296,1,2
436,280,44462,2,0,B|380:324|304:320,1,140,2|0
200,276,45129,6,0,B|200:200,1,70
268,116,45629,2,0,B|200:80|128:116,1,140,2|0
64,200,46296,2,0,B|132:236|204:200,1,140,2|0
312,204,46962,2,0,B|312:276,1,70,2|2
420,240,47462,6,0,B|436:208|420:168|404:128|420:96,1,140,4|0
417,102,47962,1,0
304,108,48296,2,0,B|236:128|236:128|168:108,1,140,2|0
72,160,48962,2,0,B|216:204,1,140,2|0
260,300,49629,2,0,B|184:276,1,70,2|2
292,224,50129,6,0,B|360:248|436:224,1,140,4|0
429,225,50629,1,0
364,136,50962,2,0,B|296:112|220:136,1,140,2|0
188,172,51462,6,0,B|136:216,3,70
132,272,52129,2,0,B|200:296|276:272,1,140
380,288,52796,6,0,B|444:244|440:164,1,140,4|0
440,168,53296,1,4
380,76,53629,2,0,B|316:116|320:204,1,140,2|0
264,292,54296,6,0,B|200:252|204:164,1,140,2|0
120,96,54962,1,2
120,96,55129,2,0,B|176:52|252:56,1,140,2|0
356,100,55796,6,0,B|356:176,1,70
288,260,56296,2,0,B|356:296|428:260,1,140,2|0
492,172,56962,2,0,B|424:136|352:172,1,140,2|0
244,172,57629,2,0,B|244:100,1,70,2|2
136,136,58129,6,0,B|120:168|136:208|152:248|136:280,1,140,4|0
139,274,58629,1,0
252,268,58962,2,0,B|320:248|320:248|388:268,1,140,2|0
484,216,59629,2,0,B|340:172,1,140,2|0
296,76,60296,2,0,B|372:100,1,70,2|0
268,160,60796,6,0,B|208:204,3,70
156,200,61462,2,0,B|128:132|156:56,2,140
200,304,62462,1,0
312,304,62796,1,0
356,200,63129,1,0
332,92,63462,6,0,B|256:112|244:200,1,140,4|0
128,72,64296,2,2,B|100:136,1,70
99,136,64629,1,2
208,264,65129,2,2,B|260:316,2,70
220,152,65796,1,0
316,212,66129,6,0,B|384:232,2,70,2|0|2
172,300,66962,2,0,B|104:324,2,70,2|0|2
284,172,68129,2,0,B|360:172|408:116,1,140,4|0
268,68,68796,6,0,B|192:68|144:124,1,140,4|0
144,123,69296,1,2
216,208,69629,2,0,B|292:208|340:152,1,140,8|0
396,156,70129,6,0,B|468:156,2,70
396,156,70629,1,0
468,268,70962,2,0,B|396:268,1,70,0|8
284,268,71462,2,0,B|208:268|160:324,1,140,8|0
112,224,72129,2,0,B|159:168|235:168,1,140,8|0
348,180,72796,2,0,B|408:148,2,70
348,180,73295,1,0
328,72,73629,2,0,B|256:108,2,70,2|0|2
380,52,74129,6,0,B|439:95|452:172,1,140,12|8
348,300,74962,2,0,B|348:232,2,70,2|0|2
256,96,75962,1,2
248,152,76129,2,2,B|236:196|208:220,2,70
360,156,76796,6,0,B|320:216|288:292,1,140,4|0
128,292,77629,2,0,B|72:252,2,70,2|0|2
352,264,78629,2,0,B|416:240,2,70,2|0|2
352,264,79129,6,0,B|284:288|284:288|212:264,1,140,8|0
140,188,79795,2,0,B|208:164|208:164|280:188,1,140,8|0
380,152,80462,1,2
412,44,80795,6,0,B|332:24|288:88,1,140,8|0
176,88,81462,2,0,B|108:120|36:88,2,140,0|8|4
236,184,82462,2,0,B|360:252,1,140,8|0
352,364,83129,2,0,B|228:296,1,140,8|0
132,240,83795,1,0
88,344,84129,1,0
16,260,84462,1,0
60,156,84795,6,4,B|76:80|148:52,1,140
144,52,85295,1,2
228,124,85629,1,0
332,88,85962,2,0,B|384:144|364:228,1,140,2|0
200,208,86795,5,0
236,316,87129,1,0
124,328,87462,2,0,B|52:296|48:216,1,140,2|0
48,219,87962,1,2
152,180,88295,1,0
68,104,88629,2,0,B|128:52|204:80,1,140,2|0
364,92,89462,5,0
440,176,89795,1,0
364,256,90129,2,0,B|324:188|248:192,1,140,2|0
248,191,90629,1,2
264,304,90962,2,0,B|332:180,1,140,2|0
72,76,92129,5,0
120,176,92462,1,0
224,136,92795,2,0,B|252:204|220:272,1,140,2|0
220,271,93295,1,0
324,316,93629,2,0,B|400:312|448:252,1,140,2|0
356,188,94295,1,0
448,124,94629,1,0
344,84,94962,6,0,B|288:40,2,70,2|0|2
300,120,95462,2,0,B|236:168|252:248,1,140,4|0
251,242,95962,1,2
316,332,96295,1,0
412,272,96629,2,0,B|464:216|440:140,1,140,2|0
52,192,98129,6,0,B|192:192,1,140,4|0
192,192,98629,1,0
256,100,98962,1,0
320,192,99295,2,0,B|256:236|256:312,1,140,2|0
364,284,99962,6,0,B|428:240|428:164,1,140,2|0
428,108,100462,2,0,B|388:100|372:64,2,70,8|0|8
256,192,105462,6,4,B|256:264,1,70
256,92,106129,1,0
352,148,106462,5,8
352,148,106629,2,0,B|388:216|352:288,2,140,8|0|8
440,80,107629,1,0
464,132,107795,2,2,B|492:196,1,70
496,308,108295,6,0,B|444:260,1,70,0|8
444,260,108629,2,2,B|344:300|232:260,1,210
239,262,109295,1,2
152,192,109629,1,0
260,156,109962,2,0,B|332:152|384:100,1,140,2|0
384,99,110462,1,8
456,188,110795,2,2,B|384:196|336:268,1,140
256,332,111462,6,0,B|196:288,2,70,2|0|2
256,332,111962,1,2
256,52,112795,2,0,B|316:96,2,70,2|0|2
256,52,113295,1,2
72,260,114129,6,8,B|40:192|72:124,1,140
160,192,114795,2,8,B|228:192,3,70
344,192,115629,2,0,B|300:256,1,70,0|8
384,328,116129,2,2,B|460:204,1,140
412,108,116795,6,0,B|356:56|280:76,1,140,4|0
282,75,117295,2,2,B|264:240|104:292,1,280
64,192,118295,2,2,B|12:140,2,70
160,132,118962,5,2
160,132,119129,2,2,B|104:80,1,70
276,104,119795,2,2,B|332:148,1,70,8|8
256,232,120295,1,2
188,324,120629,6,2,B|256:356|324:324,1,140
323,324,121129,1,8
380,228,121462,2,2,B|416:164|380:88,1,140
292,156,122129,6,0,B|224:156,2,70,2|0|2
292,156,122629,1,10
56,304,123462,2,0,B|124:304,2,70,2|0|2
56,304,123962,1,10
336,308,124795,6,8,B|300:240|220:240,1,140,8|8
116,272,125462,1,4
140,164,125795,2,0,B|140:92,1,70,0|8
240,44,126295,2,0,B|240:112,1,70,0|8
340,168,126795,2,8,B|340:96,1,70
436,40,127295,5,4
