osu file format v9

[General]
AudioFilename: Neurotoxin_fin.mp3
AudioLeadIn: 0
PreviewTime: 62879
Countdown: 0
SampleSet: Soft
StackLeniency: 0.7
Mode: 0
LetterboxInBreaks: 1

[Editor]
Bookmarks: 6629,17879,39713,62879,84629,95379,104383
DistanceSpacing: 0
BeatDivisor: 4
GridSize: 4

[Metadata]
Title:Neurotoxin
Artist:sakuzyo
Creator:Maddy
Version:Hyper
Source:BMS
Tags:BoF Battle of Fighters 2011 sekizoukun sekizou kun DnB -kevincela- NeoRainier

[Difficulty]
HPDrainRate:5
CircleSize:4
OverallDifficulty:5
ApproachRate:8
SliderMultiplier:1.84
SliderTickRate:2

[Events]
//Background and Video events
0,0,"neurotoxin.jpg"
Video,0,"BGA.avi"
//Break Periods
2,100995,104712
//Storyboard Layer 0 (Background)
//Storyboard Layer 1 (Fail)
//Storyboard Layer 2 (Pass)
//Storyboard Layer 3 (Foreground)
//Storyboard Sound Samples
//Background Colour Transformations
3,100,158,158,158

[TimingPoints]
796,333.333333333333,4,2,0,75,1,0
42462,-100,4,1,0,75,0,0
51462,-100,4,1,0,20,0,0
51629,-100,4,1,0,30,0,0
51796,-100,4,1,0,40,0,0
51962,-100,4,1,0,50,0,0
52129,-100,4,1,0,60,0,0
52296,-100,4,1,0,70,0,0
52462,-100,4,1,0,80,0,0
52629,-100,4,1,0,90,0,0
52796,-100,4,1,0,75,0,0
60796,-100,4,2,0,75,0,0
63462,-100,4,2,0,75,0,1
66129,-100,4,2,0,50,0,1
67795,-100,4,2,0,75,0,1
70129,-100,4,2,0,50,0,1
70629,-100,4,2,0,75,0,1
84795,-100,4,2,0,75,0,0
106462,-100,4,2,0,50,0,1
106629,-100,4,2,0,75,0,1
119295,-100,4,2,0,100,0,1
119379,-100,4,2,0,75,0,1
127129,-100,4,2,0,75,0,1
127295,-100,4,2,0,75,0,1
127462,-100,4,2,0,75,0,0

[Colours]
Combo1 : 190,139,139
Combo2 : 120,141,190
Combo3 : 176,154,203
Combo4 : 126,165,154

[HitObjects]
200,224,7462,2,0,B|196:168|232:132,1,92,8|0
296,76,7795,1,0
344,152,7962,1,0
420,100,8129,2,0,B|436:56,2,46
452,188,8462,2,0,B|424:276,1,92,8|0
256,344,8962,5,0
324,280,9129,1,0
248,228,9295,1,0
168,180,9462,2,0,B|128:152,2,46
248,228,9795,2,0,B|276:180|324:164,1,92,8|0
252,100,10129,6,0,B|172:48,1,92,4|0
112,116,10462,2,0,B|72:88,2,46
180,176,10795,2,0,B|164:224|124:248,1,92,4|0
44,296,11129,1,8
20,208,11296,1,0
176,304,11629,5,0
264,324,11796,1,8
348,288,11962,1,0
392,208,12129,2,0,B|432:188,2,46
300,216,12462,2,0,B|280:168|304:120,1,92,4|0
392,112,12796,5,0
332,44,12962,1,0
240,56,13129,2,0,B|192:56,2,46
300,128,13462,2,0,B|284:172|236:192,1,92,4|0
144,200,13796,1,0
88,128,13962,1,8
168,292,14296,5,0
248,336,14462,1,8
324,284,14629,2,0,B|356:316,2,46
248,232,14962,1,0
248,140,15129,2,0,B|248:40,1,92,8|0
328,96,15462,6,0,B|372:120|424:116,1,92,4|0
168,96,15796,2,0,B|124:120|72:116,1,92,4|0
40,200,16129,1,0
96,272,16296,1,0
136,188,16462,1,0
79,116,16629,1,8
256,180,16962,5,0
336,132,17129,2,0,B|376:160,2,46
252,92,17462,2,0,B|208:72|160:92,2,92,0|0|8
340,252,18129,6,0,B|280:328|172:328,1,184,4|0
179,327,18629,1,2
72,180,18962,1,0
152,224,19129,1,0
204,148,19295,2,0,B|224:104|272:80,1,92,4|0
356,64,19629,5,2
392,148,19795,1,2
344,224,19962,1,2
396,300,20129,2,0,B|432:340|472:352,2,92,0|0|8
468,240,20629,1,0
432,156,20795,2,0,B|376:72|264:72,1,184
184,108,21295,5,2
304,248,21629,1,2
120,272,21962,1,2
292,336,22295,1,0
384,332,22462,1,8
432,252,22629,1,0
400,164,22795,2,2,B|300:168|228:252,1,184,6|2
96,128,23462,5,2
160,64,23629,1,2
252,48,23795,1,2
340,76,23962,1,2
396,160,24795,5,2
304,172,24962,1,2
216,136,25129,1,2
160,64,25295,1,2
84,228,26129,6,0,B|88:280|136:312,1,92,4|0
220,312,26462,2,0,B|216:260|168:228,1,92,8|0
136,152,26795,6,0,B|140:100|188:68,1,92,12|0
272,68,27129,2,0,B|268:120|220:152,1,92,8|8
324,304,27629,1,0
396,248,27795,1,0
408,156,27962,1,0
360,76,28129,2,2,B|300:108|320:160|336:208|284:240,1,184
136,136,28795,5,0
188,212,28962,1,0
124,280,29129,1,0
188,212,29295,2,0,B|244:216|268:176|268:176|240:132|272:88,2,184
256,328,30295,5,2
348,336,30462,1,2
308,252,30629,1,0
400,260,30795,2,0,B|444:244|468:196,1,92,0|0
428,112,31129,2,0,B|380:128|360:172,1,92,2|0
108,292,31795,5,0
80,204,31962,1,2
232,100,32295,1,2
384,200,32629,2,2,B|340:288|232:308,1,184
241,306,33129,1,8
312,136,33462,2,0,B|368:56,1,92,4|0
312,136,33795,1,0
256,208,33962,1,0
164,196,34129,6,0,B|112:192|84:144,1,92,8|0
84,60,34462,2,0,B|136:64|164:112,1,92,4|8
427,323,35462,6,0,B|376:320|352:278,1,92,4|0
348,188,35795,2,0,B|400:192|423:233,1,92,0|8
112,320,36795,6,0,B|204:288,1,92,4|0
198,289,37129,1,8
344,180,37462,2,0,B|300:268,1,92,8|0
302,262,37795,1,0
232,204,37962,6,0,B|200:112,3,92,8|0|0|8
148,40,38629,1,0
56,40,38795,2,2,B|16:128|40:224,1,184,10|2
188,324,39462,1,4
256,192,39546,12,8,42129
256,192,42462,5,0
192,128,42629,2,0,B|146:136|113:188|136:248|191:257,1,184,0|2
256,192,43129,1,0
320,128,43296,2,0,B|365:136|398:188|375:248|320:257,1,184,0|2
256,192,43796,1,0
191,257,43962,6,0,B|136:248|113:188|146:136|192:128,1,184,0|2
320,257,44462,2,8,B|375:248|398:188|365:136|320:128,1,184
256,60,44962,1,0
168,32,45129,1,0
84,68,45296,6,0,B|20:144|36:248,1,184,0|2
76,320,45796,1,0
164,340,45962,2,0,B|228:264|212:160,1,184,0|2
172,84,46462,1,0
116,156,46629,6,0,B|164:240|260:264,1,184,0|0
336,216,47129,2,10,B|377:236|395:295|356:346|301:340,1,184,10|8
216,296,47629,1,0
308,276,47796,1,0
228,228,47962,6,0,B|128:216|72:112,1,184,0|2
120,44,48462,1,0
212,32,48629,2,0,B|312:44|368:148,1,184,4|2
380,220,49129,1,0
300,268,49296,6,0,B|164:136,1,184,0|2
76,152,49796,2,2,B|208:288,1,184,2|8
268,352,50296,1,0
360,340,50462,1,0
300,268,50629,6,0,B|284:164|352:96,1,184,0|2
428,48,51129,1,0
244,48,51462,5,2
156,68,51629,1,2
224,132,51796,1,2
144,176,51962,1,2
208,240,52129,1,2
160,320,52296,1,2
236,372,52462,5,2
284,292,52629,1,2
360,344,52796,2,0,B|421:264|406:158,1,184,0|0
364,88,53296,1,0
188,136,53629,1,2
112,84,53796,1,0
96,172,53962,1,0
192,316,54296,5,2
260,256,54462,1,0
176,224,54629,1,0
360,212,54962,1,2
288,96,55129,1,0
428,96,55296,1,0
468,180,55462,6,0,B|484:280|404:352,1,184
410,346,55962,1,0
256,244,56296,1,2
256,152,56462,1,0
208,76,56629,1,0
340,204,56962,5,2
340,112,57129,1,0
416,64,57296,1,0
456,244,57629,1,0
404,320,57796,2,2,B|364:344|316:340,1,92
314,340,58129,1,0
136,296,58462,6,0,B|172:264|228:264,1,92
400,220,58962,2,0,B|364:188|308:188,2,92,2|0|0
140,128,59629,2,0,B|176:96|232:96,2,92,2|0|0
256,272,60296,1,2
336,228,60462,1,0
372,312,60629,1,0
440,248,60796,6,2,B|456:148,1,92
388,92,61129,2,2,B|372:184,1,92
288,216,61462,2,2,B|304:116,1,92
236,60,61796,2,2,B|220:152,1,92
220,150,62129,5,2
172,228,62296,1,2
108,160,62462,2,2,B|40:88,1,92
136,72,62796,2,2,B|204:144,1,92,6|2
199,138,63129,1,0
328,268,63462,5,2
328,268,63546,1,0
328,268,63629,1,2
404,216,63796,1,4
152,328,64296,5,8
88,260,64462,1,0
132,180,64629,2,8,B|224:148|268:48,1,184,2|0
80,88,65296,1,2
80,88,65379,1,2
80,88,65462,2,2,B|180:72|248:144,1,184,2|4
376,308,66129,5,8
424,228,66296,1,0
332,228,66462,1,10
60,176,66962,1,8
140,132,67129,1,0
176,48,67296,1,10
428,316,67962,5,0
336,328,68129,1,0
264,268,68296,1,0
300,184,68462,6,0,B|348:180|380:140,2,92,4|0|0
208,192,68962,1,0
160,272,69129,1,8
68,276,69296,2,2,B|40:176|104:104,1,184
103,104,69796,1,4
244,120,69962,1,0
380,72,70129,5,0
416,156,70296,1,0
348,216,70462,1,8
308,132,70629,2,0,B|212:116|136:184,1,184,2|0
137,182,71129,1,8
280,296,71462,6,0,B|236:320|184:324,1,92,4|0
192,323,71796,1,0
60,296,71962,1,0
137,182,72129,1,4
472,32,72796,6,0,B|448:72|444:120,1,92,2|0
476,204,73129,1,0
420,276,73296,2,2,B|336:232|320:116,1,184
321,128,73796,1,0
244,80,73962,1,0
232,172,74129,6,0,B|224:220|192:260,1,92,8|0
196,256,74462,1,4
196,256,74962,1,0
108,276,75129,1,0
92,184,75296,2,2,B|144:108|144:108|232:76,1,184,4|0
230,76,75712,1,8
230,76,75796,1,8
292,148,75962,5,0
372,100,76129,2,0,B|448:164,2,92
372,100,76546,1,8
372,100,76629,2,0,B|372:52,2,46,8|0|8
372,192,76962,5,0
288,232,77129,2,2,B|192:252|108:176,1,184
184,120,77629,1,0
112,64,77796,1,0
60,140,77962,2,0,B|48:244|128:316,1,184
304,296,78629,5,0
232,240,78795,1,0
284,164,78962,1,0
208,108,79129,1,0
272,44,79295,1,0
348,96,79462,6,0,B|400:92|436:64,1,92,4|0
433,65,79795,1,0
460,152,79962,2,2,B|388:216|392:328,1,184
300,332,80462,2,8,B|276:292,1,46
304,156,80795,5,0
232,100,80962,1,0
148,140,81129,1,0
220,196,81295,2,2,B|152:264|40:260,1,184
52,168,81795,2,8,B|24:128,1,46
140,56,82129,6,0,B|232:32,1,92,4|0
229,32,82462,1,8
320,56,82629,2,0,B|372:64|408:108,1,92
472,156,82962,1,0
384,184,83129,2,0,B|352:232,3,46,8|0|8|0
356,176,83462,6,2,B|304:168|268:136,1,92
272,139,83795,1,0
188,104,83962,1,0
124,172,84129,1,0
168,252,84295,1,0
260,240,84462,1,0
204,180,84629,1,0
204,180,84795,6,2,B|108:168|56:64,1,184
61,75,85295,1,0
256,72,85629,1,0
450,75,85962,2,0,B|404:168|308:180,1,184,2|0
256,344,86795,1,0
256,308,87129,1,0
256,272,87462,6,0,B|280:224|256:180|236:144|256:88,1,184,2|0
254,91,87962,1,0
164,252,88295,1,0
348,252,88629,1,2
52,56,89462,1,0
76,84,89795,1,0
100,112,90129,6,2,B|164:188|136:288,1,184
136,284,90629,1,0
256,144,90962,1,0
375,284,91295,2,0,B|348:188|412:112,1,184
192,280,92129,1,0
192,280,92462,1,0
192,280,92795,6,0,B|220:192|220:192|192:96,1,184,2|0
194,104,93295,1,2
88,256,93629,1,0
96,72,93962,2,0,B|188:48|296:80,1,184
196,240,94629,1,0
368,308,94962,1,0
448,260,95129,1,0
460,168,95295,1,0
412,88,95462,6,0,B|332:128|304:232,1,184,4|0
304,230,95962,1,2
256,52,96295,1,0
207,230,96629,2,0,B|180:128|100:88,1,184,2|0
316,328,98129,6,0,B|404:292|436:184,1,184,2|0
433,193,98629,1,2
256,236,98962,1,0
79,193,99295,2,0,B|108:292|196:328,1,184,2|0
256,152,99962,2,0,B|256:56,2,92
256,244,100462,1,8
328,300,100629,1,4
364,168,100795,5,8
256,192,105462,5,4
256,192,105629,1,4
256,312,106129,1,0
424,240,106462,6,0,B|420:188|396:148,1,92,8|8
240,60,106962,1,0
276,144,107129,1,0
340,76,107295,1,0
332,300,107629,5,0
240,312,107795,1,0
164,264,107962,1,2
108,192,108129,2,0,B|104:144|128:104,1,92,2|0
128,103,108462,1,0
208,148,108629,2,2,B|304:152|376:72,1,184
424,152,109295,5,2
368,328,109629,1,2
184,304,109962,1,2
344,212,110295,5,0
324,124,110462,1,0
392,64,110629,1,0
424,152,110795,2,2,B|444:252|380:336,1,184,4|0
220,252,111462,5,0
208,160,111629,1,0
128,112,111795,1,0
128,204,111962,2,0,B|112:256|72:288,2,92,2|0|2
128,204,112462,1,4
312,180,112795,5,0
324,88,112962,1,0
404,40,113129,1,0
404,132,113295,2,0,B|420:184|460:216,2,92,2|0|2
404,132,113795,1,4
344,308,114129,6,0,B|248:328,1,92,4|0
253,326,114462,1,8
116,204,114795,2,0,B|160:284,1,92,4|0
160,284,115129,1,8
240,240,115295,6,0,B|288:160,1,92,4|0
328,80,115629,1,0
416,108,115795,1,0
436,196,115962,1,0
356,240,116129,2,2,B|256:224|204:128,1,184,8|0
64,252,116795,5,4
136,308,116962,1,0
224,288,117129,1,0
248,200,117295,2,2,B|256:152|216:108,3,92,2|2|2|4
440,76,118295,5,2
416,164,118462,1,2
348,224,118629,1,0
256,244,118795,2,0,B|208:260|188:308,2,92,2|0|2
276,108,119295,5,2
84,304,119795,1,0
84,304,119962,2,2,B|176:264|196:160,1,184
194,166,120629,1,2
332,288,120962,1,0
416,256,121129,1,0
432,164,121295,1,0
368,100,121462,2,0,B|332:56,2,46,0|0|0
340,188,121795,2,2,B|248:216|236:332,1,184
144,316,122295,5,2
80,248,122462,1,2
84,156,122629,1,4
332,228,123462,1,2
332,136,123629,1,2
260,80,123795,1,2
168,76,123962,2,0,B|164:172|224:256,1,184,4|0
219,249,124462,1,8
396,300,124795,6,0,B|424:212,1,92,4|0
424,212,125129,1,8
304,72,125462,2,0,B|376:136,1,92,4|0
372,133,125795,1,8
328,212,125962,2,2,B|268:288|156:296,1,184,6|2
88,252,126462,1,0
88,160,126629,1,0
172,124,126795,6,0,B|220:129|260:156,1,92,4|2
328,212,127129,1,0
420,108,127295,1,12
