osu file format v9

[General]
AudioFilename: for agnes.mp3
AudioLeadIn: 0
PreviewTime: 45147
Countdown: 0
SampleSet: Soft
StackLeniency: 0.7
Mode: 0
LetterboxInBreaks: 1

[Editor]
Bookmarks: 26566,52889,59082,65276,77663,90050,102437
DistanceSpacing: 0.9
BeatDivisor: 4
GridSize: 4

[Metadata]
Title:Laplace
Artist:sakuzyo
Creator:Shiirn
Version:Normal
Source:BMS
Tags:BMS of Fighters 2011 deif saten-san nakagawa_kanon dksslqj onosakihito

[Difficulty]
HPDrainRate:4
CircleSize:3
OverallDifficulty:4
ApproachRate:5
SliderMultiplier:1.36
SliderTickRate:1

[Events]
//Background and Video events
Video,0,"zlaplace.avi"
0,0,"mEKr.jpg"
//Break Periods
2,26766,26915
2,53089,57882
//Storyboard Layer 0 (Background)
//Storyboard Layer 1 (Fail)
//Storyboard Layer 2 (Pass)
//Storyboard Layer 3 (Foreground)
//Storyboard Sound Samples
//Background Colour Transformations
3,100,163,162,255

[TimingPoints]
3341,387.096774193548,4,2,0,30,1,0
13986,-100,4,2,0,100,0,0
14086,-100,4,2,0,30,0,0
15728,-100,4,2,0,40,0,0
21921,-100,4,2,0,50,0,0
28115,-100,4,1,0,50,0,0
36437,-100,4,2,0,50,0,0
37018,-100,4,1,0,50,0,0
37405,-100,4,2,0,50,0,0
37792,-100,4,1,0,50,0,0
53663,-133.333333333333,4,2,0,50,0,0
59082,-100,4,1,0,40,0,0
77663,-200,4,2,0,40,0,0
79986,-133.333333333333,4,2,0,40,0,0
88308,-100,4,2,0,100,0,0
88408,-100,4,1,0,40,0,0
89082,-100,4,1,0,50,0,0
89276,-100,4,1,0,55,0,0
89470,-100,4,1,0,60,0,0
89663,-100,4,1,0,70,0,0
89857,-100,4,1,0,80,0,0
90050,-100,4,1,0,55,0,1
102340,-100,4,1,0,55,0,0
102437,-100,4,1,0,55,0,1
102537,-100,4,1,0,55,0,0

[Colours]
Combo1 : 235,152,152
Combo2 : 192,192,192
Combo3 : 144,144,144
Combo4 : 145,189,183
Combo5 : 145,152,181
Combo6 : 234,238,145
Combo7 : 227,185,121

[HitObjects]
56,304,3341,6,12,B|172:224|316:280,1,272,12|8
456,84,4889,2,12,B|340:164|196:108,1,272,8|8
84,156,6050,1,2
72,276,6437,6,8,B|128:320|200:320|200:320|264:292|336:316,1,272
484,124,7986,2,8,B|415:101|351:129|351:129|276:132|222:84,1,272
116,128,9147,1,2
40,216,9534,86,8,B|43:223|43:223|50:219|50:219|54:226|54:226|47:230|47:230|50:237|50:237|57:234|57:234|61:241|61:241|54:244|54:244|179:222|212:340,1,272,12|8
512,280,11082,2,8,B|424:205|391:265|332:232|297:342,1,272
256,224,12244,1,2
256,344,12631,6,8,B|256:72,1,272
376,96,13792,2,0,B|408:112|440:112,1,68,0|14
376,96,14179,2,8,B|352:232|208:296,1,272
120,208,15340,1,2
72,96,15728,86,0,B|136:72|208:96,1,136,8|2
272,200,16502,2,0,B|208:176|136:200,1,136,8|2
96,312,17276,1,8
96,312,17470,2,0,B|192:352|296:312,1,204,2|8
352,296,18244,6,0,B|424:216|368:96,1,204,2|8
256,144,19211,1,2
144,104,19599,1,8
144,104,19792,2,0,B|92:214|164:294,1,204,2|8
344,280,20953,2,0,B|312:256|312:208,2,68,2|8|2
448,128,21921,86,0,B|384:96|312:96,1,136,8|2
312,216,22695,2,0,B|376:184|448:184,1,136,8|2
448,304,23470,2,0,B|384:272|312:272,1,136,8|2
256,272,24050,1,2
194,272,24244,6,0,B|128:272|64:304,1,136,8|2
16,192,25018,2,0,B|176:184,1,136,8|0
64,104,25792,2,0,B|224:96,1,136,8|2
320,136,26566,5,6
256,336,28115,6,2,B|248:264|176:224,1,136,2|10
256,336,28889,2,2,B|264:264|336:224,1,136,0|10
432,160,29663,2,0,B|384:104|416:32,1,136,2|8
312,96,30437,1,0
192,80,30824,1,10
80,120,31211,86,0,B|168:256,1,136,6|8
40,200,31986,2,0,B|128:336,1,136,2|8
232,328,32760,1,0
232,328,33147,2,8,B|352:216|240:80,1,272,8|10
136,144,34308,6,2,B|112:208|48:248,1,136,2|10
176,240,35082,2,2,B|200:304|264:344,1,136,2|10
360,264,35857,85,0
360,264,36244,2,10,B|424:120|280:32,2,272
256,328,38179,1,0
256,208,38566,1,10
196,100,38953,6,0,B|148:44,2,68,0|2|8
316,100,39728,2,0,B|364:44,2,68,0|2|8
256,208,40502,54,2,B|256:348,1,136,0|10
332,244,41276,2,2,B|356:180|316:112,1,136,2|8
196,112,42050,2,2,B|157:178|180:244,1,136,2|8
260,340,42824,2,2,B|300:292|388:300,1,136,2|8
420,316,43405,1,2
420,316,43599,22,2,B|464:184,2,136,0|10|2
168,58,45147,2,2,B|212:188,2,136,0|10|2
60,116,46308,1,8
56,240,46695,5,2
144,324,47082,2,2,B|196:280|272:280,1,136,8|0
308,292,47663,2,2,B|340:232|332:160,1,136
300,136,48244,2,2,B|176:60,3,136
148,76,49599,69,0
128,116,49792,2,2,B|124:184|52:224,1,136
64,344,50566,2,8,B|112:296,1,68
112,295,50953,2,2,B|176:272,1,68
175,272,51340,2,10,B|316:304,1,136,8|10
416,240,52115,2,8,B|275:208,1,136,6|8
256,92,52889,5,0
332,192,59082,70,0,B|336:240|368:268,2,68,0|0|8
180,192,59857,2,0,B|176:240|144:268,2,68,0|0|8
256,64,60631,2,0,B|256:220,1,136,0|8
256,324,61405,2,0,B|256:252,2,68,0|0|8
340,236,62179,6,0,B|304:180|316:104,1,136,0|8
196,104,62953,2,0,B|207:178|171:234,2,136,0|8|0
434,110,64502,1,8
472,324,65276,6,0,B|424:264,1,68
472,324,65663,2,8,B|404:328|332:308,1,136
256,220,66437,1,8
280,100,66824,6,0,B|312:80|324:44,2,68,0|8|8
244,80,67405,2,8,B|108:68,1,136
108,108,67986,2,0,B|136:132|128:172,1,68,0|8
128,169,68373,70,0,B|104:240,1,68
97,270,68760,2,2,B|176:188|283:241,1,204,0|10
312,272,69534,1,0
436,272,69921,86,0,B|456:152,2,102,8|8|8
384,240,70695,2,0,B|378:118,2,102,0|8|8
348,264,71470,2,0,B|216:312,1,136,0|8
140,320,72244,6,2,B|60:184|160:64,1,272,10|0
256,140,73405,1,8
324,244,73792,2,0,B|392:228,2,68,8|8|8
252,344,74566,86,0,B|192:304,1,68,0|8
195,306,74953,2,0,B|112:304,1,68,0|8
127,304,75340,2,8,B|100:140,2,136
384,100,76889,1,0
412,260,77663,6,0,B|368:312|288:284,1,136,6|10
208,192,79211,2,0,B|127:163|83:215,1,136,10|10
112,304,80373,1,2
112,304,80760,2,8,B|312:336,1,203.999993920326,10|10
480,260,82308,2,8,B|278:227,1,203.999993920326,10|10
256,136,83470,86,0,B|204:132,2,50.9999984800816,2|2|2
277,107,84050,2,2,B|324:80|373:111,2,101.999996960163,2|10|2
256,136,85018,2,2,B|256:248,2,101.999996960163,2|10|2
234,107,85986,2,2,B|188:80|138:111,2,101.999996960163,2|10|2
260,84,86953,5,8
368,60,87340,1,2
468,116,87728,1,8
452,228,88115,2,0,B|396:232,1,50.9999984800816,0|14
452,228,88502,2,0,B|432:292|360:324,1,136
248,228,89276,70,0,B|180:252,1,68
183,250,89663,2,0,B|115:274,1,68
118,272,90050,70,2,B|63:212|95:145,1,136,0|2
206,75,90824,1,0
206,75,91018,1,2
206,75,91211,2,2,B|330:169,2,136
324,40,92373,2,2,B|484:72,1,136,0|2
476,104,92953,1,2
452,136,93147,6,2,B|420:196|452:272,1,136
332,292,93921,1,2
256,196,94308,1,0
180,292,94695,1,2
61,267,95082,6,2,B|92:196|60:136,1,136
36,104,95663,1,2
54,66,95856,2,2,B|188:40,2,136
36,104,96824,2,2,B|48:172|20:252,1,136
12,276,97405,2,2,B|80:336,1,68,0|2
184,300,97986,70,2,B|133:255,2,68,2|0|2
220,320,98566,2,2,B|256:272|256:188,1,136,0|2
368,144,99340,6,0,B|416:84,3,68,2|0|2|0
368,144,100115,6,0,B|308:96,3,68,0|2|0|2
256,64,100889,86,2,B|256:200,1,136,0|2
256,336,101663,2,0,B|228:272|172:224,2,136,0|0|4
