osu file format v12

[General]
AudioFilename: Kronos.mp3
AudioLeadIn: 1000
PreviewTime: 51364
Countdown: 0
SampleSet: Soft
StackLeniency: 0.7
Mode: 0
LetterboxInBreaks: 0
EpilepsyWarning: 1

[Editor]
Bookmarks: 6171,77908,90216
DistanceSpacing: 1
BeatDivisor: 4
GridSize: 4

[Metadata]
Title:Kronos
TitleUnicode:Kronos
Artist:sakuzyo
ArtistUnicode:削除
Creator:HanzeR
Version:Normal
Source:BMS
Tags:bms of fighters 2012 selentia diversesystem
BeatmapID:222690
BeatmapSetID:79900

[Difficulty]
HPDrainRate:3
CircleSize:3
OverallDifficulty:3
ApproachRate:5
SliderMultiplier:0.82
SliderTickRate:2

[Events]
//Background and Video events
0,0,"bg1.jpg",0,0
//Break Periods
2,78102,89010
//Storyboard Layer 0 (Background)
//Storyboard Layer 1 (Fail)
//Storyboard Layer 2 (Pass)
//Storyboard Layer 3 (Foreground)
Sprite,Foreground,Centre,"SB\black.png",320,240 F,0,151556,165594,1
Sprite,Foreground,Centre,"SB\bgflash.png",320,240 S,0,63287,,0.8032727 F,0,63287,64056,0,0.25 F,0,73287,76171,0.25,1 F,0,76364,,0 F,0,114056,114825,0,0.25 F,0,124056,126941,0.25,1 F,0,126941,127518,1,0.25 F,0,136364,139441,0.25,1 F,0,139441,139825,1,0.25 F,0,148671,151556,0.25,1
Sprite,Foreground,Centre,"SB\Kronos.png",320,240 S,0,156364,,0.6741818 F,0,156364,157133,0,1 F,0,157133,161748,1,0.7 F,0,161844,,0.4 F,0,161941,,0.7 F,0,162037,,0.35 F,0,162133,,0.75 F,0,162133,,0.3 F,0,162133,,0.8 F,0,162229,,0.25 F,0,162325,,0.85 F,0,162421,,0.2 F,0,162518,,0.9 F,0,162614,,0.15 F,0,162710,,0.95 F,0,162806,,0.1 F,0,162902,,0
Sprite,Foreground,Centre,"SB\blankflash.png",320,240 F,0,13094,14825,0,1 S,0,13094,14825,0.8,0.81 F,0,14825,15210,1,0 S,0,14825,15210,0.8149091,0.8032727
//Storyboard Sound Samples
//Background Colour Transformations
3,100,163,162,255

[TimingPoints]
2518,384.615384615385,4,2,1,40,1,0
2518,-100,4,2,2,40,0,0
14825,-100,4,2,1,40,0,1
14921,-100,4,2,1,40,0,0
15210,-100,4,2,2,20,0,0
39441,-100,4,2,2,60,0,0
39537,-100,4,2,2,40,0,0
51748,-100,4,2,1,60,0,1
52133,-100,4,2,1,60,0,1
57133,-100,4,2,1,40,0,1
57902,-100,4,2,1,60,0,1
63287,-100,4,2,1,40,0,0
64056,-100,4,2,1,60,0,1
69537,-100,4,2,1,40,0,1
70210,-100,4,2,1,60,0,1
76171,-100,4,2,1,20,0,0
90210,-100,4,2,2,40,0,0
102518,-100,4,2,1,60,0,1
107710,-100,4,2,1,40,0,1
108671,-100,4,2,1,60,0,1
113287,-100,4,2,1,40,0,1
114056,-100,4,2,1,60,0,0
114825,-100,4,2,1,60,0,1
120210,-100,4,2,1,40,0,1
120979,-100,4,2,1,60,0,1
126941,-100,4,2,1,60,0,0
127133,-100,4,2,1,60,0,1
127229,-100,4,2,1,60,0,0
132325,-100,4,2,1,40,0,0
133287,-100,4,2,1,60,0,0
139441,-100,4,2,1,60,0,1
139537,-100,4,2,1,60,0,0
145018,-100,4,2,1,40,0,0
145594,-100,4,2,1,60,0,0
151556,-100,4,2,1,60,0,0
153287,-100,4,2,1,20,0,0

[Colours]
Combo1 : 128,128,255
Combo2 : 234,234,234
Combo3 : 128,128,192
Combo4 : 213,213,234

[HitObjects]
96,184,2518,2,0,L|108:280,2,82,0|2|0,0:0|0:0|0:0,0:0:0:0:
76,64,3864,2,0,P|132:48|220:56,1,123,0|2,0:0|0:0,0:0:0:0:
276,72,4825,2,0,P|332:88|420:80,1,123
436,84,5594,6,0,L|500:16,2,82,0|2|0,0:0|0:0|0:0,0:0:0:0:
352,172,6941,2,0,P|296:188|208:180,1,123,0|2,0:0|0:0,0:0:0:0:
152,172,7902,2,0,P|168:228|160:316,1,123
132,312,8671,6,0,L|48:344,2,82,0|2|0,0:0|0:0|0:0,0:0:0:0:
256,316,10018,2,0,P|324:328|400:316,1,123
420,252,10979,2,0,P|352:240|276:252,1,123
260,252,11748,6,0,L|180:196,3,82,0|2|0|2,0:0|0:0|0:0|0:0,0:0:0:0:
156,184,13094,6,0,B|158:118|187:113|187:113|246:82|291:127|252:150|229:189|184:144|215:85|215:85|221:56|286:53,1,369,0|4,0:0|0:0,0:0:0:0:
368,56,15210,5,2,0:0:0:0:
448,80,15594,2,0,L|416:172,2,82,0|2|0,0:0|0:0|0:0,0:0:0:0:
492,196,16941,2,0,B|476:228|476:228|472:296|472:296|440:324,1,123,0|2,0:0|0:0,0:0:0:0:
376,312,17902,6,0,P|312:344|208:320,1,164
152,292,19056,1,2,0:0:0:0:
124,216,19441,2,0,P|184:192|276:196,2,123,0|0|2,0:0|0:0|0:0,0:0:0:0:
44,240,20979,6,0,L|24:40,1,164
148,96,22325,2,0,L|168:272,2,164
144,56,24056,6,0,P|184:24|304:60,1,164
372,132,25402,2,0,P|267:149|227:117,1,164
334,60,26748,6,0,L|382:152,1,82,2|0,0:0|0:0,0:0:0:0:
456,140,27518,2,0,L|424:238,2,82,2|0|2,0:0|0:0|0:0,0:0:0:0:
431,219,28671,2,0,P|376:268|336:360,1,164,0|0,0:0|0:0,3:0:0:0:
173,349,30210,6,0,P|135:268|81:219,1,164,0|0,0:0|0:0,3:0:0:0:
20,164,31364,2,0,L|4:252,2,82,2|0|2,0:0|0:0|0:0,0:0:0:0:
36,84,32518,2,0,P|88:120|172:120,1,123
188,124,33287,6,0,P|233:87|295:75,1,123
416,100,34441,2,0,L|460:20,2,82,2|0|2,0:0|0:0|0:0,0:0:0:0:
380,172,35594,2,0,B|364:192|364:192|368:264|368:264|340:312,1,123
328,316,36364,6,0,L|236:372,2,82,0|2|0,0:0|0:0|0:0,0:0:0:0:
264,264,37518,2,0,L|184:224,2,82,2|0|2,0:0|0:0|0:0,0:0:0:0:
244,184,38671,2,0,P|184:184|100:212,1,123
84,212,39441,6,0,P|105:150|165:78,1,123,4|0,1:0|0:0,3:0:0:0:
176,84,40210,2,0,P|233:89|297:77,1,123,0|0,1:0|0:0,0:0:0:0:
408,128,41364,6,0,L|444:204,2,82,2|0|0,0:0|1:0|0:0,0:0:0:0:
372,204,42518,2,0,L|343:283,2,82,0|0|0,0:0|0:0|1:0,0:0:0:0:
292,184,43671,1,0,0:0:0:0:
256,108,44056,2,0,L|179:143,2,82,0|0|0,0:0|0:0|1:0,0:0:0:0:
336,92,45210,1,2,0:0:0:0:
408,48,45594,6,0,P|352:12|280:28,1,123,0|2,0:0|0:0,0:0:0:0:
268,48,46364,2,0,P|224:79|157:76,1,123,0|2,0:0|0:0,3:0:0:0:
116,64,47133,2,0,L|152:152,3,82,0|2|0|2,0:0|0:0|0:0|0:0,0:0:0:0:
204,200,48671,6,0,P|156:248|84:264,1,123
64,272,49441,2,0,P|131:272|194:311,1,123
212,320,50210,1,4,0:0:0:0:
336,344,50787,6,0,L|420:228,1,123,0|0,0:0|1:0,0:0:0:0:
452,176,51748,6,0,P|416:124|348:108,1,123,4|0,0:0|0:0,0:0:0:0:
320,112,52518,2,0,L|232:140,1,82,0|0,0:0|1:0,0:0:0:0:
196,208,53287,2,0,P|178:153|126:117,1,123
84,120,54056,2,0,L|72:236,1,82,0|0,0:0|1:0,0:0:0:0:
76,244,54633,2,0,P|93:298|145:334,1,123,0|0,0:0|1:0,0:0:0:0:
228,332,55594,6,0,L|344:320,1,82,0|0,0:0|1:0,0:0:0:0:
348,312,56171,2,0,L|424:248,3,82
440,232,57518,1,0,1:0:0:0:
492,168,57902,6,0,P|444:124|368:112,1,123
352,128,58671,2,0,P|297:114|249:70,1,123
216,48,59441,2,0,L|108:72,1,82,0|0,0:0|1:0,0:0:0:0:
56,88,60210,2,0,P|96:96|136:132,1,82,0|0,0:0|1:0,0:0:0:0:
112,160,60787,6,0,P|148:220|220:232,1,123,4|0,0:0|1:0,0:0:0:0:
236,244,61556,2,0,P|168:227|108:269,1,123,4|0,0:0|1:0,0:0:0:0:
96,280,62325,2,0,P|124:348|180:296,2,164,4|0|0,0:0|0:0|0:0,0:0:0:0:
112,240,64056,6,0,P|176:228|240:264,1,123,2|0,0:0|0:0,0:0:0:0:
260,276,64825,2,0,P|324:308|408:312,1,123,2|0,0:0|0:0,0:0:0:0:
416,320,65594,2,0,P|422:269|454:205,1,123,2|0,0:0|0:0,0:0:0:0:
476,168,66364,6,0,L|412:108,1,82,2|0,0:0|1:0,0:0:0:0:
384,84,66941,2,0,P|324:108|224:88,1,164
188,84,67902,6,0,L|80:96,1,82,2|0,0:0|1:0,0:0:0:0:
68,100,68479,2,0,P|132:128|168:176,1,123,0|0,0:0|1:0,0:0:0:0:
164,252,69441,2,0,P|131:292|67:320,1,123,2|0,0:0|0:0,0:0:0:0:
28,328,70210,6,0,P|79:322|144:347,1,123,6|0,0:0|0:0,0:0:0:0:
184,360,70979,2,0,L|260:324,1,82,2|0,0:0|1:0,0:0:0:0:
332,292,71748,2,0,P|383:286|448:311,1,123,2|0,0:0|0:0,0:0:0:0:
480,284,72518,2,0,L|480:192,1,82,2|0,0:0|1:0,0:0:0:0:
464,120,73287,6,0,P|424:104|380:104,2,82,2|0|2,0:0|1:0|0:0,0:0:0:0:
404,180,74441,2,0,P|377:207|361:247,2,82,0|2|0,1:0|0:0|1:0,0:0:0:0:
386,103,75594,2,0,P|318:91|262:119,1,123,4|0,0:0|0:0,0:0:0:0:
256,192,76268,12,4,77902,1:0:0:0:
100,120,90210,6,0,L|180:72,1,82,0|2,0:0|2:0,0:0:0:0:
244,40,90979,2,0,P|292:64|316:144,1,123,0|0,1:0|0:0,0:0:0:0:
300,164,91748,2,0,L|376:220,1,82
428,268,92518,2,0,P|404:316|372:340,1,82,0|0,1:0|0:0,0:0:0:0:
300,328,93287,2,0,L|256:252,2,82,0|0|0,0:0|0:0|1:0,0:0:0:0:
220,348,94441,1,0,0:0:0:0:
148,308,94825,2,0,L|172:228,2,82,0|0|0,0:0|0:0|1:0,0:0:0:0:
76,268,95979,1,0,0:0:0:0:
4,312,96364,6,0,P|60:348|132:332,1,123,0|2,0:0|0:0,0:0:0:0:
144,316,97133,2,0,P|188:285|255:288,1,123,0|2,0:0|0:0,0:0:0:0:
296,288,97903,2,0,L|260:200,3,82,0|2|0|2,0:0|0:0|0:0|0:0,0:0:0:0:
272,132,99441,6,0,P|320:84|392:68,1,123,0|2,0:0|0:0,0:0:0:0:
416,60,100211,2,0,P|349:60|286:21,1,123
264,12,100980,1,4,1:0:0:0:
140,28,101557,6,0,L|56:144,1,123,0|0,0:0|1:0,0:0:0:0:
40,192,102518,6,0,P|76:244|144:260,1,123,4|0,0:0|0:0,0:0:0:0:
172,256,103288,2,0,L|260:228,1,82,0|0,0:0|1:0,0:0:0:0:
296,160,104057,2,0,P|314:215|366:251,1,123
408,248,104826,2,0,L|420:132,1,82,0|0,0:0|1:0,0:0:0:0:
416,124,105403,2,0,P|399:70|347:34,1,123,0|0,0:0|1:0,0:0:0:0:
264,36,106364,6,0,L|148:48,1,82,0|0,0:0|1:0,0:0:0:0:
144,56,106941,2,0,L|68:120,3,82
52,136,108288,1,0,1:0:0:0:
0,200,108672,6,0,P|48:244|124:256,1,123
140,240,109441,2,0,P|195:254|243:298,1,123
276,320,110211,2,0,L|384:296,1,82,0|0,0:0|1:0,0:0:0:0:
436,280,110980,2,0,P|396:272|356:236,1,82,0|0,0:0|1:0,0:0:0:0:
380,208,111557,6,0,P|344:148|272:136,1,123,0|0,0:0|1:0,0:0:0:0:
256,124,112325,2,0,P|324:141|384:99,1,123,0|0,0:0|1:0,0:0:0:0:
396,88,113095,2,0,P|368:20|312:72,2,164,4|0|0,0:0|0:0|0:0,0:0:0:0:
380,128,114826,6,4,P|316:140|252:104,1,123,2|0,0:0|0:0,0:0:0:0:
232,92,115595,2,0,P|168:60|84:56,1,123,2|0,0:0|0:0,0:0:0:0:
76,48,116364,2,0,P|70:99|38:163,1,123,2|0,0:0|0:0,0:0:0:0:
16,200,117134,6,0,L|80:260,1,82,2|0,0:0|1:0,0:0:0:0:
108,284,117711,2,0,P|168:260|268:280,1,164
304,284,118672,6,0,L|412:272,1,82,2|0,0:0|1:0,0:0:0:0:
424,268,119249,2,0,P|360:240|324:192,1,123,0|0,0:0|1:0,0:0:0:0:
328,116,120211,2,0,P|361:76|425:48,1,123,2|0,0:0|0:0,0:0:0:0:
464,40,120980,6,0,P|413:46|348:21,1,123,6|0,0:0|0:0,0:0:0:0:
308,8,121749,2,0,L|232:44,1,82,2|0,0:0|1:0,0:0:0:0:
160,76,122518,2,0,P|109:82|44:57,1,123,2|0,0:0|0:0,0:0:0:0:
12,84,123288,2,0,L|12:176,1,82,2|0,0:0|1:0,0:0:0:0:
84,204,124056,6,0,P|128:188|176:200,2,82,2|0|2,0:0|1:0|0:0,0:0:0:0:
124,276,125210,2,0,P|80:292|32:280,2,82,0|2|0,1:0|0:0|0:0,0:0:0:0:
204,252,126364,2,0,L|204:116,1,123,6|0,0:0|0:0,0:0:0:0:
204,88,127133,6,0,P|256:92|336:164,1,164,4|2,1:0|0:0,0:0:0:0:
428,300,128671,2,0,P|376:296|296:224,1,164,2|2,0:0|0:0,0:0:0:0:
216,60,130210,2,0,P|144:140|140:192,1,164,2|2,0:0|0:0,0:0:0:0:
280,280,131748,2,0,L|376:308,2,82,2|0|2,0:0|1:0|0:0,0:0:0:0:
200,256,132902,1,0,0:0:0:0:
120,244,133287,6,0,L|164:68,1,164,2|2,0:0|0:0,0:0:0:0:
312,20,134825,2,0,L|268:196,1,164,2|2,0:0|0:0,0:0:0:0:
244,256,135979,1,0,1:0:0:0:
228,336,136364,6,0,P|268:352|320:352,2,82,2|0|2,0:0|1:0|0:0,0:0:0:0:
244,256,137518,2,0,P|215:230|175:213,2,82,0|2|0,0:0|0:0|0:0,0:0:0:0:
176,213,138671,2,0,L|280:133,1,123,2|0,0:0|0:0,0:0:0:0:
304,108,139441,6,0,B|240:40|200:116|148:44,1,164,4|2,0:0|0:0,0:0:0:0:
0,108,140979,2,0,B|61:173|101:97|145:159,1,164,2|2,0:0|0:0,0:0:0:0:
211,299,142518,2,0,B|224:225|142:251|145:160,1,164,2|2,0:0|0:0,0:0:0:0:
260,44,144056,1,2,0:0:0:0:
200,100,144441,2,0,L|128:36,2,82,0|2|0,1:0|0:0|1:0,0:0:0:0:
172,176,145594,6,0,P|252:188|340:168,1,164,2|2,0:0|0:0,0:0:0:0:
492,132,147133,2,0,P|426:180|381:248,1,164,2|2,0:0|0:0,0:0:0:0:
224,296,148671,6,0,P|264:280|296:244,2,82,2|0|2,0:0|1:0|0:0,0:0:0:0:
200,216,149825,2,0,P|164:231|144:273,2,82,0|2|0,1:0|0:0|1:0,0:0:0:0:
224,296,150979,2,0,P|268:260|280:196,1,123,2|0,0:0|0:0,0:0:0:0:
256,192,151652,12,0,153287,0:0:0:0:
