osu file format v12

[General]
AudioFilename: Kronos.mp3
AudioLeadIn: 1000
PreviewTime: 51364
Countdown: 0
SampleSet: Soft
StackLeniency: 0.7
Mode: 0
LetterboxInBreaks: 0
EpilepsyWarning: 1
WidescreenStoryboard: 0

[Editor]
Bookmarks: 77908,90216
DistanceSpacing: 0.5
BeatDivisor: 4
GridSize: 4

[Metadata]
Title:Kronos
TitleUnicode:Kronos
Artist:sakuzyo
ArtistUnicode:削除
Creator:HanzeR
Version:Insane
Source:BMS
Tags:bms of fighters 2012 selentia diversesystem
BeatmapID:222689
BeatmapSetID:79900

[Difficulty]
HPDrainRate:6
CircleSize:4
OverallDifficulty:7
ApproachRate:9
SliderMultiplier:2.1
SliderTickRate:2

[Events]
//Background and Video events
0,0,"bg1.jpg",0,0
//Break Periods
2,78102,89610
//Storyboard Layer 0 (Background)
//Storyboard Layer 1 (Fail)
//Storyboard Layer 2 (Pass)
//Storyboard Layer 3 (Foreground)
Sprite,Foreground,Centre,"SB\black.png",320,240 F,0,151556,165594,1
Sprite,Foreground,Centre,"SB\bgflash.png",320,240 S,0,63287,,0.8032727 F,0,63287,64056,0,0.25 F,0,73287,76171,0.25,1 F,0,76364,,0 F,0,114056,114825,0,0.25 F,0,124056,126941,0.25,1 F,0,126941,127518,1,0.25 F,0,136364,139441,0.25,1 F,0,139441,139825,1,0.25 F,0,148671,151556,0.25,1
Sprite,Foreground,Centre,"SB\Kronos.png",320,240 S,0,156364,,0.6741818 F,0,156364,157133,0,1 F,0,157133,161748,1,0.7 F,0,161844,,0.4 F,0,161941,,0.7 F,0,162037,,0.35 F,0,162133,,0.8 F,0,162133,,0.3 F,0,162133,,0.75 F,0,162229,,0.25 F,0,162325,,0.85 F,0,162421,,0.2 F,0,162518,,0.9 F,0,162614,,0.15 F,0,162710,,0.95 F,0,162806,,0.1 F,0,162902,,0
Sprite,Foreground,Centre,"SB\blankflash.png",320,240 F,0,13094,14825,0,1 S,0,13094,14825,0.8,0.81 F,0,14825,15210,1,0 S,0,14825,15210,0.8149091,0.8032727
//Storyboard Sound Samples
//Background Colour Transformations
3,100,163,162,255

[TimingPoints]
2518,384.615384615385,4,2,1,40,1,0
2518,-133.333333333333,4,2,2,40,0,0
13094,-200,4,2,2,20,0,0
14825,-100,4,2,1,40,0,1
14921,-100,4,2,1,40,0,0
15210,-133.333333333333,4,2,2,20,0,0
39441,-133.333333333333,4,2,2,60,0,0
39537,-133.333333333333,4,2,2,40,0,0
51748,-100,4,2,1,60,0,1
52133,-100,4,2,1,60,0,1
57133,-100,4,2,1,40,0,1
57902,-100,4,2,1,60,0,1
63287,-100,4,2,1,40,0,0
64056,-100,4,2,1,60,0,1
69537,-100,4,2,1,40,0,1
70210,-100,4,2,1,60,0,1
76171,-100,4,2,1,20,0,0
90210,-133.333333333333,4,2,2,40,0,0
102518,-100,4,2,1,60,0,1
107710,-100,4,2,1,40,0,1
108671,-100,4,2,1,60,0,1
113287,-100,4,2,1,40,0,1
114056,-100,4,2,1,60,0,0
114825,-100,4,2,1,60,0,1
120210,-100,4,2,1,40,0,1
120979,-100,4,2,1,60,0,1
126941,-100,4,2,1,60,0,0
127133,-100,4,2,1,60,0,1
127229,-100,4,2,1,60,0,0
132325,-100,4,2,1,40,0,0
133287,-100,4,2,1,60,0,0
139441,-100,4,2,1,60,0,1
139537,-100,4,2,1,60,0,0
145018,-100,4,2,1,40,0,0
145594,-100,4,2,1,60,0,0
151556,-100,4,2,1,60,0,0
153287,-100,4,2,1,20,0,0

[Colours]
Combo1 : 128,128,255
Combo2 : 234,234,234
Combo3 : 128,128,192
Combo4 : 213,213,234

[HitObjects]
52,104,2518,2,0,L|48:16,1,78.7500030040742,2|0,0:0|0:0,0:0:0:0:
140,84,2902,2,0,L|144:172,1,78.7500030040742,2|0,0:0|0:0,0:0:0:0:
148,240,3287,1,0,0:0:0:0:
104,304,3479,1,0,0:0:0:0:
256,292,3671,1,2,0:0:0:0:
300,228,3864,1,2,0:0:0:0:
300,228,4248,5,0,0:0:0:0:
272,152,4441,2,0,L|352:132,1,78.7500030040742,2|0,0:0|0:0,0:0:0:0:
436,111,4825,2,0,L|456:188,1,78.7500030040742
420,36,5210,2,2,L|343:55,1,78.7500030040742
268,72,5594,5,0,0:0:0:0:
192,92,5787,1,0,0:0:0:0:
64,16,5979,1,2,0:0:0:0:
140,28,6171,1,0,0:0:0:0:
192,92,6364,2,0,L|188:196,1,78.7500030040742
172,248,6748,1,2,0:0:0:0:
40,340,6941,1,2,0:0:0:0:
256,260,7325,5,0,0:0:0:0:
308,320,7518,1,2,0:0:0:0:
388,320,7710,1,0,0:0:0:0:
428,252,7902,2,0,P|436:208|416:156,1,78.7500030040742
304,160,8287,2,0,P|329:196|358:213,1,78.7500030040742,2|2,0:0|0:0,0:0:0:0:
460,104,8671,6,0,P|416:96|383:104,1,78.7500030040742
228,192,9056,1,2,0:0:0:0:
152,212,9248,1,0,0:0:0:0:
80,180,9441,2,0,L|68:88,1,78.7500030040742
60,24,9825,1,2,0:0:0:0:
236,112,10018,1,2,0:0:0:0:
228,192,10402,5,0,0:0:0:0:
204,268,10594,1,2,0:0:0:0:
128,292,10787,1,0,0:0:0:0:
284,268,10979,1,0,0:0:0:0:
356,300,11171,1,0,0:0:0:0:
424,260,11364,2,0,L|436:164,1,78.7500030040742,2|2,0:0|0:0,0:0:0:0:
340,88,11748,6,0,L|328:184,1,78.7500030040742
444,108,12133,1,2,0:0:0:0:
412,36,12325,1,0,0:0:0:0:
312,20,12518,1,0,0:0:0:0:
236,120,12710,1,0,0:0:0:0:
300,248,12902,1,2,0:0:0:0:
44,96,13094,6,0,B|29:144|69:161|69:161|157:214|202:163|182:93|111:73|60:118|114:206|114:206|131:245|179:231,1,446.25,2|0,0:0|0:0,0:0:0:0:
216,220,14825,6,0,P|272:208|376:236,1,157.5,4|0,0:0|0:0,0:0:0:0:
440,268,15210,6,0,L|460:184,1,78.7500030040742
420,344,15594,1,0,0:0:0:0:
332,272,15787,1,0,0:0:0:0:
272,360,15979,1,2,0:0:0:0:
180,292,16171,1,2,0:0:0:0:
180,292,16556,2,0,P|140:308|80:304,1,78.7500030040742,0|2,0:0|0:0,0:0:0:0:
52,184,16941,2,0,P|91:200|131:246,1,78.7500030040742
84,92,17710,5,2,0:0:0:0:
84,92,17806,1,0,0:0:0:0:
84,92,17902,2,0,L|100:4,1,78.7500030040742
160,120,18287,1,2,0:0:0:0:
244,240,18479,1,0,0:0:0:0:
272,156,18671,2,0,L|335:109,1,78.7500030040742
428,264,19056,2,0,L|381:200,1,78.7500030040742,2|2,0:0|0:0,0:0:0:0:
272,316,19441,2,0,L|194:303,1,78.7500030040742
116,300,19825,1,2,0:0:0:0:
56,360,20018,6,0,P|48:260|136:220,1,196.875007510186
200,228,20594,2,0,P|240:236|288:232,1,78.7500030040742,2|2,0:0|0:0,0:0:0:0:
424,152,20979,5,0,0:0:0:0:
360,196,21171,1,0,0:0:0:0:
356,276,21364,1,2,0:0:0:0:
502,134,21556,1,0,3:0:0:0:
424,152,21748,1,0,3:0:0:0:
364,100,21941,1,0,3:0:0:0:
380,24,22133,1,2,0:0:0:0:
502,134,22325,2,0,L|512:228,1,78.7500030040742,2|0,0:0|0:0,0:0:0:0:
444,320,22710,2,0,L|434:226,1,78.7500030040742,0|2,0:0|0:0,0:0:0:0:
424,152,23094,6,0,P|344:172|292:80,1,196.875007510186
338,30,23671,2,0,P|364:68|358:118,1,78.7500030040742,2|2,0:0|0:0,0:0:0:0:
240,192,24056,2,0,L|144:184,1,78.7500030040742
72,56,25210,1,2,0:0:0:0:
124,116,25402,2,0,L|220:124,1,78.7500030040742,2|0,0:0|0:0,0:0:0:0:
324,196,26556,5,0,0:0:0:0:
396,228,26748,1,2,0:0:0:0:
408,308,26941,1,2,0:0:0:0:
280,348,27133,6,0,L|304:260,1,78.7500030040742
496,176,27518,2,0,L|472:264,1,78.7500030040742,2|0,0:0|0:0,0:0:0:0:
280,348,27902,1,0,0:0:0:0:
204,368,28094,1,0,0:0:0:0:
156,252,28287,1,2,0:0:0:0:
224,292,28479,1,2,0:0:0:0:
196,160,28671,2,0,L|44:204,1,157.500006008148,0|2,0:0|0:0,0:0:0:0:
272,132,29248,5,0,0:0:0:0:
348,120,29441,1,0,0:0:0:0:
416,160,29633,1,0,0:0:0:0:
444,232,29825,2,0,P|436:246|384:278,1,78.7500030040742,2|2,0:0|0:0,0:0:0:0:
344,344,30210,2,0,P|307:275|347:215,1,157.500006008148,0|2,0:0|0:0,0:0:0:0:
384,278,30787,1,0,0:0:0:0:
236,296,30979,2,0,L|148:308,1,78.7500030040742
80,320,31364,1,2,0:0:0:0:
268,224,31556,6,0,L|346:213,1,78.7500030040742,2|0,0:0|0:0,0:0:0:0:
228,156,31941,2,0,L|149:166,1,78.7500030040742,0|2,0:0|0:0,0:0:0:0:
52,60,32325,2,0,P|128:40|184:92,1,157.500006008148
228,156,32902,1,2,0:0:0:0:
72,232,33094,1,2,0:0:0:0:
228,156,33287,6,0,L|306:145,1,78.7500030040742
384,136,33671,1,2,0:0:0:0:
432,72,33864,1,0,0:0:0:0:
476,4,34056,1,0,0:0:0:0:
384,136,34248,1,0,0:0:0:0:
440,192,34441,1,2,0:0:0:0:
456,268,34633,6,0,P|416:292|364:288,1,78.7500030040742,2|0,0:0|0:0,0:0:0:0:
252,216,35018,2,0,P|297:227|331:266,1,78.7500030040742,0|2,0:0|0:0,0:0:0:0:
280,368,35402,2,0,P|255:328|259:276,1,78.7500030040742
252,216,35787,1,0,0:0:0:0:
188,168,35979,1,2,0:0:0:0:
116,200,36171,1,2,0:0:0:0:
84,272,36364,6,0,L|8:224,1,78.7500030040742
16,52,36748,2,0,L|92:100,1,78.7500030040742,2|0,0:0|0:0,0:0:0:0:
188,168,37133,1,0,0:0:0:0:
252,216,37325,1,0,0:0:0:0:
324,184,37518,1,2,0:0:0:0:
308,108,37710,1,2,0:0:0:0:
232,84,37902,2,0,L|176:24,1,78.7500030040742
399,138,38287,2,0,L|460:88,1,78.7500030040742,2|0,0:0|0:0,0:0:0:0:
177,252,38671,5,4,0:0:0:0:
484,332,39441,2,0,P|412:356|324:328,1,157.500006008148,4|0,0:0|0:0,0:0:0:0:
28,256,40210,2,0,P|100:232|188:260,1,157.500006008148,0|0,1:0|0:0,0:0:0:0:
416,296,40979,2,0,P|388:256|348:244,1,78.7500030040742
284,244,41364,1,0,0:0:0:0:
220,200,41556,1,0,0:0:0:0:
236,124,41748,2,0,L|328:112,1,78.7500030040742,0|0,1:0|0:0,0:0:0:0:
400,28,42133,2,0,L|308:40,1,78.7500030040742
156,52,42517,5,0,0:0:0:0:
140,56,42902,1,0,0:0:0:0:
124,60,43287,1,0,1:0:0:0:
112,192,43671,1,0,0:0:0:0:
156,128,43864,1,0,0:0:0:0:
124,60,44056,5,0,0:0:0:0:
140,56,44441,1,0,0:0:0:0:
156,52,44825,1,0,1:0:0:0:
416,228,45402,5,0,0:0:0:0:
360,284,45594,2,0,L|264:232,1,78.7500030040742
240,324,45979,2,0,L|199:222,1,78.7500030040742,2|0,0:0|0:0,0:0:0:0:
120,272,46364,2,0,L|154:168,1,78.7500030040742
56,156,46748,2,0,L|149:98,1,78.7500030040742,2|0,0:0|0:0,0:0:0:0:
272,128,47133,6,0,P|308:164|308:215,1,78.7500030040742
240,256,47517,2,0,P|203:219|203:168,1,78.7500030040742,2|0,0:0|0:0,0:0:0:0:
320,179,47902,2,0,P|302:228|256:249,1,78.7500030040742
191,204,48287,2,0,P|209:155|255:134,1,78.7500030040742,2|0,0:0|0:0,0:0:0:0:
360,64,48671,6,0,L|404:152,1,78.7500030040742
460,248,49056,1,2,0:0:0:0:
476,172,49248,1,0,0:0:0:0:
436,172,49344,1,0,0:0:0:0:
404,196,49441,2,0,P|388:236|388:272,1,78.7500030040742
436,332,49825,1,2,0:0:0:0:
304,244,50017,1,0,0:0:0:0:
56,344,50210,5,4,1:0:0:0:
48,28,50787,1,0,0:0:0:0:
112,144,50979,1,0,0:0:0:0:
76,296,51171,1,2,0:0:0:0:
152,76,51364,2,0,P|96:68|44:108,1,118.125004506111,0|0,1:0|1:0,0:0:0:0:
112,144,51748,6,0,L|224:160,1,105,4|0,0:0|0:0,0:0:0:0:
360,64,52133,2,0,L|248:48,1,105,0|0,1:0|0:0,0:0:0:0:
424,228,52517,1,0,0:0:0:0:
504,172,52710,1,0,0:0:0:0:
464,80,52902,2,0,L|352:64,1,105,0|0,1:0|0:0,0:0:0:0:
384,312,53287,6,0,L|496:328,1,105
352,188,53671,2,0,P|296:212|268:268,1,105,0|0,1:0|0:0,0:0:0:0:
256,276,53960,1,0,0:0:0:0:
252,308,54056,2,0,L|140:292,2,105,0|0|0,0:0|0:0|1:0,0:0:0:0:
76,352,54633,6,0,B|20:256|108:248|60:144,1,210,0|0,0:0|0:0,0:0:0:0:
192,36,55210,1,0,1:0:0:0:
224,208,55402,1,0,0:0:0:0:
240,116,55594,2,0,P|188:124|135:108,1,105
48,56,55979,1,0,1:0:0:0:
300,240,56171,2,0,P|312:288|300:341,1,105
208,288,56556,1,0,0:0:0:0:
280,84,56748,5,0,1:0:0:0:
285,115,56844,1,0,0:0:0:0:
300,145,56941,1,0,1:0:0:0:
317,172,57037,1,0,0:0:0:0:
338,196,57133,1,2,0:0:0:0:
365,210,57229,1,2,0:0:0:0:
396,216,57325,5,2,0:0:0:0:
428,212,57421,1,2,0:0:0:0:
456,192,57517,1,2,0:0:0:0:
468,164,57614,1,2,0:0:0:0:
468,132,57710,1,2,0:0:0:0:
452,104,57806,1,2,0:0:0:0:
424,88,57902,6,0,P|356:96|316:120,1,105,4|0,2:0|0:0,0:0:0:0:
116,188,58287,2,0,P|184:180|224:156,1,105,0|0,1:0|0:0,0:0:0:0:
80,24,58671,1,0,0:0:0:0:
34,237,58864,1,0,0:0:0:0:
116,188,59056,2,0,L|134:85,1,105,0|0,1:0|0:0,0:0:0:0:
329,305,59441,6,0,P|217:329|153:265,1,210,0|0,0:0|1:0,0:0:0:0:
220,116,60017,1,0,3:0:0:0:
240,132,60114,1,0,3:0:0:0:
252,156,60210,2,0,P|263:199|247:259,1,105
184,200,60594,1,0,0:0:0:0:
432,256,60787,6,0,L|452:140,1,105,4|0,1:0|0:0,0:0:0:0:
272,48,61171,1,0,0:0:0:0:
288,148,61364,1,0,3:0:0:0:
320,133,61460,1,0,3:0:0:0:
344,111,61556,2,0,P|368:64|361:-6,1,105,4|0,1:0|0:0,0:0:0:0:
100,112,61941,5,0,3:0:0:0:
40,192,62133,1,0,1:0:0:0:
73,204,62229,1,0,1:0:0:0:
106,206,62325,2,0,P|155:191|202:136,1,105,4|0,1:0|0:0,0:0:0:0:
232,309,62710,2,0,L|128:296,1,105
24,280,63094,1,0,0:0:0:0:
441,166,63287,2,0,P|455:191|460:219,1,52.5
404,276,63479,2,0,P|389:250|384:222,1,52.5
365,141,63671,2,0,P|379:115|413:92,1,52.5
480,307,63864,2,0,P|465:332|431:355,1,52.5
272,360,64056,6,0,B|216:264|304:256|256:152,1,210,0|0,0:0|0:0,0:0:0:0:
256,52,64633,1,0,0:0:0:0:
164,152,64825,1,0,0:0:0:0:
348,152,65018,1,0,0:0:0:0:
484,80,65210,2,0,P|436:60|372:72,1,105,0|0,1:0|0:0,0:0:0:0:
25,178,65594,2,0,P|73:198|137:186,1,105,2|0,0:0|0:0,0:0:0:0:
285,82,65979,5,0,1:0:0:0:
160,128,66171,1,0,0:0:0:0:
132,152,66268,1,0,0:0:0:0:
124,192,66364,2,0,L|124:316,1,105,2|0,0:0|0:0,0:0:0:0:
316,324,66748,1,0,1:0:0:0:
228,264,66941,2,0,L|228:140,1,105,2|0,0:0|0:0,0:0:0:0:
228,40,67325,1,0,0:0:0:0:
328,72,67517,1,0,1:0:0:0:
352,176,67710,5,0,0:0:0:0:
452,208,67902,1,2,0:0:0:0:
428,104,68094,1,0,0:0:0:0:
352,176,68287,1,0,1:0:0:0:
316,324,68479,2,0,P|264:348|208:336,1,105,0|2,0:0|0:0,0:0:0:0:
108,184,68864,2,0,P|160:160|216:172,1,105,0|0,0:0|1:0,0:0:0:0:
60,264,69248,5,0,1:0:0:0:
40,240,69344,1,0,1:0:0:0:
32,208,69441,1,0,1:0:0:0:
32,176,69537,1,2,0:0:0:0:
44,148,69633,1,2,0:0:0:0:
64,124,69729,5,2,0:0:0:0:
92,108,69825,1,2,0:0:0:0:
124,104,69921,1,2,0:0:0:0:
156,108,70017,1,2,0:0:0:0:
184,124,70114,1,2,0:0:0:0:
204,140,70210,6,0,L|240:24,1,105,0|0,1:0|0:0,0:0:0:0:
288,228,70594,2,0,L|252:344,1,105,0|0,1:0|0:0,0:0:0:0:
364,320,70979,2,0,L|380:264,1,52.5,0|0,0:0|0:0,0:0:0:0:
480,188,71171,2,0,L|464:244,1,52.5,0|0,0:0|0:0,0:0:0:0:
404,184,71364,5,0,1:0:0:0:
412,152,71460,1,0,0:0:0:0:
420,120,71556,1,4,1:2:0:0:
428,88,71652,1,0,0:0:0:0:
436,56,71748,2,0,P|388:40|328:40,1,105,4|0,0:0|0:0,0:0:0:0:
64,132,72133,2,0,P|112:148|165:148,1,105,0|0,1:0|0:0,0:0:0:0:
240,32,72517,6,0,L|232:100,1,52.5,2|0,0:0|0:0,0:0:0:0:
160,284,72710,2,0,L|168:216,1,52.5,2|0,0:0|0:0,0:0:0:0:
166,148,72902,1,0,1:0:0:0:
196,156,72998,1,0,0:0:0:0:
224,172,73094,1,4,1:2:0:0:
244,196,73191,1,0,0:0:0:0:
256,224,73287,6,0,P|296:236|372:208,1,105
412,152,73575,2,0,L|416:80,1,52.5,2|0,0:0|1:0,0:0:0:0:
256,68,73864,1,4,0:0:0:0:
188,152,74056,1,2,0:0:0:0:
324,152,74248,1,2,0:0:0:0:
160,56,74441,1,0,1:0:0:0:
356,264,74633,1,4,1:0:0:0:
352,56,74825,5,2,0:0:0:0:
156,264,75017,1,2,0:0:0:0:
60,76,75210,1,0,1:0:0:0:
452,76,75402,1,0,1:0:0:0:
188,152,75594,1,0,0:0:0:0:
324,152,75787,1,4,1:0:0:0:
256,352,75979,1,0,1:0:0:0:
256,68,76171,5,4,1:0:0:0:
256,192,76267,12,4,77902,0:0:0:0:
48,64,90210,5,4,0:0:0:0:
124,88,90402,2,0,L|136:192,1,78.7500030040742,0|2,0:0|0:0,0:0:0:0:
144,244,90787,1,0,0:0:0:0:
212,280,90979,1,0,0:0:0:0:
292,284,91171,1,0,0:0:0:0:
368,268,91364,1,2,0:0:0:0:
436,232,91556,1,2,0:0:0:0:
456,88,91748,5,0,0:0:0:0:
380,112,91941,2,0,L|368:216,1,78.7500030040742,0|2,0:0|0:0,0:0:0:0:
368,268,92325,1,0,0:0:0:0:
332,340,92517,1,0,1:0:0:0:
252,344,92710,1,0,0:0:0:0:
196,288,92902,1,2,0:0:0:0:
212,212,93094,1,2,0:0:0:0:
284,176,93287,6,0,L|260:88,1,78.7500030040742
144,28,93671,2,0,L|168:116,1,78.7500030040742,2|0,0:0|0:0,0:0:0:0:
88,200,94056,2,0,L|67:124,1,78.7500030040742,0|0,1:0|0:0,0:0:0:0:
88,200,94441,5,2,0:0:0:0:
108,276,94633,1,2,0:0:0:0:
160,332,94825,1,0,0:0:0:0:
236,344,95017,1,0,0:0:0:0:
316,332,95210,2,0,L|428:308,1,78.7500030040742,2|0,0:0|0:0,0:0:0:0:
460,184,95594,2,0,L|304:244,1,157.500006008148,0|2,1:0|0:0,0:0:0:0:
96,156,96171,5,2,0:0:0:0:
152,100,96364,2,0,L|248:152,1,78.7500030040742
272,60,96748,2,0,L|313:162,1,78.7500030040742,2|0,0:0|0:0,0:0:0:0:
392,112,97133,2,0,L|358:216,1,78.7500030040742
456,228,97517,2,0,L|363:286,1,78.7500030040742,2|0,0:0|0:0,0:0:0:0:
240,256,97902,6,0,P|204:220|204:169,1,78.7500030040742
272,128,98287,2,0,P|309:165|309:216,1,78.7500030040742,2|0,0:0|0:0,0:0:0:0:
192,205,98671,2,0,P|210:156|256:135,1,78.7500030040742
321,180,99056,2,0,P|303:229|257:250,1,78.7500030040742,2|0,0:0|0:0,0:0:0:0:
152,320,99441,6,0,L|108:232,1,78.7500030040742
44,96,99825,1,2,0:0:0:0:
4,160,100017,1,0,0:0:0:0:
20,124,100114,1,0,0:0:0:0:
44,96,100210,2,0,P|80:80|140:84,1,78.7500030040742
252,180,100594,2,0,P|215:165|175:120,1,78.7500030040742,2|2,0:0|0:0,0:0:0:0:
440,44,100979,1,4,1:0:0:0:
396,356,101556,5,0,0:0:0:0:
452,208,101748,1,0,0:0:0:0:
392,64,101941,1,2,0:0:0:0:
76,164,102133,2,0,P|52:128|72:56,1,118.125004506111,0|0,1:0|1:0,0:0:0:0:
128,104,102517,6,0,P|188:84|244:100,1,118.125004506111,4|0,0:0|0:0,0:0:0:0:
136,232,102902,2,0,P|88:248|32:240,1,105,0|0,1:0|0:0,0:0:0:0:
240,332,103287,1,0,0:0:0:0:
352,240,103479,1,0,0:0:0:0:
464,332,103671,2,0,P|416:348|360:340,1,105,0|0,1:0|0:0,0:0:0:0:
240,252,104056,6,0,P|271:210|275:128,1,105,2|0,0:0|0:0,0:0:0:0:
472,180,104441,2,0,P|422:165|383:130,1,105,0|0,1:0|0:0,0:0:0:0:
372,108,104729,1,0,0:0:0:0:
356,88,104825,2,0,P|304:52|224:40,1,105
104,180,105210,1,0,1:0:0:0:
52,244,105402,6,0,P|32:139|120:104,1,210
150,251,105979,2,0,P|94:263|49:241,1,105,0|0,1:0|0:0,0:0:0:0:
14,95,106364,2,0,P|70:83|115:105,1,105
212,128,106748,1,0,1:0:0:0:
404,52,106941,2,0,L|288:100,1,105
104,180,107325,2,0,L|223:217,1,105,0|0,0:0|1:0,0:0:0:0:
464,252,107710,5,0,1:0:0:0:
440,232,107806,1,0,1:0:0:0:
412,216,107902,1,0,1:0:0:0:
380,212,107998,1,2,0:0:0:0:
348,220,108094,1,2,0:0:0:0:
324,244,108191,5,2,0:0:0:0:
308,272,108287,1,0,1:0:0:0:
292,300,108383,1,2,0:0:0:0:
268,320,108479,1,2,0:0:0:0:
240,332,108575,1,2,0:0:0:0:
208,340,108671,2,8,P|145:347|103:325,1,105,4|0,0:0|0:0,0:0:0:0:
104,180,109056,2,8,P|150:223|160:269,1,105,0|0,1:0|0:0,0:0:0:0:
20,180,109441,6,0,L|12:46,1,105
189,22,109825,2,0,L|196:155,1,105,0|0,1:0|0:0,0:0:0:0:
196,232,110210,1,0,3:0:0:0:
336,308,110402,1,0,3:0:0:0:
300,192,110594,2,0,P|296:136|292:58,1,105,0|0,1:0|0:0,0:0:0:0:
292,56,110883,1,0,0:0:0:0:
292,24,110979,2,0,P|360:64|412:68,1,105
496,108,111364,5,0,1:0:0:0:
448,20,111556,2,0,P|388:56|420:176,1,210
512,220,112133,1,0,1:0:0:0:
428,284,112325,2,0,P|380:316|300:304,1,105
132,148,112710,1,0,0:0:0:0:
196,64,112902,2,0,P|244:32|324:44,1,105
176,216,113287,5,2,0:0:0:0:
148,224,113383,1,2,0:0:0:0:
116,224,113479,1,2,0:0:0:0:
88,212,113575,1,2,0:0:0:0:
68,188,113671,1,2,0:0:0:0:
60,156,113767,1,2,0:0:0:0:
64,124,113864,1,2,0:0:0:0:
80,96,113960,1,2,0:0:0:0:
108,84,114056,5,2,0:0:0:0:
140,84,114152,1,2,0:0:0:0:
168,96,114248,1,2,0:0:0:0:
188,120,114344,1,2,0:0:0:0:
184,152,114441,1,2,0:0:0:0:
184,184,114537,1,2,0:0:0:0:
196,212,114633,1,2,0:0:0:0:
216,236,114729,1,2,0:0:0:0:
244,252,114825,6,0,L|384:272,1,105,4|0,0:1|0:0,0:0:0:0:
480,144,115210,2,0,L|340:124,1,105,0|0,1:0|0:0,0:0:0:0:
284,72,115594,1,2,0:0:0:0:
424,32,115787,1,0,0:0:0:0:
488,216,115979,2,0,L|467:318,1,105,0|0,1:0|0:0,0:0:0:0:
264,176,116364,6,0,L|284:73,1,105,2|0,0:0|0:0,0:0:0:0:
224,344,116748,1,0,1:0:0:0:
64,284,116941,1,0,0:0:0:0:
64,284,117037,1,0,0:0:0:0:
64,284,117133,2,0,P|136:264|196:288,1,105,2|0,0:0|0:0,0:0:0:0:
224,344,117517,1,0,1:0:0:0:
120,176,117710,2,0,L|8:124,1,105,0|2,0:0|0:0,0:0:0:0:
176,64,118094,2,0,L|291:21,1,105,0|0,0:0|1:0,0:0:0:0:
448,16,118479,5,0,0:0:0:0:
424,36,118575,1,0,0:0:0:0:
408,64,118671,2,0,L|444:162,1,105,2|0,0:0|0:0,0:0:0:0:
412,352,119056,1,0,1:0:0:0:
480,280,119248,2,0,P|436:252|364:260,1,105,0|2,0:0|0:0,0:0:0:0:
136,280,119633,2,0,P|180:308|252:300,1,105,0|2,0:0|0:0,0:0:0:0:
68,208,120017,5,0,1:0:0:0:
40,220,120114,1,0,1:0:0:0:
16,240,120210,1,2,0:0:0:0:
4,268,120306,1,2,0:0:0:0:
4,300,120402,1,2,0:0:0:0:
20,328,120498,5,2,0:0:0:0:
48,344,120594,1,2,0:0:0:0:
80,348,120691,1,2,0:0:0:0:
108,336,120787,1,2,0:0:0:0:
128,312,120883,1,2,0:0:0:0:
136,280,120979,6,0,P|144:224|152:156,1,105,4|0,0:0|0:0,0:0:0:0:
64,20,121364,2,0,P|56:71|48:144,1,105,0|0,1:0|0:0,0:0:0:0:
232,196,121748,2,0,L|244:128,1,52.5,2|0,0:0|0:0,0:0:0:0:
360,40,121941,2,0,L|348:108,1,52.5,2|0,0:0|0:0,0:0:0:0:
336,176,122133,1,0,1:0:0:0:
328,208,122229,1,0,0:0:0:0:
320,240,122325,1,4,0:0:0:0:
312,272,122421,1,0,0:0:0:0:
304,304,122517,6,0,P|360:336|416:332,1,105,4|0,1:0|0:0,0:0:0:0:
336,176,122902,2,0,P|280:144|224:148,1,105,0|0,1:0|0:0,0:0:0:0:
192,32,123287,2,0,L|241:15,1,52.5,2|0,0:0|0:0,0:0:0:0:
240,144,123479,2,0,L|190:162,1,52.5,2|0,0:0|0:0,0:0:0:0:
143,96,123671,1,0,1:0:0:0:
112,104,123768,1,0,0:0:0:0:
80,112,123864,1,4,2:0:0:0:
40,120,123960,1,0,0:0:0:0:
8,128,124056,6,0,P|8:188|4:260,1,105,4|0,1:0|0:0,0:0:0:0:
6,233,124344,2,0,L|79:268,1,52.5,0|0,0:0|1:0,0:0:0:0:
256,344,124633,1,4,0:0:0:0:
176,276,124825,1,2,0:0:0:0:
256,208,125018,1,2,0:0:0:0:
332,280,125210,1,0,1:0:0:0:
156,180,125402,1,4,1:0:0:0:
104,104,125594,5,2,0:0:0:0:
408,104,125787,1,0,0:0:0:0:
356,180,125979,1,0,1:0:0:0:
156,180,126171,1,0,0:0:0:0:
104,104,126364,1,0,0:0:0:0:
256,32,126556,1,0,1:0:0:0:
256,192,126749,1,0,0:0:0:0:
256,352,126941,1,4,1:0:0:0:
176,260,127133,6,0,L|64:308,1,105,4|0,1:0|0:0,0:0:0:0:
55,150,127517,2,0,L|155:180,1,105,0|0,1:0|0:0,0:0:0:0:
152,8,127902,1,2,0:0:0:0:
52,44,128094,1,2,0:0:0:0:
55,150,128287,2,0,L|155:180,1,105,0|0,1:0|0:0,0:0:0:0:
336,260,128671,6,0,L|448:308,1,105,2|0,0:0|0:0,0:0:0:0:
457,150,129056,2,0,L|356:180,1,105,0|0,1:0|0:0,0:0:0:0:
360,8,129441,1,2,0:0:0:0:
460,44,129633,1,2,0:0:0:0:
457,150,129825,2,0,L|356:180,1,105,0|0,1:0|0:0,0:0:0:0:
144,108,130210,6,8,P|161:164|153:211,1,105,2|0,0:0|0:0,0:0:0:0:
55,345,130594,2,8,P|37:288|45:241,1,105,0|0,1:0|0:0,0:0:0:0:
216,77,130979,1,2,0:0:0:0:
273,166,131171,1,2,0:0:0:0:
219,257,131364,2,0,P|168:289|120:293,1,105,0|0,1:0|0:0,0:0:0:0:
288,324,131748,2,0,P|348:304|404:324,1,105,2|0,0:0|0:0,0:0:0:0:
482,56,132133,5,0,1:0:0:0:
451,47,132229,1,0,0:0:0:0:
420,52,132325,1,2,0:0:0:0:
396,71,132421,1,2,0:0:0:0:
373,94,132517,1,2,0:0:0:0:
360,124,132614,1,2,0:0:0:0:
365,155,132710,5,2,0:0:0:0:
382,183,132806,1,2,0:0:0:0:
407,202,132902,1,2,0:0:0:0:
383,220,132998,1,2,0:0:0:0:
357,233,133094,1,2,0:0:0:0:
333,251,133191,1,2,0:0:0:0:
308,264,133287,6,0,L|296:152,1,105,4|0,0:0|0:0,0:0:0:0:
156,96,133671,2,0,L|168:208,1,105,0|0,1:0|0:0,0:0:0:0:
16,368,134056,1,2,0:0:0:0:
176,288,134248,1,2,0:0:0:0:
44,220,134441,2,0,L|32:108,1,105,0|0,1:0|0:0,0:0:0:0:
192,28,134825,6,0,P|142:21|94:45,1,105,2|0,0:0|0:0,0:0:0:0:
324,104,135210,2,0,P|373:110|421:86,1,105,0|0,1:0|0:0,0:0:0:0:
416,232,135594,1,2,0:0:0:0:
508,168,135787,1,2,0:0:0:0:
496,68,135979,2,0,P|465:28|415:11,1,105,0|0,1:0|0:0,0:0:0:0:
156,208,136364,6,0,L|148:80,1,105,2|0,0:0|0:0,0:0:0:0:
149,103,136652,2,0,L|213:51,1,52.5,0|0,0:0|1:0,0:0:0:0:
276,12,136941,1,0,0:0:0:0:
376,36,137133,1,2,0:0:0:0:
352,136,137325,1,0,0:0:0:0:
248,112,137517,1,0,1:0:0:0:
260,232,137710,5,2,0:0:0:0:
232,332,137902,1,0,0:0:0:0:
132,308,138094,1,2,0:0:0:0:
156,208,138287,1,4,1:0:0:0:
248,112,138479,1,0,1:0:0:0:
352,136,138671,1,0,0:0:0:0:
260,232,138864,1,4,1:0:0:0:
156,208,139056,1,0,1:0:0:0:
124,108,139248,1,4,1:0:0:0:
453,125,139441,6,0,P|401:141|353:121,1,105,0|0,1:0|0:0,0:0:0:0:
76,48,139825,2,0,P|128:32|176:52,1,105,0|0,1:0|0:0,0:0:0:0:
469,22,140210,1,2,0:0:0:0:
453,125,140402,1,2,0:0:0:0:
432,228,140594,2,0,L|404:348,1,105,0|0,1:0|0:0,0:0:0:0:
196,312,140979,6,0,L|93:288,1,105,2|0,0:0|0:0,0:0:0:0:
244,224,141364,2,0,L|346:247,1,105,0|0,1:0|0:0,0:0:0:0:
124,28,141748,1,2,0:0:0:0:
136,204,141941,1,2,0:0:0:0:
176,108,142133,2,0,L|73:131,1,105,0|0,1:0|0:0,0:0:0:0:
244,40,142517,6,0,P|296:24|360:36,1,105,2|0,0:0|0:0,0:0:0:0:
504,144,142902,2,0,P|452:160|388:148,1,105,0|0,1:0|0:0,0:0:0:0:
472,44,143287,1,2,0:0:0:0:
504,144,143479,1,2,0:0:0:0:
452,240,143671,2,0,P|400:256|335:244,1,105,0|0,1:0|0:0,0:0:0:0:
136,204,144056,6,0,P|187:188|252:200,1,105,2|0,0:0|0:0,0:0:0:0:
204,368,144441,2,0,L|192:256,1,105,0|0,1:0|0:0,0:0:0:0:
40,204,144825,1,0,1:0:0:0:
72,212,144921,1,0,1:0:0:0:
104,212,145017,1,2,0:0:0:0:
136,204,145114,1,2,0:0:0:0:
164,188,145210,1,2,0:0:0:0:
188,168,145306,1,2,0:0:0:0:
208,144,145402,1,2,0:0:0:0:
220,116,145498,1,2,0:0:0:0:
220,84,145594,6,0,P|208:32|164:-4,1,105,4|0,0:0|0:0,0:0:0:0:
28,96,145979,2,0,P|73:124|129:118,1,105,0|0,1:0|0:0,0:0:0:0:
304,64,146364,1,2,0:0:0:0:
408,80,146556,1,2,0:0:0:0:
436,180,146748,2,0,P|390:208|334:202,1,105,0|0,1:0|0:0,0:0:0:0:
140,136,147133,6,0,L|160:260,1,105,2|0,0:0|0:0,0:0:0:0:
316,328,147517,2,0,L|296:204,1,105,0|0,1:0|0:0,0:0:0:0:
220,84,147902,1,2,0:0:0:0:
124,44,148094,1,2,0:0:0:0:
48,116,148287,2,0,L|68:240,1,105,0|4,1:0|0:0,0:0:0:0:
364,264,148671,6,0,P|312:252|252:272,1,105
263,265,148960,2,0,L|232:316,1,52.5,2|0,0:0|1:0,0:0:0:0:
460,328,149248,1,4,1:0:0:0:
460,224,149441,1,2,0:0:0:0:
364,264,149633,1,2,0:0:0:0:
460,224,149825,1,0,1:0:0:0:
384,152,150017,1,4,1:0:0:0:
284,180,150210,5,2,0:0:0:0:
364,264,150402,1,0,0:0:0:0:
384,152,150594,1,0,1:0:0:0:
308,80,150787,1,0,1:0:0:0:
152,84,150979,1,0,0:0:0:0:
284,180,151171,1,4,1:0:0:0:
292,24,151364,1,0,1:0:0:0:
164,192,151556,5,4,1:0:0:0:
256,192,151652,12,0,153287,0:0:0:0:
