osu file format v12

[General]
AudioFilename: Kronos.mp3
AudioLeadIn: 1000
PreviewTime: 51364
Countdown: 0
SampleSet: Soft
StackLeniency: 0.7
Mode: 0
LetterboxInBreaks: 0
EpilepsyWarning: 1

[Editor]
Bookmarks: 77908,90216
DistanceSpacing: 1
BeatDivisor: 4
GridSize: 4

[Metadata]
Title:Kronos
TitleUnicode:Kronos
Artist:sakuzyo
ArtistUnicode:削除
Creator:HanzeR
Version:Hard
Source:BMS
Tags:bms of fighters 2012 selentia diversesystem
BeatmapID:222688
BeatmapSetID:79900

[Difficulty]
HPDrainRate:5
CircleSize:4
OverallDifficulty:5
ApproachRate:8
SliderMultiplier:1.66
SliderTickRate:2

[Events]
//Background and Video events
0,0,"bg1.jpg",0,0
//Break Periods
2,78102,89460
//Storyboard Layer 0 (Background)
//Storyboard Layer 1 (Fail)
//Storyboard Layer 2 (Pass)
//Storyboard Layer 3 (Foreground)
Sprite,Foreground,Centre,"SB\black.png",320,240 F,0,151556,165594,1
Sprite,Foreground,Centre,"SB\bgflash.png",320,240 S,0,63287,,0.8032727 F,0,63287,64056,0,0.25 F,0,73287,76171,0.25,1 F,0,76364,,0 F,0,114056,114825,0,0.25 F,0,124056,126941,0.25,1 F,0,126941,127518,1,0.25 F,0,136364,139441,0.25,1 F,0,139441,139825,1,0.25 F,0,148671,151556,0.25,1
Sprite,Foreground,Centre,"SB\Kronos.png",320,240 S,0,156364,,0.6741818 F,0,156364,157133,0,1 F,0,157133,161748,1,0.7 F,0,161844,,0.4 F,0,161941,,0.7 F,0,162037,,0.35 F,0,162133,,0.75 F,0,162133,,0.3 F,0,162133,,0.8 F,0,162229,,0.25 F,0,162325,,0.85 F,0,162421,,0.2 F,0,162518,,0.9 F,0,162614,,0.15 F,0,162710,,0.95 F,0,162806,,0.1 F,0,162902,,0
Sprite,Foreground,Centre,"SB\blankflash.png",320,240 F,0,13094,14825,0,1 S,0,13094,14825,0.8,0.81 F,0,14825,15210,1,0 S,0,14825,15210,0.8149091,0.8032727
//Storyboard Sound Samples
//Background Colour Transformations
3,100,163,162,255

[TimingPoints]
2518,384.615384615385,4,2,1,40,1,0
2518,-100,4,2,2,40,0,0
13094,-133.333333333333,4,2,2,20,0,0
14825,-100,4,2,1,40,0,1
14921,-100,4,2,1,40,0,0
15210,-100,4,2,2,20,0,0
39441,-100,4,2,2,60,0,0
39537,-100,4,2,2,40,0,0
51748,-100,4,2,1,60,0,1
52133,-100,4,2,1,60,0,1
57133,-100,4,2,1,40,0,1
57902,-100,4,2,1,60,0,1
63287,-100,4,2,1,40,0,0
64056,-100,4,2,1,60,0,1
69537,-100,4,2,1,40,0,1
70210,-100,4,2,1,60,0,1
76171,-100,4,2,1,20,0,0
90210,-100,4,2,2,40,0,0
102518,-100,4,2,1,60,0,1
107710,-100,4,2,1,40,0,1
108671,-100,4,2,1,60,0,1
113287,-100,4,2,1,40,0,1
114056,-100,4,2,1,60,0,0
114825,-100,4,2,1,60,0,1
120210,-100,4,2,1,40,0,1
120979,-100,4,2,1,60,0,1
126941,-100,4,2,1,60,0,0
127133,-100,4,2,1,60,0,1
127229,-100,4,2,1,60,0,0
132325,-100,4,2,1,40,0,0
133287,-100,4,2,1,60,0,0
139441,-100,4,2,1,60,0,1
139537,-100,4,2,1,60,0,0
145018,-100,4,2,1,40,0,0
145594,-100,4,2,1,60,0,0
151556,-100,4,2,1,60,0,0
153287,-100,4,2,1,20,0,0

[Colours]
Combo1 : 128,128,255
Combo2 : 234,234,234
Combo3 : 128,128,192
Combo4 : 213,213,234

[HitObjects]
64,104,2517,2,0,L|96:216,1,83
168,200,2902,2,0,L|136:88,1,83,2|0,0:0|0:0,0:0:0:0:
116,40,3287,1,0,0:0:0:0:
200,44,3479,1,2,0:0:0:0:
248,112,3671,1,2,0:0:0:0:
252,196,3864,2,0,P|332:216|424:196,1,166
444,124,4441,6,0,L|408:216,1,83,2|0,0:0|0:0,0:0:0:0:
440,280,4825,2,0,L|349:319,1,83,0|2,0:0|0:0,0:0:0:0:
323,384,5210,2,0,L|231:348,1,83,2|0,0:0|0:0,0:0:0:0:
172,316,5594,2,0,P|208:276|244:272,1,83
212,192,5979,2,0,P|265:189|294:211,1,83,2|0,0:0|0:0,0:0:0:0:
352,148,6364,2,0,P|392:184|396:220,1,83,0|2,0:0|0:0,0:0:0:0:
364,288,6748,1,2,0:0:0:0:
300,340,6941,2,0,P|220:352|144:296,1,166
104,240,7518,6,0,L|160:164,1,83,2|0,0:0|0:0,0:0:0:0:
96,112,7902,2,0,L|189:97,1,83,0|2,0:0|0:0,0:0:0:0:
199,22,8287,2,0,L|275:78,1,83,2|0,0:0|0:0,0:0:0:0:
336,120,8671,5,0,0:0:0:0:
412,156,8864,1,0,0:0:0:0:
484,116,9056,1,2,0:0:0:0:
412,156,9248,1,0,0:0:0:0:
376,232,9441,1,0,0:0:0:0:
412,308,9633,1,2,0:0:0:0:
488,344,9825,1,2,0:0:0:0:
412,308,10018,6,0,P|332:328|248:296,1,166
184,260,10594,2,0,P|203:211|251:180,1,83,2|0,0:0|0:0,0:0:0:0:
168,132,10979,2,0,P|216:112|272:124,1,83,0|2,0:0|0:0,0:0:0:0:
256,32,11364,2,0,P|304:51|335:99,1,83,2|0,0:0|0:0,0:0:0:0:
360,148,11748,5,0,0:0:0:0:
372,232,11941,1,0,0:0:0:0:
312,292,12133,1,2,0:0:0:0:
228,296,12325,1,0,0:0:0:0:
156,256,12518,1,0,0:0:0:0:
116,184,12710,1,2,0:0:0:0:
152,108,12902,1,2,0:0:0:0:
220,64,13094,6,0,B|307:72|313:95|313:95|361:177|285:242|211:219|188:146|251:72|335:117|335:117|358:123|367:211,1,529.125020184518
368,260,14825,6,0,P|312:304|244:304,1,124.5
208,300,15210,2,0,P|164:280|140:256,1,83,2|0,0:0|0:0,0:0:0:0:
192,128,15594,2,0,P|208:173|208:207,1,83,0|2,0:0|0:0,0:0:0:0:
140,256,15979,1,2,0:0:0:0:
64,224,16171,1,0,0:0:0:0:
192,128,16556,1,0,0:0:0:0:
276,124,16748,1,2,0:0:0:0:
324,192,16941,1,0,0:0:0:0:
192,128,17710,5,0,0:0:0:0:
192,128,17806,1,0,0:0:0:0:
192,128,17902,2,0,P|224:64|324:52,1,166,0|2,0:0|0:0,0:0:0:0:
392,60,18479,1,0,0:0:0:0:
436,128,18671,1,0,0:0:0:0:
428,212,18864,5,2,0:0:0:0:
436,128,19056,1,2,0:0:0:0:
428,212,19248,2,0,P|396:276|296:288,1,166
232,264,19825,1,2,0:0:0:0:
200,188,20018,2,0,P|267:165|347:227,1,166,0|2,0:0|0:0,0:0:0:0:
309,293,20594,2,0,P|264:308|224:300,1,83,2|0,0:0|0:0,0:0:0:0:
148,284,20979,6,0,L|100:96,1,166,0|2,0:0|0:0,0:0:0:0:
108,40,21556,1,0,0:0:0:0:
192,40,21748,1,0,0:0:0:0:
236,112,21941,1,2,0:0:0:0:
200,188,22133,1,2,0:0:0:0:
120,212,22325,2,0,P|64:184|56:76,1,166
108,40,22902,1,2,0:0:0:0:
192,40,23094,6,0,L|292:44,1,83
352,76,23479,1,2,0:0:0:0:
360,160,23671,2,0,L|260:156,1,83,2|0,0:0|0:0,0:0:0:0:
352,76,24056,2,0,L|452:80,1,83
84,304,25210,1,2,0:0:0:0:
56,228,25402,2,0,L|156:232,1,83
428,304,26556,1,2,0:0:0:0:
456,228,26748,2,0,L|356:232,1,83,2|0,0:0|0:0,0:0:0:0:
312,288,27133,6,0,P|256:264|240:236,1,83
184,304,27518,2,0,P|161:247|169:216,1,83,2|0,0:0|0:0,0:0:0:0:
84,212,27902,2,0,P|108:156|135:140,1,83,0|2,0:0|0:0,0:0:0:0:
200,108,28287,1,2,0:0:0:0:
268,152,28479,2,0,P|348:172|448:148,1,166
268,152,29248,5,0,0:0:0:0:
200,108,29441,2,0,L|108:60,1,83,0|2,0:0|0:0,0:0:0:0:
64,128,29825,2,0,L|32:29,1,83,2|0,0:0|0:0,0:0:0:0:
127,69,30210,6,0,P|207:89|307:65,1,166,0|2,0:0|0:0,0:0:0:0:
364,44,30787,1,0,0:0:0:0:
448,44,30979,1,0,0:0:0:0:
488,116,31171,1,2,0:0:0:0:
428,172,31364,1,2,0:0:0:0:
352,136,31556,2,0,L|280:184,1,83
208,220,31941,2,0,L|280:268,1,83,0|2,0:0|0:0,0:0:0:0:
348,308,32325,2,0,B|304:336|304:336|232:336|232:336|188:360,1,166,0|2,0:0|0:0,0:0:0:0:
116,336,32902,2,0,B|91:289|91:289|98:218|98:218|78:172,1,166,2|0,0:0|0:0,0:0:0:0:
36,108,33479,5,0,0:0:0:0:
92,48,33671,1,2,0:0:0:0:
176,48,33864,1,0,0:0:0:0:
228,112,34056,2,0,P|280:124|320:120,1,83,0|2,0:0|0:0,0:0:0:0:
384,84,34441,1,2,0:0:0:0:
464,60,34633,6,0,P|476:112|472:152,1,83
472,232,35018,1,0,0:0:0:0:
452,312,35210,2,0,P|422:313|370:301,1,83,2|0,0:0|0:0,0:0:0:0:
304,216,35594,2,0,P|333:214|385:226,1,83,0|2,0:0|0:0,0:0:0:0:
292,292,35979,2,0,P|262:293|210:281,1,83,2|0,0:0|0:0,0:0:0:0:
136,244,36364,5,0,0:0:0:0:
224,12,36941,1,0,0:0:0:0:
280,76,37133,1,0,0:0:0:0:
244,152,37325,1,2,0:0:0:0:
160,160,37518,1,2,0:0:0:0:
112,92,37710,1,0,0:0:0:0:
144,16,37902,6,0,L|204:96,1,83
244,152,38287,1,2,0:0:0:0:
320,188,38479,1,0,0:0:0:0:
400,168,38671,1,4,0:0:0:0:
100,332,39441,6,0,B|168:304|176:360|264:328,1,166,4|0,1:0|0:0,0:0:0:0:
400,236,40210,2,0,B|332:264|324:208|236:240,1,166,0|0,0:0|0:0,0:0:0:0:
72,252,40979,1,0,0:0:0:0:
64,84,41364,1,0,0:0:0:0:
144,104,41556,1,0,0:0:0:0:
196,168,41748,1,0,1:0:0:0:
368,104,42133,1,0,0:0:0:0:
256,228,42517,6,0,L|284:136,1,83
348,196,42902,2,0,L|432:150,1,83
432,240,43287,2,0,L|524:268,1,83,0|0,1:0|0:0,0:0:0:0:
432,240,43671,1,0,0:0:0:0:
360,284,43864,1,0,0:0:0:0:
280,308,44056,2,0,L|252:216,1,83
188,276,44441,2,0,L|103:230,1,83
104,320,44825,2,0,L|12:348,1,83,0|0,1:0|0:0,0:0:0:0:
52,180,45402,5,0,0:0:0:0:
68,100,45594,2,0,P|124:100|164:120,1,83
180,32,45979,2,0,P|219:71|233:114,1,83,2|0,0:0|0:0,0:0:0:0:
308,68,46364,2,0,P|308:123|288:163,1,83
344,220,46748,2,0,P|304:259|261:273,1,83,2|0,0:0|0:0,0:0:0:0:
196,260,47133,2,0,P|120:268|52:348,3,166,0|2|0|2,0:0|0:0|0:0|0:0,0:0:0:0:
124,176,48671,6,0,P|164:244|260:256,1,166,0|2,0:0|0:0,0:0:0:0:
332,268,49248,1,0,0:0:0:0:
388,208,49441,1,0,0:0:0:0:
332,268,49633,1,0,0:0:0:0:
380,336,49825,1,2,0:0:0:0:
464,320,50017,1,0,0:0:0:0:
468,236,50210,1,4,1:0:0:0:
196,60,50787,5,0,0:0:0:0:
88,80,50979,1,0,0:0:0:0:
76,188,51171,1,0,0:0:0:0:
176,228,51364,2,0,P|228:176|204:112,1,124.5,0|0,1:0|1:0,1:0:0:0:
148,148,51748,6,0,L|248:212,1,83,4|0,0:0|0:0,0:0:0:0:
288,240,52133,2,0,L|188:304,1,83,0|0,1:0|0:0,0:0:0:0:
156,340,52517,2,0,L|112:268,1,83
44,224,52902,2,0,P|56:160|76:140,1,83,0|0,1:0|0:0,0:0:0:0:
148,148,53287,2,0,P|224:160|320:120,1,166,0|0,0:0|1:0,0:0:0:0:
368,76,53864,1,0,0:0:0:0:
307,131,54056,1,0,0:0:0:0:
364,192,54248,1,0,0:0:0:0:
428,140,54441,1,0,1:0:0:0:
428,57,54633,6,0,L|428:145,1,83
452,220,55017,2,0,L|510:161,1,83,0|0,0:0|1:0,0:0:0:0:
452,220,55402,1,0,0:0:0:0:
364,192,55594,2,0,P|324:212|292:248,1,83
216,244,55979,1,0,1:0:0:0:
150,196,56171,6,0,P|190:216|222:252,1,83
144,356,56556,2,0,P|144:318|130:275,1,83,0|0,0:0|1:0,0:0:0:0:
150,196,56941,1,0,0:0:0:0:
76,232,57133,1,0,0:0:0:0:
72,316,57325,1,0,0:0:0:0:
144,356,57518,1,0,1:0:0:0:
220,324,57710,1,0,0:0:0:0:
216,240,57902,6,0,L|196:144,1,83,4|0,0:0|0:0,0:0:0:0:
124,128,58287,2,0,L|144:224,1,83,0|0,1:0|0:0,0:0:0:0:
156,292,58671,1,0,0:0:0:0:
141,209,58864,1,0,0:0:0:0:
199,158,59056,2,0,P|243:150|279:126,1,83,0|0,1:0|0:0,0:0:0:0:
324,60,59441,2,0,P|280:116|284:216,1,166,0|0,0:0|1:0,0:0:0:0:
356,244,60017,1,0,0:0:0:0:
280,208,60210,2,0,P|256:244|252:288,1,83
324,320,60594,1,0,1:0:0:0:
356,244,60787,6,0,P|284:240|208:300,1,166,4|0,0:0|0:0,0:0:0:0:
164,364,61364,1,0,1:0:0:0:
92,324,61556,2,0,P|38:251|42:179,1,166,4|0,0:0|0:0,0:0:0:0:
92,112,62133,1,0,1:0:0:0:
185,130,62325,2,0,P|115:184|40:179,1,166,4|0,0:0|0:0,0:0:0:0:
92,112,62902,1,0,1:0:0:0:
148,48,63094,1,0,0:0:0:0:
232,64,63287,1,0,0:0:0:0:
260,144,63479,1,0,0:0:0:0:
212,212,63671,2,0,L|128:192,1,83,0|0,1:0|0:0,0:0:0:0:
48,180,64056,6,0,P|136:152|176:76,1,166,6|0,0:0|1:0,0:0:0:0:
208,16,64633,1,0,0:0:0:0:
288,40,64825,1,2,0:0:0:0:
336,108,65017,1,0,0:0:0:0:
372,184,65210,2,0,L|380:96,1,83,0|0,1:0|0:0,0:0:0:0:
456,136,65594,2,0,P|388:100|284:140,1,166,2|0,0:0|1:0,0:0:0:0:
268,196,66171,5,0,0:0:0:0:
224,268,66364,1,2,0:0:0:0:
144,284,66556,1,0,0:0:0:0:
68,252,66748,1,0,1:0:0:0:
116,184,66941,2,0,P|144:260|136:352,1,166
60,372,67517,5,0,1:0:0:0:
0,308,67710,1,0,0:0:0:0:
0,224,67902,1,2,0:0:0:0:
44,156,68094,1,0,0:0:0:0:
52,240,68287,1,0,1:0:0:0:
44,156,68479,6,0,L|40:68,1,83,0|2,0:0|0:0,0:0:0:0:
128,36,68864,2,0,L|132:124,1,83,0|0,0:0|1:0,0:0:0:0:
136,200,69248,1,0,0:0:0:0:
216,220,69441,1,2,0:0:0:0:
268,156,69633,1,0,0:0:0:0:
228,84,69825,1,0,1:0:0:0:
268,156,70017,1,0,0:0:0:0:
352,164,70210,6,0,L|456:208,1,83,6|0,0:0|0:0,0:0:0:0:
368,248,70594,2,0,L|264:292,1,83,0|0,1:0|0:0,0:0:0:0:
212,304,70979,1,2,0:0:0:0:
132,284,71171,1,0,0:0:0:0:
136,200,71364,1,0,1:0:0:0:
212,168,71556,1,4,0:0:0:0:
260,236,71748,6,0,P|300:232|348:208,1,83,2|0,0:0|0:0,0:0:0:0:
396,156,72133,2,0,P|422:188|439:239,1,83,0|0,1:0|0:0,0:0:0:0:
432,308,72518,1,2,0:0:0:0:
356,344,72710,1,2,0:0:0:0:
268,336,72902,1,0,1:0:0:0:
208,280,73094,1,4,0:0:0:0:
172,192,73287,6,0,L|128:100,1,83,2|0,0:0|0:0,0:0:0:0:
212,24,73671,2,0,L|212:107,1,83,0|4,1:0|0:0,0:0:0:0:
300,107,74056,2,0,L|300:24,1,83,2|2,0:0|0:0,0:0:0:0:
375,117,74441,2,0,L|340:192,1,83,0|4,0:0|0:0,0:0:0:0:
172,192,74825,2,0,L|128:100,1,83,2|0,0:0|0:0,0:0:0:0:
375,117,75210,2,0,L|340:192,1,83,0|0,0:0|1:0,0:0:0:0:
256,320,75594,2,0,L|256:224,1,83
256,64,75979,6,0,L|256:160,1,83,0|0,0:0|0:0,0:0:0:0:
256,192,76267,12,4,77902,1:0:0:0:
68,72,90210,5,4,1:0:0:0:
132,124,90402,2,0,L|148:216,1,83,0|2,0:0|0:0,0:0:0:0:
168,288,90787,1,0,0:0:0:0:
248,312,90979,1,0,0:0:0:0:
332,300,91171,1,2,0:0:0:0:
404,260,91364,1,2,0:0:0:0:
444,188,91556,1,0,0:0:0:0:
396,120,91748,5,0,0:0:0:0:
312,108,91941,2,0,L|340:228,1,83,0|2,0:0|0:0,0:0:0:0:
260,232,92325,1,0,0:0:0:0:
180,212,92517,1,0,0:0:0:0:
152,132,92710,1,2,0:0:0:0:
196,60,92902,1,2,0:0:0:0:
280,64,93094,1,0,0:0:0:0:
328,132,93287,6,0,P|288:152|240:148,1,83
260,232,93671,2,0,P|217:217|186:181,1,83,2|0,0:0|0:0,0:0:0:0:
132,248,94056,2,0,P|111:207|115:159,1,83,0|2,1:0|0:0,0:0:0:0:
120,88,94441,1,2,0:0:0:0:
196,60,94633,1,0,0:0:0:0:
268,104,94825,2,0,P|308:124|356:120,1,83
336,204,95210,2,0,P|378:189|409:153,1,83,2|0,0:0|0:0,0:0:0:0:
464,220,95594,2,0,P|484:180|480:132,1,83,0|2,1:0|0:0,0:0:0:0:
460,64,95979,5,2,0:0:0:0:
384,92,96171,1,0,0:0:0:0:
372,176,96364,2,0,L|348:268,1,83
276,220,96748,2,0,L|193:268,1,83,2|0,0:0|0:0,0:0:0:0:
196,180,97133,2,0,L|104:155,1,83
176,100,97517,2,0,L|127:17,1,83,2|0,0:0|0:0,0:0:0:0:
220,20,97902,2,0,L|144:40|84:104,3,166,0|2|0|2,0:0|0:0|0:0|0:0,0:0:0:0:
220,20,99441,6,0,P|288:8|364:84,1,166,0|2,0:0|0:0,0:0:0:0:
368,148,100017,1,0,0:0:0:0:
428,88,100210,1,0,0:0:0:0:
368,148,100402,1,0,0:0:0:0:
420,212,100594,1,2,0:0:0:0:
380,288,100787,1,0,0:0:0:0:
444,340,100979,1,4,1:0:0:0:
196,324,101556,5,0,0:0:0:0:
88,304,101748,1,0,0:0:0:0:
76,196,101940,1,0,0:0:0:0:
176,156,102133,2,0,P|228:208|204:272,1,124.5,0|0,1:0|1:0,1:0:0:0:
148,236,102517,6,0,L|248:172,1,83,4|0,0:0|0:0,0:0:0:0:
288,144,102902,2,0,L|188:80,1,83,0|0,1:0|0:0,0:0:0:0:
156,44,103286,2,0,L|112:116,1,83
44,160,103671,2,0,P|56:224|76:244,1,83,0|0,1:0|0:0,0:0:0:0:
148,236,104056,2,0,P|224:224|320:264,1,166,0|0,0:0|1:0,0:0:0:0:
368,308,104633,1,0,0:0:0:0:
307,253,104825,1,0,0:0:0:0:
364,192,105017,1,0,0:0:0:0:
428,244,105210,1,0,1:0:0:0:
428,327,105402,6,0,L|428:239,1,83
452,164,105786,2,0,L|510:223,1,83,0|0,0:0|1:0,0:0:0:0:
452,164,106171,1,0,0:0:0:0:
364,192,106363,2,0,P|324:172|292:136,1,83
216,140,106748,1,0,1:0:0:0:
150,188,106940,6,0,P|190:168|222:132,1,83
144,28,107325,2,0,P|144:66|130:109,1,83,0|0,0:0|1:0,0:0:0:0:
150,188,107710,1,0,0:0:0:0:
76,152,107902,1,0,0:0:0:0:
72,68,108094,1,0,0:0:0:0:
144,28,108287,1,0,1:0:0:0:
220,60,108479,1,0,0:0:0:0:
216,144,108671,6,0,L|196:240,1,83,4|0,0:0|0:0,0:0:0:0:
124,256,109056,2,0,L|144:160,1,83,0|0,1:0|0:0,0:0:0:0:
156,92,109440,1,0,0:0:0:0:
141,175,109633,1,0,0:0:0:0:
199,226,109825,2,0,P|243:234|279:258,1,83,0|0,1:0|0:0,0:0:0:0:
324,324,110210,2,0,P|280:268|284:168,1,166,0|0,0:0|1:0,0:0:0:0:
356,140,110786,1,0,0:0:0:0:
280,176,110979,2,0,P|256:140|252:96,1,83
324,64,111363,1,0,1:0:0:0:
356,140,111556,6,0,P|284:144|208:84,1,166,4|0,0:0|0:0,0:0:0:0:
164,20,112133,1,0,1:0:0:0:
92,60,112325,2,0,P|38:133|42:205,1,166,4|0,0:0|0:0,0:0:0:0:
92,272,112902,1,0,1:0:0:0:
185,254,113094,2,0,P|115:200|40:205,1,166,4|0,0:0|0:0,0:0:0:0:
92,272,113671,1,0,1:0:0:0:
148,336,113863,1,0,0:0:0:0:
232,320,114056,1,0,0:0:0:0:
260,240,114248,5,0,0:0:0:0:
212,172,114440,2,0,L|128:192,1,83,0|0,1:0|0:0,0:0:0:0:
48,204,114825,6,0,P|136:232|176:308,1,166,6|0,0:0|1:0,0:0:0:0:
212,364,115402,1,0,0:0:0:0:
284,320,115594,1,2,0:0:0:0:
260,240,115787,1,0,0:0:0:0:
212,172,115979,2,0,L|328:212,1,83,0|0,1:0|0:0,0:0:0:0:
372,192,116364,2,0,B|348:144|348:144|292:120|292:120|268:60,1,166,2|0,0:0|1:0,0:0:0:0:
228,0,116941,5,0,0:0:0:0:
312,8,117133,1,2,0:0:0:0:
376,60,117325,1,0,0:0:0:0:
376,144,117517,1,0,1:0:0:0:
320,204,117710,2,0,P|240:220|160:200,1,166
80,180,118287,5,0,1:0:0:0:
72,96,118479,1,0,0:0:0:0:
152,68,118671,2,0,P|176:116|180:168,1,83,2|0,0:0|0:0,0:0:0:0:
164,228,119056,1,0,1:0:0:0:
244,208,119248,2,2,P|254:155|245:104,1,83
240,44,119633,1,0,0:0:0:0:
316,8,119825,6,0,P|344:53|352:105,1,83,0|0,1:0|0:0,0:0:0:0:
432,100,120210,2,0,P|419:152|389:194,1,83,2|0,0:0|0:0,0:0:0:0:
452,244,120594,2,0,P|406:272|354:280,1,83,0|0,1:0|0:0,0:0:0:0:
304,316,120979,2,0,P|220:316|140:288,1,166,6|0,0:0|1:0,0:0:0:0:
76,240,121556,1,0,0:0:0:0:
104,160,121748,6,0,P|144:196|160:244,1,83,2|2,0:0|0:0,0:0:0:0:
220,276,122133,2,0,P|248:273|295:248,1,83,0|4,1:0|0:0,0:0:0:0:
356,192,122517,2,0,P|312:224|296:340,1,166,2|0,0:0|1:0,0:0:0:0:
360,372,123094,1,0,0:0:0:0:
396,296,123287,6,0,P|412:244|431:223,1,83,2|2,0:0|0:0,0:0:0:0:
512,208,123671,2,0,P|496:260|478:282,1,83,0|4,1:0|0:0,0:0:0:0:
430,224,124056,2,0,P|363:231|315:203,1,124.5,2|0,0:0|0:0,0:0:0:0:
288,156,124441,2,0,P|248:154|208:170,1,83,0|4,1:0|0:0,0:0:0:0:
116,132,124825,1,2,0:0:0:0:
185,27,125017,1,0,0:0:0:0:
257,111,125210,1,0,1:0:0:0:
223,214,125402,1,4,0:0:0:0:
257,111,125594,5,2,0:0:0:0:
326,193,125787,1,0,0:0:0:0:
291,295,125979,1,0,1:0:0:0:
326,193,126171,1,0,0:0:0:0:
423,238,126364,1,2,0:0:0:0:
378,336,126556,1,0,0:0:0:0:
423,238,126748,1,0,1:0:0:0:
481,328,126941,1,0,0:0:0:0:
378,336,127133,6,0,P|328:360|284:364,1,83,6|0,0:0|0:0,0:0:0:0:
236,312,127517,2,0,P|286:288|330:284,1,83,0|0,1:0|0:0,0:0:0:0:
301,363,127902,1,2,0:0:0:0:
236,313,128094,1,2,0:0:0:0:
156,328,128287,6,0,L|144:228,1,83,0|0,1:0|0:0,0:0:0:0:
64,232,128671,2,0,L|76:332,1,83,2|0,0:0|0:0,0:0:0:0:
64,232,129056,2,0,L|52:132,1,83,0|0,1:0|0:0,0:0:0:0:
44,68,129441,1,2,0:0:0:0:
124,84,129633,1,2,0:0:0:0:
192,136,129825,6,0,L|204:236,1,83,0|0,1:0|0:0,0:0:0:0:
284,228,130210,2,0,P|336:224|368:200,1,83,2|0,0:0|0:0,0:0:0:0:
384,128,130594,2,0,P|332:132|300:156,1,83,0|0,1:0|0:0,0:0:0:0:
284,228,130979,1,2,0:0:0:0:
228,288,131171,1,2,0:0:0:0:
208,208,131364,2,0,P|260:212|292:236,1,83,0|0,1:0|0:0,0:0:0:0:
228,288,131748,6,0,P|175:292|143:316,1,83,2|0,0:0|0:0,0:0:0:0:
104,240,132133,2,0,L|124:160,1,83,0|0,1:0|0:0,0:0:0:0:
140,80,132517,1,0,0:0:0:0:
224,76,132710,1,0,0:0:0:0:
292,124,132902,1,0,1:0:0:0:
312,204,133094,1,0,0:0:0:0:
268,276,133287,6,0,L|176:272,1,83,2|0,0:0|0:0,0:0:0:0:
144,200,133671,2,0,L|236:204,1,83,0|0,1:0|0:0,0:0:0:0:
312,204,134056,1,2,0:0:0:0:
292,124,134248,1,2,0:0:0:0:
224,76,134441,2,0,L|132:72,1,83,0|0,1:0|0:0,0:0:0:0:
76,124,134825,6,0,P|112:145|152:145,1,83,2|0,0:0|0:0,0:0:0:0:
220,196,135210,2,0,P|257:209|300:201,1,83,0|0,1:0|0:0,0:0:0:0:
348,136,135594,1,2,0:0:0:0:
428,156,135787,1,2,0:0:0:0:
448,236,135979,2,0,P|411:257|371:257,1,83,0|0,1:0|0:0,0:0:0:0:
292,232,136364,6,0,P|244:240|180:296,1,124.5,2|0,0:0|0:0,0:0:0:0:
164,320,136748,2,0,L|120:232,1,83,0|0,1:0|0:0,0:0:0:0:
64,148,137133,1,2,0:0:0:0:
108,49,137325,1,2,0:0:0:0:
207,93,137517,1,0,1:0:0:0:
170,195,137710,1,4,0:0:0:0:
64,148,137902,5,2,0:0:0:0:
164,104,138094,1,0,0:0:0:0:
212,200,138287,1,0,1:0:0:0:
116,252,138479,1,0,0:0:0:0:
64,148,138671,1,2,0:0:0:0:
170,195,138864,1,2,0:0:0:0:
128,296,139056,1,0,1:0:0:0:
28,252,139248,1,0,0:0:0:0:
64,148,139441,6,0,L|64:48,1,83,6|0,0:0|0:0,0:0:0:0:
140,28,139825,2,0,L|140:128,1,83,0|0,1:0|0:0,0:0:0:0:
170,195,140210,1,2,0:0:0:0:
216,264,140402,1,2,0:0:0:0:
284,312,140594,2,0,P|328:308|372:276,1,83,0|0,1:0|0:0,0:0:0:0:
428,244,140979,6,0,P|394:215|340:207,1,83,2|0,0:0|0:0,0:0:0:0:
360,288,141364,2,0,P|364:331|395:375,1,83,0|0,1:0|0:0,0:0:0:0:
456,324,141748,1,2,0:0:0:0:
428,244,141941,1,2,0:0:0:0:
360,200,142133,2,0,P|316:204|272:236,1,83,0|0,1:0|0:0,0:0:0:0:
216,272,142517,6,0,P|249:300|303:308,1,83,2|0,0:0|0:0,0:0:0:0:
284,224,142902,2,0,P|280:180|248:136,1,83,0|0,1:0|0:0,0:0:0:0:
200,92,143287,1,2,0:0:0:0:
124,128,143479,1,2,0:0:0:0:
124,212,143671,2,0,L|136:308,1,83,0|0,1:0|0:0,0:0:0:0:
216,272,144056,6,0,L|204:176,1,83,2|0,0:0|0:0,0:0:0:0:
273,142,144441,2,0,L|285:238,1,83,0|0,1:0|0:0,0:0:0:0:
312,304,144825,1,2,0:0:0:0:
396,304,145018,1,2,0:0:0:0:
448,240,145210,1,0,1:0:0:0:
452,156,145402,1,0,0:0:0:0:
408,84,145594,6,0,P|364:76|312:84,1,83,2|0,0:0|0:0,0:0:0:0:
244,84,145979,2,0,P|252:128|244:180,1,83,0|0,1:0|0:0,0:0:0:0:
256,248,146364,1,2,0:0:0:0:
204,312,146556,1,2,0:0:0:0:
124,332,146748,2,0,L|24:324,1,83,0|0,1:0|0:0,0:0:0:0:
20,244,147133,6,0,L|120:252,1,83,2|0,0:0|0:0,0:0:0:0:
128,172,147517,2,0,L|28:164,1,83,0|0,1:0|0:0,0:0:0:0:
72,88,147902,1,2,0:0:0:0:
156,84,148094,1,2,0:0:0:0:
212,144,148287,2,0,P|252:160|308:156,1,83,0|4,1:0|0:0,0:0:0:0:
368,140,148671,6,0,L|412:48,1,83,2|0,0:0|0:0,0:0:0:0:
300,24,149055,2,0,L|300:107,1,83,0|4,1:0|0:0,0:0:0:0:
212,107,149440,2,0,L|212:24,1,83,2|2,0:0|0:0,0:0:0:0:
136,117,149825,2,0,L|172:192,1,83,0|4,0:0|0:0,0:0:0:0:
340,192,150210,2,0,L|375:117,1,83,2|0,0:0|0:0,0:0:0:0:
136,117,150594,2,0,L|172:192,1,83,2|0,0:0|0:0,0:0:0:0:
256,320,150979,2,0,L|256:224,1,83,0|4,0:0|1:0,0:0:0:0:
256,64,151363,6,0,L|256:160,1,83,0|4,0:0|1:0,0:0:0:0:
256,192,151652,12,0,153287,0:0:0:0:
