osu file format v14

[General]
AudioFilename: 02. Imprinting.mp3
AudioLeadIn: 0
PreviewTime: 60289
Countdown: 0
SampleSet: Normal
StackLeniency: 0.7
Mode: 1
LetterboxInBreaks: 0
WidescreenStoryboard: 0

[Editor]
DistanceSpacing: 0.8
BeatDivisor: 8
GridSize: 32
TimelineZoom: 2.3

[Metadata]
Title:Imprinting
TitleUnicode:Imprinting
Artist:sakuzyo
ArtistUnicode:削除
Creator:Nofool
Version:Inner Oni
Source:
Tags:Steins Nanatsu
BeatmapID:813388
BeatmapSetID:371217

[Difficulty]
HPDrainRate:5
CircleSize:5
OverallDifficulty:6
ApproachRate:5
SliderMultiplier:1.4
SliderTickRate:1

[Events]
//Background and Video events
0,0,"brokenglass1.jpg",0,60
//Break Periods
//Storyboard Layer 0 (Background)
//Storyboard Layer 1 (Fail)
//Storyboard Layer 2 (Pass)
//Storyboard Layer 3 (Foreground)
//Storyboard Sound Samples

[TimingPoints]
2775,342.857142857143,4,1,0,80,1,0
12375,-100,4,1,0,25,0,0
13746,-100,4,1,0,80,0,0
23689,-100,4,1,0,50,0,0
24717,-100,4,1,0,80,0,0
34317,-100,4,1,0,25,0,0
35689,-100,4,1,0,80,0,0
45632,-117.647058823529,4,1,0,50,0,0
46660,-100,4,1,0,80,0,0
57975,-113.636363636364,4,1,0,50,0,0
59003,-111.111111111111,4,1,0,50,0,0
59346,-108.695652173913,4,1,0,50,0,0
59689,-106.382978723404,4,1,0,50,0,0
60032,-103.092783505155,4,1,0,50,0,0
60375,-100,4,1,0,80,0,0
78546,-117.647058823529,4,1,0,50,0,0
78889,-111.111111111111,4,1,0,50,0,0
79232,-105.263157894737,4,1,0,50,0,0
79532,-100,4,1,0,50,0,0
79575,-100,4,1,0,80,0,1
89860,-100,4,1,0,60,0,0
90546,-100,4,1,0,80,0,1
101003,-102.040816326531,4,1,0,80,0,1
101175,-104.166666666667,4,1,0,80,0,1
101346,-106.382978723404,4,1,0,80,0,1
101517,-83.3333333333333,4,1,0,60,0,0
102889,-100,4,1,0,80,0,0
112489,-100,4,1,0,25,0,0
113860,-40,4,1,0,80,0,0

[HitObjects]
256,192,2774,5,4,0:0:0:0:
256,192,3117,1,8,0:0:0:0:
256,192,3289,1,8,0:0:0:0:
256,192,3460,1,8,0:0:0:0:
256,192,3632,1,0,0:0:0:0:
256,192,3803,1,0,0:0:0:0:
256,192,3889,1,0,0:0:0:0:
256,192,3974,1,8,0:0:0:0:
256,192,4146,1,4,0:0:0:0:
256,192,4489,1,8,0:0:0:0:
256,192,4660,1,8,0:0:0:0:
256,192,4832,1,8,0:0:0:0:
256,192,5003,1,0,0:0:0:0:
256,192,5175,1,0,0:0:0:0:
256,192,5260,1,0,0:0:0:0:
256,192,5346,1,8,0:0:0:0:
256,192,5517,1,4,0:0:0:0:
256,192,5860,1,0,0:0:0:0:
256,192,6032,1,8,0:0:0:0:
256,192,6203,1,12,0:0:0:0:
256,192,6546,1,8,0:0:0:0:
256,192,6717,1,0,0:0:0:0:
256,192,6889,1,4,0:0:0:0:
256,192,7232,1,12,0:0:0:0:
256,192,7575,1,4,0:0:0:0:
256,192,7917,1,12,0:0:0:0:
256,192,8260,1,4,0:0:0:0:
256,192,8603,1,8,0:0:0:0:
256,192,8775,1,8,0:0:0:0:
256,192,8946,1,8,0:0:0:0:
256,192,9117,1,0,0:0:0:0:
256,192,9289,1,0,0:0:0:0:
256,192,9375,1,0,0:0:0:0:
256,192,9460,1,8,0:0:0:0:
256,192,9632,1,4,0:0:0:0:
256,192,9975,1,8,0:0:0:0:
256,192,10146,1,8,0:0:0:0:
256,192,10317,1,8,0:0:0:0:
256,192,10489,1,0,0:0:0:0:
256,192,10660,1,0,0:0:0:0:
256,192,10746,1,0,0:0:0:0:
256,192,10832,1,8,0:0:0:0:
256,192,11003,1,4,0:0:0:0:
256,192,11346,1,0,0:0:0:0:
256,192,11517,1,8,0:0:0:0:
256,192,11689,1,12,0:0:0:0:
256,192,12032,1,8,0:0:0:0:
256,192,12203,1,0,0:0:0:0:
256,192,12375,12,0,13575,0:0:0:0:
256,192,13746,5,4,0:0:0:0:
256,192,13917,1,0,0:0:0:0:
256,192,14089,1,8,0:0:0:0:
256,192,14260,1,0,0:0:0:0:
256,192,14346,1,0,0:0:0:0:
256,192,14432,1,0,0:0:0:0:
256,192,14603,1,0,0:0:0:0:
256,192,14775,1,8,0:0:0:0:
256,192,14860,1,0,0:0:0:0:
256,192,14946,1,8,0:0:0:0:
256,192,15032,1,8,0:0:0:0:
256,192,15117,1,0,0:0:0:0:
256,192,15289,1,0,0:0:0:0:
256,192,15460,1,8,0:0:0:0:
256,192,15632,1,0,0:0:0:0:
256,192,15717,1,0,0:0:0:0:
256,192,15803,1,8,0:0:0:0:
256,192,15975,1,0,0:0:0:0:
256,192,16146,1,8,0:0:0:0:
256,192,16232,1,8,0:0:0:0:
256,192,16317,1,0,0:0:0:0:
256,192,16403,1,0,0:0:0:0:
256,192,16489,1,8,0:0:0:0:
256,192,16660,1,0,0:0:0:0:
256,192,16832,1,8,0:0:0:0:
256,192,17003,1,0,0:0:0:0:
256,192,17089,1,0,0:0:0:0:
256,192,17175,1,0,0:0:0:0:
256,192,17346,1,0,0:0:0:0:
256,192,17517,1,8,0:0:0:0:
256,192,17689,1,8,0:0:0:0:
256,192,17775,1,8,0:0:0:0:
256,192,17860,1,0,0:0:0:0:
256,192,18032,1,0,0:0:0:0:
256,192,18203,1,8,0:0:0:0:
256,192,18375,1,0,0:0:0:0:
256,192,18460,1,0,0:0:0:0:
256,192,18546,1,0,0:0:0:0:
256,192,18717,1,0,0:0:0:0:
256,192,18803,1,0,0:0:0:0:
256,192,18889,1,8,0:0:0:0:
256,192,19060,1,0,0:0:0:0:
256,192,19232,1,12,0:0:0:0:
256,192,19575,1,0,0:0:0:0:
256,192,19746,1,8,0:0:0:0:
256,192,19917,1,0,0:0:0:0:
256,192,20089,1,0,0:0:0:0:
256,192,20260,1,0,0:0:0:0:
256,192,20603,1,12,0:0:0:0:
256,192,20946,1,0,0:0:0:0:
256,192,21117,1,8,0:0:0:0:
256,192,21289,1,0,0:0:0:0:
256,192,21460,1,0,0:0:0:0:
256,192,21632,1,8,0:0:0:0:
256,192,21975,1,4,0:0:0:0:
256,192,22317,1,8,0:0:0:0:
256,192,22660,1,4,0:0:0:0:
256,192,23003,1,8,0:0:0:0:
256,192,23346,1,4,0:0:0:0:
256,192,23689,12,0,24546,0:0:0:0:
256,192,24717,5,4,0:0:0:0:
256,192,25060,1,8,0:0:0:0:
256,192,25232,1,8,0:0:0:0:
256,192,25403,1,8,0:0:0:0:
256,192,25575,1,0,0:0:0:0:
256,192,25746,1,0,0:0:0:0:
256,192,25832,1,0,0:0:0:0:
256,192,25917,1,8,0:0:0:0:
256,192,26089,5,4,0:0:0:0:
256,192,26432,1,8,0:0:0:0:
256,192,26604,1,8,0:0:0:0:
256,192,26775,1,8,0:0:0:0:
256,192,26946,1,0,0:0:0:0:
256,192,27118,1,0,0:0:0:0:
256,192,27203,1,0,0:0:0:0:
256,192,27289,1,8,0:0:0:0:
256,192,27460,1,4,0:0:0:0:
256,192,27803,1,0,0:0:0:0:
256,192,27975,1,8,0:0:0:0:
256,192,28146,1,12,0:0:0:0:
256,192,28489,1,8,0:0:0:0:
256,192,28660,1,0,0:0:0:0:
256,192,28832,1,4,0:0:0:0:
256,192,29175,1,12,0:0:0:0:
256,192,29517,1,4,0:0:0:0:
256,192,29860,1,12,0:0:0:0:
256,192,30203,1,4,0:0:0:0:
256,192,30546,1,8,0:0:0:0:
256,192,30718,1,8,0:0:0:0:
256,192,30889,1,8,0:0:0:0:
256,192,31060,1,0,0:0:0:0:
256,192,31232,1,0,0:0:0:0:
256,192,31317,1,0,0:0:0:0:
256,192,31403,1,8,0:0:0:0:
256,192,31575,5,4,0:0:0:0:
256,192,31918,1,8,0:0:0:0:
256,192,32090,1,8,0:0:0:0:
256,192,32261,1,8,0:0:0:0:
256,192,32432,1,0,0:0:0:0:
256,192,32604,1,0,0:0:0:0:
256,192,32689,1,0,0:0:0:0:
256,192,32775,1,8,0:0:0:0:
256,192,32946,1,4,0:0:0:0:
256,192,33289,1,0,0:0:0:0:
256,192,33460,1,8,0:0:0:0:
256,192,33632,1,12,0:0:0:0:
256,192,33975,1,8,0:0:0:0:
256,192,34146,1,0,0:0:0:0:
256,192,34317,12,0,35517,0:0:0:0:
256,192,35689,5,4,0:0:0:0:
256,192,35860,1,0,0:0:0:0:
256,192,36032,1,8,0:0:0:0:
256,192,36117,1,0,0:0:0:0:
256,192,36203,1,8,0:0:0:0:
256,192,36289,1,8,0:0:0:0:
256,192,36375,1,0,0:0:0:0:
256,192,36546,1,0,0:0:0:0:
256,192,36717,1,8,0:0:0:0:
256,192,36803,1,8,0:0:0:0:
256,192,36889,1,0,0:0:0:0:
256,192,36975,1,0,0:0:0:0:
256,192,37060,1,8,0:0:0:0:
256,192,37232,1,0,0:0:0:0:
256,192,37403,1,8,0:0:0:0:
256,192,37489,1,0,0:0:0:0:
256,192,37575,1,8,0:0:0:0:
256,192,37660,1,0,0:0:0:0:
256,192,37746,1,8,0:0:0:0:
256,192,37917,1,8,0:0:0:0:
256,192,38089,1,0,0:0:0:0:
256,192,38175,1,0,0:0:0:0:
256,192,38260,1,8,0:0:0:0:
256,192,38432,1,0,0:0:0:0:
256,192,38603,1,0,0:0:0:0:
256,192,38775,1,8,0:0:0:0:
256,192,38860,1,0,0:0:0:0:
256,192,38946,1,8,0:0:0:0:
256,192,39032,1,8,0:0:0:0:
256,192,39117,1,0,0:0:0:0:
256,192,39289,1,0,0:0:0:0:
256,192,39460,1,8,0:0:0:0:
256,192,39546,1,8,0:0:0:0:
256,192,39632,1,0,0:0:0:0:
256,192,39717,1,8,0:0:0:0:
256,192,39803,1,0,0:0:0:0:
256,192,39975,1,0,0:0:0:0:
256,192,40146,1,8,0:0:0:0:
256,192,40232,1,8,0:0:0:0:
256,192,40317,1,0,0:0:0:0:
256,192,40403,1,0,0:0:0:0:
256,192,40489,1,8,0:0:0:0:
256,192,40660,1,8,0:0:0:0:
256,192,40832,1,0,0:0:0:0:
256,192,41003,1,8,0:0:0:0:
256,192,41175,1,12,0:0:0:0:
256,192,41517,1,0,0:0:0:0:
256,192,41689,1,8,0:0:0:0:
256,192,41860,1,0,0:0:0:0:
256,192,42032,1,0,0:0:0:0:
256,192,42203,1,0,0:0:0:0:
256,192,42546,1,12,0:0:0:0:
256,192,42889,1,0,0:0:0:0:
256,192,43060,1,8,0:0:0:0:
256,192,43232,1,0,0:0:0:0:
256,192,43403,1,0,0:0:0:0:
256,192,43575,1,8,0:0:0:0:
256,192,43917,1,4,0:0:0:0:
256,192,44260,1,8,0:0:0:0:
256,192,44603,1,4,0:0:0:0:
256,192,44946,1,8,0:0:0:0:
256,192,45289,1,4,0:0:0:0:
256,192,45632,1,8,0:0:0:0:
256,192,45975,1,8,0:0:0:0:
256,192,46232,1,0,0:0:0:0:
256,192,46489,1,8,0:0:0:0:
256,192,46660,1,4,0:0:0:0:
256,192,46832,1,0,0:0:0:0:
256,192,46917,1,0,0:0:0:0:
256,192,47003,1,8,0:0:0:0:
256,192,47175,1,8,0:0:0:0:
256,192,47346,1,0,0:0:0:0:
256,192,47432,1,0,0:0:0:0:
256,192,47517,1,0,0:0:0:0:
256,192,47603,1,0,0:0:0:0:
256,192,47689,1,8,0:0:0:0:
256,192,47860,1,8,0:0:0:0:
256,192,47946,1,8,0:0:0:0:
256,192,48032,1,0,0:0:0:0:
256,192,48203,1,0,0:0:0:0:
256,192,48289,1,0,0:0:0:0:
256,192,48375,1,8,0:0:0:0:
256,192,48546,1,8,0:0:0:0:
256,192,48717,1,0,0:0:0:0:
256,192,48803,1,0,0:0:0:0:
256,192,48889,1,8,0:0:0:0:
256,192,48975,1,0,0:0:0:0:
256,192,49060,1,8,0:0:0:0:
256,192,49232,1,8,0:0:0:0:
256,192,49403,1,0,0:0:0:0:
256,192,49575,1,8,0:0:0:0:
256,192,49660,1,8,0:0:0:0:
256,192,49746,1,0,0:0:0:0:
256,192,49917,1,0,0:0:0:0:
256,192,50089,1,8,0:0:0:0:
256,192,50260,1,0,0:0:0:0:
256,192,50346,1,0,0:0:0:0:
256,192,50432,1,0,0:0:0:0:
256,192,50603,1,0,0:0:0:0:
256,192,50775,1,8,0:0:0:0:
256,192,50946,1,8,0:0:0:0:
256,192,51032,1,8,0:0:0:0:
256,192,51117,1,0,0:0:0:0:
256,192,51289,1,0,0:0:0:0:
256,192,51460,1,8,0:0:0:0:
256,192,51546,1,0,0:0:0:0:
256,192,51717,1,0,0:0:0:0:
256,192,51803,1,8,0:0:0:0:
256,192,51975,1,8,0:0:0:0:
256,192,52146,1,0,0:0:0:0:
256,192,52317,1,0,0:0:0:0:
256,192,52403,1,0,0:0:0:0:
256,192,52489,1,8,0:0:0:0:
256,192,52660,1,8,0:0:0:0:
256,192,52832,1,0,0:0:0:0:
256,192,52917,1,0,0:0:0:0:
256,192,53003,1,0,0:0:0:0:
256,192,53089,1,0,0:0:0:0:
256,192,53175,1,8,0:0:0:0:
256,192,53346,1,8,0:0:0:0:
256,192,53432,1,8,0:0:0:0:
256,192,53517,1,0,0:0:0:0:
256,192,53689,1,0,0:0:0:0:
256,192,53775,1,0,0:0:0:0:
256,192,53860,1,8,0:0:0:0:
256,192,54032,1,8,0:0:0:0:
256,192,54203,1,0,0:0:0:0:
256,192,54375,1,0,0:0:0:0:
256,192,54460,1,0,0:0:0:0:
256,192,54546,1,8,0:0:0:0:
256,192,54717,1,8,0:0:0:0:
256,192,54889,1,4,0:0:0:0:
256,192,55232,1,8,0:0:0:0:
256,192,55317,1,8,0:0:0:0:
256,192,55403,1,0,0:0:0:0:
256,192,55489,1,0,0:0:0:0:
256,192,55575,1,8,0:0:0:0:
256,192,55746,1,4,0:0:0:0:
256,192,55917,1,4,0:0:0:0:
256,192,56089,1,4,0:0:0:0:
256,192,56260,1,4,0:0:0:0:
256,192,56603,1,8,0:0:0:0:
256,192,56689,1,8,0:0:0:0:
256,192,56775,1,8,0:0:0:0:
256,192,56860,1,0,0:0:0:0:
256,192,56946,1,8,0:0:0:0:
256,192,57117,1,4,0:0:0:0:
256,192,57289,1,4,0:0:0:0:
256,192,57460,1,4,0:0:0:0:
256,192,57632,1,8,0:0:0:0:
256,192,57975,1,0,0:0:0:0:
256,192,58232,1,8,0:0:0:0:
256,192,58317,1,0,0:0:0:0:
256,192,58489,1,0,0:0:0:0:
256,192,58660,1,0,0:0:0:0:
256,192,58832,1,8,0:0:0:0:
256,192,59003,1,0,0:0:0:0:
256,192,59346,1,0,0:0:0:0:
256,192,59689,1,0,0:0:0:0:
256,192,60032,1,8,0:0:0:0:
256,192,60375,1,4,0:0:0:0:
256,192,60546,1,0,0:0:0:0:
256,192,60717,1,8,0:0:0:0:
256,192,60803,1,0,0:0:0:0:
256,192,60889,1,8,0:0:0:0:
256,192,60975,1,8,0:0:0:0:
256,192,61060,1,0,0:0:0:0:
256,192,61232,1,0,0:0:0:0:
256,192,61403,1,8,0:0:0:0:
256,192,61489,1,8,0:0:0:0:
256,192,61575,1,0,0:0:0:0:
256,192,61660,1,8,0:0:0:0:
256,192,61746,1,0,0:0:0:0:
256,192,61917,1,0,0:0:0:0:
256,192,62089,1,8,0:0:0:0:
256,192,62260,1,0,0:0:0:0:
256,192,62346,1,8,0:0:0:0:
256,192,62432,1,0,0:0:0:0:
256,192,62517,1,8,0:0:0:0:
256,192,62603,1,0,0:0:0:0:
256,192,62775,1,8,0:0:0:0:
256,192,62946,1,8,0:0:0:0:
256,192,63032,1,8,0:0:0:0:
256,192,63117,1,0,0:0:0:0:
256,192,63289,1,0,0:0:0:0:
256,192,63460,1,8,0:0:0:0:
256,192,63803,1,0,0:0:0:0:
256,192,63975,1,0,0:0:0:0:
256,192,64146,1,8,0:0:0:0:
256,192,64317,1,0,0:0:0:0:
256,192,64403,1,8,0:0:0:0:
256,192,64489,1,0,0:0:0:0:
256,192,64660,1,0,0:0:0:0:
256,192,64832,1,8,0:0:0:0:
256,192,65175,1,0,0:0:0:0:
256,192,65346,1,0,0:0:0:0:
256,192,65517,1,8,0:0:0:0:
256,192,65689,1,0,0:0:0:0:
256,192,65775,1,0,0:0:0:0:
256,192,65860,1,0,0:0:0:0:
256,192,66032,1,0,0:0:0:0:
256,192,66203,1,8,0:0:0:0:
256,192,66289,1,0,0:0:0:0:
256,192,66375,1,8,0:0:0:0:
256,192,66460,1,8,0:0:0:0:
256,192,66546,1,0,0:0:0:0:
256,192,66718,1,0,0:0:0:0:
256,192,66889,1,8,0:0:0:0:
256,192,66975,1,8,0:0:0:0:
256,192,67061,1,0,0:0:0:0:
256,192,67146,1,8,0:0:0:0:
256,192,67232,1,0,0:0:0:0:
256,192,67403,1,0,0:0:0:0:
256,192,67575,1,8,0:0:0:0:
256,192,67746,1,0,0:0:0:0:
256,192,67832,1,8,0:0:0:0:
256,192,67918,1,0,0:0:0:0:
256,192,68003,1,8,0:0:0:0:
256,192,68089,1,0,0:0:0:0:
256,192,68261,1,8,0:0:0:0:
256,192,68432,1,8,0:0:0:0:
256,192,68518,1,8,0:0:0:0:
256,192,68603,1,0,0:0:0:0:
256,192,68775,1,0,0:0:0:0:
256,192,68946,1,8,0:0:0:0:
256,192,69289,1,0,0:0:0:0:
256,192,69632,1,8,0:0:0:0:
256,192,69975,1,0,0:0:0:0:
256,192,70060,1,0,0:0:0:0:
256,192,70146,1,0,0:0:0:0:
256,192,70232,1,0,0:0:0:0:
256,192,70317,1,0,0:0:0:0:
256,192,70489,1,0,0:0:0:0:
256,192,70660,1,8,0:0:0:0:
256,192,70832,1,0,0:0:0:0:
256,192,70917,1,0,0:0:0:0:
256,192,71003,1,8,0:0:0:0:
256,192,71175,1,8,0:0:0:0:
256,192,71346,1,4,0:0:0:0:
256,192,71517,1,0,0:0:0:0:
256,192,71689,1,8,0:0:0:0:
256,192,71775,1,0,0:0:0:0:
256,192,71860,1,8,0:0:0:0:
256,192,71946,1,8,0:0:0:0:
256,192,72032,1,0,0:0:0:0:
256,192,72203,1,0,0:0:0:0:
256,192,72375,1,8,0:0:0:0:
256,192,72460,1,8,0:0:0:0:
256,192,72546,1,0,0:0:0:0:
256,192,72632,1,8,0:0:0:0:
256,192,72717,1,0,0:0:0:0:
256,192,72889,1,0,0:0:0:0:
256,192,73060,1,8,0:0:0:0:
256,192,73232,1,0,0:0:0:0:
256,192,73317,1,8,0:0:0:0:
256,192,73403,1,0,0:0:0:0:
256,192,73489,1,8,0:0:0:0:
256,192,73575,1,0,0:0:0:0:
256,192,73746,1,8,0:0:0:0:
256,192,73917,1,8,0:0:0:0:
256,192,74003,1,8,0:0:0:0:
256,192,74089,1,0,0:0:0:0:
256,192,74260,1,0,0:0:0:0:
256,192,74432,1,8,0:0:0:0:
256,192,74603,1,8,0:0:0:0:
256,192,74689,1,8,0:0:0:0:
256,192,74775,1,0,0:0:0:0:
256,192,74946,1,0,0:0:0:0:
256,192,75117,1,8,0:0:0:0:
256,192,75289,1,8,0:0:0:0:
256,192,75375,1,8,0:0:0:0:
256,192,75460,1,0,0:0:0:0:
256,192,75632,1,0,0:0:0:0:
256,192,75717,1,0,0:0:0:0:
256,192,75803,1,0,0:0:0:0:
256,192,75975,1,0,0:0:0:0:
256,192,76060,1,0,0:0:0:0:
256,192,76146,1,8,0:0:0:0:
256,192,76317,1,0,0:0:0:0:
256,192,76403,1,0,0:0:0:0:
256,192,76489,1,8,0:0:0:0:
256,192,76660,1,8,0:0:0:0:
256,192,76832,2,0,L|416:192,3,140
256,192,78203,5,4,0:0:0:0:
256,192,78546,1,8,0:0:0:0:
256,192,78889,1,0,0:0:0:0:
256,192,79232,1,8,0:0:0:0:
256,192,79289,1,8,0:0:0:0:
256,192,79346,1,8,0:0:0:0:
256,192,79403,1,8,0:0:0:0:
256,192,79575,1,4,0:0:0:0:
256,192,79746,1,0,0:0:0:0:
256,192,79917,1,8,0:0:0:0:
256,192,80003,1,8,0:0:0:0:
256,192,80089,1,0,0:0:0:0:
256,192,80175,1,8,0:0:0:0:
256,192,80260,1,0,0:0:0:0:
256,192,80432,1,0,0:0:0:0:
256,192,80603,1,8,0:0:0:0:
256,192,80689,1,0,0:0:0:0:
256,192,80775,1,8,0:0:0:0:
256,192,80860,1,0,0:0:0:0:
256,192,80946,1,8,0:0:0:0:
256,192,81117,1,8,0:0:0:0:
256,192,81289,1,0,0:0:0:0:
256,192,81375,1,0,0:0:0:0:
256,192,81460,1,8,0:0:0:0:
256,192,81632,1,0,0:0:0:0:
256,192,81803,1,0,0:0:0:0:
256,192,81975,1,8,0:0:0:0:
256,192,82146,1,0,0:0:0:0:
256,192,82317,1,8,0:0:0:0:
256,192,82403,1,8,0:0:0:0:
256,192,82489,1,0,0:0:0:0:
256,192,82575,1,0,0:0:0:0:
256,192,82660,1,8,0:0:0:0:
256,192,82746,1,0,0:0:0:0:
256,192,82832,1,0,0:0:0:0:
256,192,82917,1,0,0:0:0:0:
256,192,83003,1,8,0:0:0:0:
256,192,83089,1,8,0:0:0:0:
256,192,83175,1,0,0:0:0:0:
256,192,83260,1,0,0:0:0:0:
256,192,83346,1,8,0:0:0:0:
256,192,83432,1,8,0:0:0:0:
256,192,83517,1,8,0:0:0:0:
256,192,83603,1,8,0:0:0:0:
256,192,83689,1,0,0:0:0:0:
256,192,83775,1,0,0:0:0:0:
256,192,83860,1,8,0:0:0:0:
256,192,83946,1,8,0:0:0:0:
256,192,84032,1,0,0:0:0:0:
256,192,84117,1,0,0:0:0:0:
256,192,84203,1,8,0:0:0:0:
256,192,84289,1,0,0:0:0:0:
256,192,84375,1,8,0:0:0:0:
256,192,84546,1,0,0:0:0:0:
256,192,84717,1,8,0:0:0:0:
256,192,84889,1,0,0:0:0:0:
256,192,85060,1,4,0:0:0:0:
256,192,85232,1,0,0:0:0:0:
256,192,85403,1,8,0:0:0:0:
256,192,85489,1,8,0:0:0:0:
256,192,85575,1,0,0:0:0:0:
256,192,85660,1,8,0:0:0:0:
256,192,85746,1,0,0:0:0:0:
256,192,85917,1,0,0:0:0:0:
256,192,86089,1,8,0:0:0:0:
256,192,86175,1,8,0:0:0:0:
256,192,86260,1,0,0:0:0:0:
256,192,86346,1,0,0:0:0:0:
256,192,86432,1,8,0:0:0:0:
256,192,86603,1,8,0:0:0:0:
256,192,86775,1,0,0:0:0:0:
256,192,86946,1,0,0:0:0:0:
256,192,87117,1,8,0:0:0:0:
256,192,87289,1,0,0:0:0:0:
256,192,87460,1,0,0:0:0:0:
256,192,87632,1,8,0:0:0:0:
256,192,87803,1,0,0:0:0:0:
256,192,87889,1,0,0:0:0:0:
256,192,87975,1,8,0:0:0:0:
256,192,88060,1,0,0:0:0:0:
256,192,88146,1,0,0:0:0:0:
256,192,88232,1,0,0:0:0:0:
256,192,88317,1,8,0:0:0:0:
256,192,88403,1,0,0:0:0:0:
256,192,88489,1,8,0:0:0:0:
256,192,88575,1,8,0:0:0:0:
256,192,88660,1,8,0:0:0:0:
256,192,88746,1,0,0:0:0:0:
256,192,88832,1,8,0:0:0:0:
256,192,88917,1,8,0:0:0:0:
256,192,89003,1,8,0:0:0:0:
256,192,89089,1,0,0:0:0:0:
256,192,89175,1,8,0:0:0:0:
256,192,89346,1,0,0:0:0:0:
256,192,89517,1,0,0:0:0:0:
256,192,89689,1,8,0:0:0:0:
256,192,89860,1,0,0:0:0:0:
256,192,90032,1,0,0:0:0:0:
256,192,90203,1,8,0:0:0:0:
256,192,90375,1,0,0:0:0:0:
256,192,90546,1,4,0:0:0:0:
256,192,90717,1,0,0:0:0:0:
256,192,90889,1,8,0:0:0:0:
256,192,90975,1,8,0:0:0:0:
256,192,91060,1,0,0:0:0:0:
256,192,91146,1,8,0:0:0:0:
256,192,91232,1,0,0:0:0:0:
256,192,91403,1,0,0:0:0:0:
256,192,91575,1,8,0:0:0:0:
256,192,91660,1,0,0:0:0:0:
256,192,91746,1,8,0:0:0:0:
256,192,91832,1,0,0:0:0:0:
256,192,91917,1,8,0:0:0:0:
256,192,92089,1,8,0:0:0:0:
256,192,92260,1,0,0:0:0:0:
256,192,92346,1,0,0:0:0:0:
256,192,92432,1,8,0:0:0:0:
256,192,92603,1,0,0:0:0:0:
256,192,92775,1,0,0:0:0:0:
256,192,92946,1,8,0:0:0:0:
256,192,93117,1,0,0:0:0:0:
256,192,93289,1,8,0:0:0:0:
256,192,93375,1,8,0:0:0:0:
256,192,93460,1,0,0:0:0:0:
256,192,93546,1,0,0:0:0:0:
256,192,93632,1,8,0:0:0:0:
256,192,93717,1,0,0:0:0:0:
256,192,93803,1,0,0:0:0:0:
256,192,93889,1,0,0:0:0:0:
256,192,93975,1,8,0:0:0:0:
256,192,94060,1,8,0:0:0:0:
256,192,94146,1,0,0:0:0:0:
256,192,94232,1,0,0:0:0:0:
256,192,94317,1,8,0:0:0:0:
256,192,94403,1,8,0:0:0:0:
256,192,94489,1,8,0:0:0:0:
256,192,94575,1,8,0:0:0:0:
256,192,94660,1,0,0:0:0:0:
256,192,94746,1,0,0:0:0:0:
256,192,94832,1,8,0:0:0:0:
256,192,94917,1,8,0:0:0:0:
256,192,95003,1,0,0:0:0:0:
256,192,95089,1,0,0:0:0:0:
256,192,95175,1,8,0:0:0:0:
256,192,95260,1,0,0:0:0:0:
256,192,95346,1,8,0:0:0:0:
256,192,95517,1,0,0:0:0:0:
256,192,95689,1,8,0:0:0:0:
256,192,95860,1,0,0:0:0:0:
256,192,96032,1,4,0:0:0:0:
256,192,96204,1,0,0:0:0:0:
256,192,96375,1,8,0:0:0:0:
256,192,96460,1,8,0:0:0:0:
256,192,96547,1,0,0:0:0:0:
256,192,96632,1,8,0:0:0:0:
256,192,96718,1,0,0:0:0:0:
256,192,96889,1,0,0:0:0:0:
256,192,97061,1,8,0:0:0:0:
256,192,97146,1,8,0:0:0:0:
256,192,97232,1,0,0:0:0:0:
256,192,97318,1,0,0:0:0:0:
256,192,97404,1,8,0:0:0:0:
256,192,97575,1,8,0:0:0:0:
256,192,97747,1,0,0:0:0:0:
256,192,97918,1,0,0:0:0:0:
256,192,98089,1,8,0:0:0:0:
256,192,98261,1,0,0:0:0:0:
256,192,98432,1,0,0:0:0:0:
256,192,98603,1,8,0:0:0:0:
256,192,98775,1,0,0:0:0:0:
256,192,98861,1,0,0:0:0:0:
256,192,98947,1,8,0:0:0:0:
256,192,99032,1,8,0:0:0:0:
256,192,99118,1,0,0:0:0:0:
256,192,99203,1,8,0:0:0:0:
256,192,99289,1,0,0:0:0:0:
256,192,99375,1,0,0:0:0:0:
256,192,99461,1,8,0:0:0:0:
256,192,99547,1,0,0:0:0:0:
256,192,99632,1,0,0:0:0:0:
256,192,99717,1,0,0:0:0:0:
256,192,99804,1,8,0:0:0:0:
256,192,99889,1,0,0:0:0:0:
256,192,99975,1,8,0:0:0:0:
256,192,100060,1,8,0:0:0:0:
256,192,100146,1,0,0:0:0:0:
256,192,100232,1,0,0:0:0:0:
256,192,100317,1,0,0:0:0:0:
256,192,100403,1,0,0:0:0:0:
256,192,100489,1,8,0:0:0:0:
256,192,100575,1,8,0:0:0:0:
256,192,100660,1,8,0:0:0:0:
256,192,100746,1,0,0:0:0:0:
256,192,100832,1,8,0:0:0:0:
256,192,101003,1,8,0:0:0:0:
256,192,101175,1,8,0:0:0:0:
256,192,101346,1,8,0:0:0:0:
256,192,101517,5,0,0:0:0:0:
256,192,101689,1,8,0:0:0:0:
256,192,101775,1,8,0:0:0:0:
256,192,101860,1,8,0:0:0:0:
256,192,102032,1,0,0:0:0:0:
256,192,102203,1,8,0:0:0:0:
256,192,102289,1,8,0:0:0:0:
256,192,102375,1,8,0:0:0:0:
256,192,102546,1,0,0:0:0:0:
256,192,102889,5,4,0:0:0:0:
256,192,103232,1,8,0:0:0:0:
256,192,103404,1,8,0:0:0:0:
256,192,103575,1,8,0:0:0:0:
256,192,103746,1,0,0:0:0:0:
256,192,103918,1,0,0:0:0:0:
256,192,104003,1,0,0:0:0:0:
256,192,104089,1,8,0:0:0:0:
256,192,104261,1,4,0:0:0:0:
256,192,104604,1,8,0:0:0:0:
256,192,104775,1,8,0:0:0:0:
256,192,104947,1,8,0:0:0:0:
256,192,105117,1,0,0:0:0:0:
256,192,105290,1,0,0:0:0:0:
256,192,105375,1,0,0:0:0:0:
256,192,105460,1,8,0:0:0:0:
256,192,105632,1,4,0:0:0:0:
256,192,105975,1,0,0:0:0:0:
256,192,106146,1,8,0:0:0:0:
256,192,106318,1,12,0:0:0:0:
256,192,106660,1,8,0:0:0:0:
256,192,106832,1,0,0:0:0:0:
256,192,107004,1,4,0:0:0:0:
256,192,107347,1,12,0:0:0:0:
256,192,107690,1,4,0:0:0:0:
256,192,108032,1,12,0:0:0:0:
256,192,108375,1,4,0:0:0:0:
256,192,108718,1,8,0:0:0:0:
256,192,108890,1,8,0:0:0:0:
256,192,109061,1,8,0:0:0:0:
256,192,109232,1,0,0:0:0:0:
256,192,109404,1,0,0:0:0:0:
256,192,109489,1,0,0:0:0:0:
256,192,109575,1,8,0:0:0:0:
256,192,109747,1,4,0:0:0:0:
256,192,110090,1,8,0:0:0:0:
256,192,110261,1,8,0:0:0:0:
256,192,110432,1,8,0:0:0:0:
256,192,110603,1,0,0:0:0:0:
256,192,110775,1,0,0:0:0:0:
256,192,110860,1,0,0:0:0:0:
256,192,110946,1,8,0:0:0:0:
256,192,111118,1,4,0:0:0:0:
256,192,111460,1,0,0:0:0:0:
256,192,111632,1,8,0:0:0:0:
256,192,111804,1,12,0:0:0:0:
256,192,112146,1,8,0:0:0:0:
256,192,112317,1,0,0:0:0:0:
256,192,112489,12,0,113689,0:0:0:0:
256,192,113860,5,8,0:0:0:0:
