osu file format v14

[General]
AudioFilename: 02. Imprinting.mp3
AudioLeadIn: 1500
PreviewTime: 79545
Countdown: 0
SampleSet: None
StackLeniency: 0.7
Mode: 3
LetterboxInBreaks: 0
SpecialStyle: 0
WidescreenStoryboard: 0

[Editor]
DistanceSpacing: 1
BeatDivisor: 8
GridSize: 16
TimelineZoom: 1.450001

[Metadata]
Title:Imprinting
TitleUnicode:Imprinting
Artist:sakuzyo
ArtistUnicode:sakuzyo
Creator:Fullerene-
Version:Template
Source:Pump It Up PRIME Japanese Edition
Tags:fairythm DVSP-0127
BeatmapID:742794
BeatmapSetID:335568

[Difficulty]
HPDrainRate:8
CircleSize:4
OverallDifficulty:7
ApproachRate:9
SliderMultiplier:1.4
SliderTickRate:1

[Events]
//Background and Video events
0,0,"bg.png",0,0
//Break Periods
//Storyboard Layer 0 (Background)
//Storyboard Layer 1 (Fail)
//Storyboard Layer 2 (Pass)
//Storyboard Layer 3 (Foreground)
//Storyboard Sound Samples

[TimingPoints]
2746,342.857,4,1,0,15,1,0
12345,-105.263157894737,4,1,0,15,0,0
13545,-100,4,1,0,15,0,0
13588,-95.2380952380952,4,1,0,15,0,0
13631,-90.9090909090909,4,1,0,15,0,0
13674,-86.9565217391304,4,1,0,15,0,0
13717,-100,4,1,0,15,0,0
21945,-80,4,1,0,15,0,0
22031,-100,4,1,0,15,0,0
22631,-80,4,1,0,15,0,0
22717,-100,4,1,0,15,0,0
23317,-80,4,1,0,15,0,0
23403,-100,4,1,0,15,0,0
24517,-95.2380952380952,4,1,0,15,0,0
24560,-90.9090909090909,4,1,0,15,0,0
24603,-86.9565217391304,4,1,0,15,0,0
24645,-83.3333333333333,4,1,0,15,0,0
24688,-100,4,1,0,15,0,0
34288,-105.263157894737,4,1,0,15,0,0
35145,-55.5555555555556,4,1,0,15,0,0
35167,-1000,4,1,0,15,0,0
35188,-55.5555555555556,4,1,0,15,0,0
35210,-1000,4,1,0,15,0,0
35231,-55.5555555555556,4,1,0,15,0,0
35253,-1000,4,1,0,15,0,0
35274,-55.5555555555556,4,1,0,15,0,0
35295,-1000,4,1,0,15,0,0
35317,-105.263157894737,4,1,0,15,0,0
35488,-55.5555555555556,4,1,0,15,0,0
35510,-1000,4,1,0,15,0,0
35531,-105.263157894737,4,1,0,15,0,0
35574,-55.5555555555556,4,1,0,15,0,0
35595,-1000,4,1,0,15,0,0
35617,-105.263157894737,4,1,0,15,0,0
35660,-100,4,1,0,15,0,0
43888,-80,4,1,0,15,0,0
43974,-100,4,1,0,15,0,0
44574,-80,4,1,0,15,0,0
44660,-100,4,1,0,15,0,0
45260,-80,4,1,0,15,0,0
45345,-100,4,1,0,15,0,0
45431,-58.8235294117647,4,1,0,15,0,0
45453,-333.333333333333,4,1,0,15,0,0
45474,-58.8235294117647,4,1,0,15,0,0
45495,-333.333333333333,4,1,0,15,0,0
45517,-58.8235294117647,4,1,0,15,0,0
45538,-333.333333333333,4,1,0,15,0,0
45560,-58.8235294117647,4,1,0,15,0,0
45581,-333.333333333333,4,1,0,15,0,0
45603,-111.111111111111,4,1,0,15,0,0
46631,-100,4,1,0,15,0,0
55717,-80,4,1,0,15,0,0
55803,-133.333333333333,4,1,0,15,0,0
55888,-80,4,1,0,15,0,0
55974,-133.333333333333,4,1,0,15,0,0
56060,-80,4,1,0,15,0,0
56145,-133.333333333333,4,1,0,15,0,0
56231,-80,4,1,0,15,0,0
56317,-133.333333333333,4,1,0,15,0,0
56403,-100,4,1,0,15,0,0
57088,-80,4,1,0,15,0,0
57174,-133.333333333333,4,1,0,15,0,0
57260,-80,4,1,0,15,0,0
57345,-133.333333333333,4,1,0,15,0,0
57431,-80,4,1,0,15,0,0
57517,-133.333333333333,4,1,0,15,0,0
57603,-80,4,1,0,15,0,0
57688,-133.333333333333,4,1,0,15,0,0
57774,-58.8235294117647,4,1,0,15,0,0
57795,-333.333333333333,4,1,0,15,0,0
57817,-58.8235294117647,4,1,0,15,0,0
57838,-333.333333333333,4,1,0,15,0,0
57860,-58.8235294117647,4,1,0,15,0,0
57881,-333.333333333333,4,1,0,15,0,0
57903,-58.8235294117647,4,1,0,15,0,0
57924,-333.333333333333,4,1,0,15,0,0
57945,-111.111111111111,4,1,0,15,0,0
60174,-100,4,1,0,15,0,0
60217,-95.2380952380952,4,1,0,15,0,0
60260,-90.9090909090909,4,1,0,15,0,0
60303,-86.9565217391304,4,1,0,15,0,0
60345,-100,4,1,0,15,0,0
78174,-80,4,1,0,15,0,0
78260,-100,4,1,0,15,0,0
79203,-66.6666666666667,4,1,0,15,0,0
79224,-200,4,1,0,15,0,0
79245,-66.6666666666667,4,1,0,15,0,0
79267,-200,4,1,0,15,0,0
79288,-66.6666666666667,4,1,0,15,0,0
79310,-200,4,1,0,15,0,0
79331,-66.6666666666667,4,1,0,15,0,0
79353,-200,4,1,0,15,0,0
79374,-66.6666666666667,4,1,0,15,0,0
79395,-200,4,1,0,15,0,0
79417,-66.6666666666667,4,1,0,15,0,0
79438,-200,4,1,0,15,0,0
79460,-66.6666666666667,4,1,0,15,0,0
79481,-200,4,1,0,15,0,0
79503,-66.6666666666667,4,1,0,15,0,0
79524,-200,4,1,0,15,0,0
79545,-100,4,1,0,15,0,0
89831,-80,4,1,0,15,0,0
89917,-133.333333333333,4,1,0,15,0,0
90003,-80,4,1,0,15,0,0
90088,-133.333333333333,4,1,0,15,0,0
90174,-80,4,1,0,15,0,0
90260,-133.333333333333,4,1,0,15,0,0
90345,-80,4,1,0,15,0,0
90431,-133.333333333333,4,1,0,15,0,0
90517,-100,4,1,0,15,0,0
98745,-99.009900990099,4,1,0,15,0,0
99431,-98.0392156862745,4,1,0,15,0,0
100117,-97.0873786407767,4,1,0,15,0,0
100803,-96.1538461538461,4,1,0,15,0,0
101488,-58.8235294117647,4,1,0,15,0,0
101510,-250,4,1,0,15,0,0
101531,-58.8235294117647,4,1,0,15,0,0
101553,-250,4,1,0,15,0,0
101574,-58.8235294117647,4,1,0,15,0,0
101595,-250,4,1,0,15,0,0
101617,-58.8235294117647,4,1,0,15,0,0
101638,-250,4,1,0,15,0,0
101660,-95.2380952380952,4,1,0,15,0,0
102003,-58.8235294117647,4,1,0,15,0,0
102024,-250,4,1,0,15,0,0
102045,-58.8235294117647,4,1,0,15,0,0
102067,-250,4,1,0,15,0,0
102088,-58.8235294117647,4,1,0,15,0,0
102110,-250,4,1,0,15,0,0
102131,-58.8235294117647,4,1,0,15,0,0
102153,-250,4,1,0,15,0,0
102174,-95.2380952380952,4,1,0,15,0,0
102517,-58.8235294117647,4,1,0,15,0,0
102538,-250,4,1,0,15,0,0
102560,-58.8235294117647,4,1,0,15,0,0
102581,-250,4,1,0,15,0,0
102603,-95.2380952380952,4,1,0,15,0,0
102860,-100,4,1,0,15,0,0
112460,-105.263157894737,4,1,0,15,0,0
113660,-100,4,1,0,15,0,0
113703,-95.2380952380952,4,1,0,15,0,0
113745,-90.9090909090909,4,1,0,15,0,0
113788,-86.9565217391304,4,1,0,15,0,0
113831,-100,4,1,0,15,0,0

[HitObjects]
64,0,2746,5,0,0:0:0:0:
192,0,2746,1,0,0:0:0:0:
448,0,2746,1,0,0:0:0:0:
64,0,2917,1,0,0:0:0:0:
192,0,3088,1,0,0:0:0:0:
448,0,3260,1,0,0:0:0:0:
320,0,3431,1,0,0:0:0:0:
64,0,3603,1,0,0:0:0:0:
320,0,3774,1,0,0:0:0:0:
448,0,3774,1,0,0:0:0:0:
64,0,3860,1,0,0:0:0:0:
192,0,3945,1,0,0:0:0:0:
320,0,4031,1,0,0:0:0:0:
64,0,4117,1,0,0:0:0:0:
192,0,4117,1,0,0:0:0:0:
448,0,4117,1,0,0:0:0:0:
64,0,4288,1,0,0:0:0:0:
192,0,4460,1,0,0:0:0:0:
448,0,4631,1,0,0:0:0:0:
320,0,4803,1,0,0:0:0:0:
64,0,4974,1,0,0:0:0:0:
320,0,5145,1,0,0:0:0:0:
448,0,5145,1,0,0:0:0:0:
64,0,5231,1,0,0:0:0:0:
192,0,5317,1,0,0:0:0:0:
320,0,5403,1,0,0:0:0:0:
64,0,5488,1,0,0:0:0:0:
192,0,5488,1,0,0:0:0:0:
448,0,5488,1,0,0:0:0:0:
64,0,5660,1,0,0:0:0:0:
192,0,5831,1,0,0:0:0:0:
448,0,6003,1,0,0:0:0:0:
64,0,6174,1,0,0:0:0:0:
192,0,6174,1,0,0:0:0:0:
320,0,6174,1,0,0:0:0:0:
192,0,6345,1,0,0:0:0:0:
448,0,6517,1,0,0:0:0:0:
320,0,6688,1,0,0:0:0:0:
64,0,6860,1,0,0:0:0:0:
448,0,6860,1,0,0:0:0:0:
192,0,6945,1,0,0:0:0:0:
320,0,7031,1,0,0:0:0:0:
448,0,7117,1,0,0:0:0:0:
64,0,7203,1,0,0:0:0:0:
192,0,7203,1,0,0:0:0:0:
448,0,7288,1,0,0:0:0:0:
320,0,7374,1,0,0:0:0:0:
192,0,7460,1,0,0:0:0:0:
64,0,7545,1,0,0:0:0:0:
448,0,7545,1,0,0:0:0:0:
320,0,7631,1,0,0:0:0:0:
192,0,7717,1,0,0:0:0:0:
448,0,7803,1,0,0:0:0:0:
64,0,7888,1,0,0:0:0:0:
320,0,7888,1,0,0:0:0:0:
448,0,7974,1,0,0:0:0:0:
192,0,8060,1,0,0:0:0:0:
320,0,8145,1,0,0:0:0:0:
64,0,8231,1,0,0:0:0:0:
192,0,8231,1,0,0:0:0:0:
448,0,8231,1,0,0:0:0:0:
64,0,8403,1,0,0:0:0:0:
192,0,8574,1,0,0:0:0:0:
448,0,8745,1,0,0:0:0:0:
320,0,8917,1,0,0:0:0:0:
192,0,9088,1,0,0:0:0:0:
64,0,9260,1,0,0:0:0:0:
448,0,9260,1,0,0:0:0:0:
192,0,9345,1,0,0:0:0:0:
320,0,9431,1,0,0:0:0:0:
448,0,9517,1,0,0:0:0:0:
64,0,9603,1,0,0:0:0:0:
192,0,9603,1,0,0:0:0:0:
320,0,9603,1,0,0:0:0:0:
64,0,9774,1,0,0:0:0:0:
192,0,9945,1,0,0:0:0:0:
448,0,10117,1,0,0:0:0:0:
320,0,10288,1,0,0:0:0:0:
192,0,10460,1,0,0:0:0:0:
64,0,10631,1,0,0:0:0:0:
448,0,10631,1,0,0:0:0:0:
192,0,10717,1,0,0:0:0:0:
320,0,10803,1,0,0:0:0:0:
448,0,10888,1,0,0:0:0:0:
64,0,10974,1,0,0:0:0:0:
192,0,10974,1,0,0:0:0:0:
320,0,10974,1,0,0:0:0:0:
64,192,11145,128,0,11203:0:0:0:0:
192,192,11317,128,0,11374:0:0:0:0:
320,192,11488,128,0,11545:0:0:0:0:
64,0,11660,1,0,0:0:0:0:
192,0,11660,1,0,0:0:0:0:
448,0,11660,1,0,0:0:0:0:
448,192,11831,128,0,11917:0:0:0:0:
320,192,12003,128,0,12088:0:0:0:0:
192,192,12174,128,0,12260:0:0:0:0:
64,0,12345,1,0,0:0:0:0:
448,0,12345,128,0,12517:0:0:0:0:
320,0,12431,1,0,0:0:0:0:
192,0,12517,1,0,0:0:0:0:
64,0,12603,1,0,0:0:0:0:
320,0,12688,128,0,12774:0:0:0:0:
192,0,12774,1,0,0:0:0:0:
448,0,12860,1,0,0:0:0:0:
64,0,12945,1,0,0:0:0:0:
448,0,13031,128,0,13117:0:0:0:0:
320,0,13117,1,0,0:0:0:0:
192,0,13203,1,0,0:0:0:0:
64,0,13288,1,0,0:0:0:0:
320,0,13374,128,0,13460:0:0:0:0:
64,0,13460,1,0,0:0:0:0:
192,0,13545,1,0,0:0:0:0:
320,0,13631,1,0,0:0:0:0:
64,0,13717,1,0,0:0:0:0:
192,0,13717,1,0,0:0:0:0:
448,0,13717,1,0,0:0:0:0:
64,0,13888,1,0,0:0:0:0:
192,0,14060,1,0,0:0:0:0:
448,0,14060,1,0,0:0:0:0:
320,0,14145,1,0,0:0:0:0:
192,0,14231,1,0,0:0:0:0:
320,0,14317,1,0,0:0:0:0:
64,0,14403,1,0,0:0:0:0:
448,0,14403,1,0,0:0:0:0:
64,0,14574,1,0,0:0:0:0:
192,0,14745,1,0,0:0:0:0:
320,0,14745,1,0,0:0:0:0:
448,0,14831,1,0,0:0:0:0:
192,0,14917,1,0,0:0:0:0:
448,0,15003,1,0,0:0:0:0:
64,0,15088,1,0,0:0:0:0:
320,0,15088,1,0,0:0:0:0:
320,0,15260,1,0,0:0:0:0:
64,0,15431,1,0,0:0:0:0:
448,0,15431,1,0,0:0:0:0:
192,0,15517,1,0,0:0:0:0:
64,0,15603,1,0,0:0:0:0:
192,0,15688,1,0,0:0:0:0:
320,0,15774,1,0,0:0:0:0:
448,0,15774,1,0,0:0:0:0:
320,0,15945,1,0,0:0:0:0:
64,0,16117,1,0,0:0:0:0:
448,0,16117,1,0,0:0:0:0:
320,0,16203,1,0,0:0:0:0:
64,0,16288,1,0,0:0:0:0:
320,0,16374,1,0,0:0:0:0:
192,0,16460,1,0,0:0:0:0:
448,0,16460,1,0,0:0:0:0:
192,0,16631,1,0,0:0:0:0:
320,0,16803,1,0,0:0:0:0:
448,0,16803,1,0,0:0:0:0:
64,0,16888,1,0,0:0:0:0:
320,0,16974,1,0,0:0:0:0:
64,0,17060,1,0,0:0:0:0:
192,0,17145,1,0,0:0:0:0:
448,0,17145,1,0,0:0:0:0:
192,0,17317,1,0,0:0:0:0:
64,0,17488,1,0,0:0:0:0:
320,0,17488,1,0,0:0:0:0:
192,0,17574,1,0,0:0:0:0:
320,0,17660,1,0,0:0:0:0:
192,0,17745,1,0,0:0:0:0:
64,0,17831,1,0,0:0:0:0:
448,0,17831,1,0,0:0:0:0:
448,0,18003,1,0,0:0:0:0:
64,0,18174,128,0,18217:0:0:0:0:
192,0,18174,128,0,18217:0:0:0:0:
320,0,18260,128,0,18303:0:0:0:0:
192,0,18345,128,0,18388:0:0:0:0:
64,0,18431,128,0,18474:0:0:0:0:
320,0,18517,128,0,18574:0:0:0:0:
448,0,18517,128,0,18574:0:0:0:0:
192,0,18603,128,0,18660:0:0:0:0:
448,0,18688,128,0,18774:0:0:0:0:
320,0,18774,128,0,18860:0:0:0:0:
64,0,18860,1,0,0:0:0:0:
192,0,18860,1,0,0:0:0:0:
320,0,18945,1,0,0:0:0:0:
192,0,19031,1,0,0:0:0:0:
64,0,19117,1,0,0:0:0:0:
192,0,19203,1,0,0:0:0:0:
320,0,19203,1,0,0:0:0:0:
448,0,19203,1,0,0:0:0:0:
448,0,19374,1,0,0:0:0:0:
320,0,19460,1,0,0:0:0:0:
192,0,19545,1,0,0:0:0:0:
64,0,19631,1,0,0:0:0:0:
448,0,19717,1,0,0:0:0:0:
320,0,19803,1,0,0:0:0:0:
192,0,19888,1,0,0:0:0:0:
192,0,20060,1,0,0:0:0:0:
192,0,20231,1,0,0:0:0:0:
448,0,20231,1,0,0:0:0:0:
64,0,20317,1,0,0:0:0:0:
320,0,20403,128,0,20488:0:0:0:0:
448,0,20403,1,0,0:0:0:0:
192,0,20488,1,0,0:0:0:0:
64,0,20574,1,0,0:0:0:0:
320,0,20574,1,0,0:0:0:0:
448,0,20574,1,0,0:0:0:0:
448,0,20745,1,0,0:0:0:0:
192,0,20831,1,0,0:0:0:0:
320,0,20917,1,0,0:0:0:0:
64,0,21003,1,0,0:0:0:0:
448,0,21088,1,0,0:0:0:0:
320,0,21174,1,0,0:0:0:0:
64,0,21260,1,0,0:0:0:0:
320,0,21431,1,0,0:0:0:0:
192,0,21603,1,0,0:0:0:0:
448,0,21603,1,0,0:0:0:0:
64,0,21774,128,0,21860:0:0:0:0:
320,0,21774,1,0,0:0:0:0:
192,0,21860,1,0,0:0:0:0:
64,0,21945,1,0,0:0:0:0:
320,0,21945,1,0,0:0:0:0:
448,0,21945,1,0,0:0:0:0:
192,0,22288,1,0,0:0:0:0:
448,0,22288,1,0,0:0:0:0:
64,0,22460,128,0,22545:0:0:0:0:
64,0,22631,1,0,0:0:0:0:
320,0,22631,1,0,0:0:0:0:
448,0,22631,1,0,0:0:0:0:
192,0,22974,1,0,0:0:0:0:
448,0,22974,1,0,0:0:0:0:
64,0,23145,128,0,23231:0:0:0:0:
192,0,23145,1,0,0:0:0:0:
64,0,23317,1,0,0:0:0:0:
320,0,23317,1,0,0:0:0:0:
448,0,23317,1,0,0:0:0:0:
64,0,23660,128,0,24603:0:0:0:0:
192,0,23660,128,0,24145:0:0:0:0:
320,0,23660,128,0,24003:0:0:0:0:
64,0,24688,1,0,0:0:0:0:
192,0,24688,1,0,0:0:0:0:
448,0,24688,1,0,0:0:0:0:
64,0,24860,1,0,0:0:0:0:
192,0,25031,1,0,0:0:0:0:
448,0,25203,1,0,0:0:0:0:
320,0,25374,1,0,0:0:0:0:
192,0,25545,1,0,0:0:0:0:
64,0,25717,1,0,0:0:0:0:
448,0,25717,1,0,0:0:0:0:
192,0,25803,1,0,0:0:0:0:
320,0,25888,1,0,0:0:0:0:
448,0,25974,1,0,0:0:0:0:
64,0,26060,1,0,0:0:0:0:
192,0,26060,1,0,0:0:0:0:
320,0,26060,1,0,0:0:0:0:
64,0,26231,1,0,0:0:0:0:
192,0,26403,1,0,0:0:0:0:
448,0,26574,1,0,0:0:0:0:
320,0,26745,1,0,0:0:0:0:
192,0,26917,1,0,0:0:0:0:
64,0,27088,1,0,0:0:0:0:
448,0,27088,1,0,0:0:0:0:
192,0,27174,1,0,0:0:0:0:
320,0,27260,1,0,0:0:0:0:
448,0,27345,1,0,0:0:0:0:
64,0,27431,1,0,0:0:0:0:
192,0,27431,1,0,0:0:0:0:
320,0,27431,1,0,0:0:0:0:
64,0,27603,1,0,0:0:0:0:
192,0,27774,1,0,0:0:0:0:
320,0,27945,1,0,0:0:0:0:
64,0,28117,1,0,0:0:0:0:
320,0,28117,1,0,0:0:0:0:
448,0,28117,1,0,0:0:0:0:
192,0,28288,1,0,0:0:0:0:
448,0,28460,1,0,0:0:0:0:
320,0,28631,1,0,0:0:0:0:
64,0,28803,1,0,0:0:0:0:
448,0,28803,1,0,0:0:0:0:
192,0,28888,1,0,0:0:0:0:
320,0,28974,1,0,0:0:0:0:
448,0,29060,1,0,0:0:0:0:
64,0,29145,1,0,0:0:0:0:
192,0,29145,1,0,0:0:0:0:
448,0,29231,1,0,0:0:0:0:
320,0,29317,1,0,0:0:0:0:
192,0,29403,1,0,0:0:0:0:
64,0,29488,1,0,0:0:0:0:
448,0,29488,1,0,0:0:0:0:
320,0,29574,1,0,0:0:0:0:
192,0,29660,1,0,0:0:0:0:
448,0,29745,1,0,0:0:0:0:
64,0,29831,1,0,0:0:0:0:
320,0,29831,1,0,0:0:0:0:
448,0,29917,1,0,0:0:0:0:
192,0,30003,1,0,0:0:0:0:
320,0,30088,1,0,0:0:0:0:
64,0,30174,1,0,0:0:0:0:
192,0,30174,1,0,0:0:0:0:
448,0,30174,1,0,0:0:0:0:
64,0,30345,1,0,0:0:0:0:
192,0,30517,1,0,0:0:0:0:
448,0,30688,1,0,0:0:0:0:
320,0,30860,1,0,0:0:0:0:
64,0,31031,1,0,0:0:0:0:
320,0,31203,1,0,0:0:0:0:
448,0,31203,1,0,0:0:0:0:
64,0,31288,1,0,0:0:0:0:
192,0,31374,1,0,0:0:0:0:
320,0,31460,1,0,0:0:0:0:
64,0,31545,1,0,0:0:0:0:
192,0,31545,1,0,0:0:0:0:
448,0,31545,1,0,0:0:0:0:
64,0,31717,1,0,0:0:0:0:
192,0,31888,1,0,0:0:0:0:
448,0,32060,1,0,0:0:0:0:
320,0,32231,1,0,0:0:0:0:
64,0,32403,1,0,0:0:0:0:
320,0,32574,1,0,0:0:0:0:
448,0,32574,1,0,0:0:0:0:
64,0,32660,1,0,0:0:0:0:
192,0,32745,1,0,0:0:0:0:
320,0,32831,1,0,0:0:0:0:
64,0,32917,1,0,0:0:0:0:
192,0,32917,1,0,0:0:0:0:
448,0,32917,1,0,0:0:0:0:
64,0,33088,128,0,33145:0:0:0:0:
192,0,33260,128,0,33317:0:0:0:0:
320,0,33431,128,0,33488:0:0:0:0:
64,0,33603,1,0,0:0:0:0:
192,0,33603,1,0,0:0:0:0:
448,0,33603,1,0,0:0:0:0:
192,0,33774,128,0,33860:0:0:0:0:
448,0,33945,128,0,34031:0:0:0:0:
64,0,34117,128,0,34203:0:0:0:0:
320,0,34288,1,0,0:0:0:0:
448,0,34288,128,0,34460:0:0:0:0:
192,0,34374,1,0,0:0:0:0:
320,0,34460,1,0,0:0:0:0:
64,0,34545,1,0,0:0:0:0:
192,0,34631,128,0,34717:0:0:0:0:
64,0,34717,1,0,0:0:0:0:
448,0,34803,1,0,0:0:0:0:
192,0,34888,1,0,0:0:0:0:
320,0,34974,128,0,35060:0:0:0:0:
64,0,35060,1,0,0:0:0:0:
192,0,35145,128,0,35317:0:0:0:0:
320,0,35317,1,0,0:0:0:0:
64,0,35360,1,0,0:0:0:0:
448,0,35403,1,0,0:0:0:0:
192,0,35445,1,0,0:0:0:0:
320,0,35488,128,0,35574:0:0:0:0:
192,0,35574,128,0,35660:0:0:0:0:
64,0,35660,1,0,0:0:0:0:
320,0,35660,1,0,0:0:0:0:
448,0,35660,1,0,0:0:0:0:
192,0,35831,1,0,0:0:0:0:
64,0,36003,1,0,0:0:0:0:
448,0,36003,1,0,0:0:0:0:
64,0,36174,1,0,0:0:0:0:
192,0,36345,1,0,0:0:0:0:
448,0,36345,1,0,0:0:0:0:
448,0,36517,1,0,0:0:0:0:
192,0,36688,1,0,0:0:0:0:
320,0,36688,1,0,0:0:0:0:
192,0,36860,1,0,0:0:0:0:
64,0,36945,1,0,0:0:0:0:
320,0,37031,1,0,0:0:0:0:
448,0,37031,1,0,0:0:0:0:
64,0,37117,1,0,0:0:0:0:
320,0,37203,1,0,0:0:0:0:
192,0,37374,1,0,0:0:0:0:
448,0,37374,1,0,0:0:0:0:
320,0,37460,1,0,0:0:0:0:
192,0,37545,1,0,0:0:0:0:
320,0,37717,1,0,0:0:0:0:
448,0,37717,1,0,0:0:0:0:
448,0,37888,1,0,0:0:0:0:
320,0,37974,1,0,0:0:0:0:
64,0,38060,1,0,0:0:0:0:
192,0,38060,1,0,0:0:0:0:
448,0,38145,1,0,0:0:0:0:
192,0,38231,1,0,0:0:0:0:
320,0,38317,1,0,0:0:0:0:
64,0,38403,1,0,0:0:0:0:
448,0,38403,1,0,0:0:0:0:
192,0,38431,1,0,0:0:0:0:
320,0,38460,1,0,0:0:0:0:
64,0,38574,1,0,0:0:0:0:
192,0,38745,1,0,0:0:0:0:
448,0,38745,1,0,0:0:0:0:
320,0,38831,1,0,0:0:0:0:
192,0,38917,1,0,0:0:0:0:
64,0,39003,1,0,0:0:0:0:
320,0,39088,1,0,0:0:0:0:
448,0,39088,1,0,0:0:0:0:
320,0,39260,1,0,0:0:0:0:
192,0,39431,1,0,0:0:0:0:
448,0,39431,1,0,0:0:0:0:
192,0,39603,1,0,0:0:0:0:
320,0,39688,1,0,0:0:0:0:
64,0,39774,128,0,39817:0:0:0:0:
448,0,39774,128,0,39817:0:0:0:0:
64,0,39945,128,0,39988:0:0:0:0:
192,0,40117,128,0,40174:0:0:0:0:
448,0,40117,128,0,40174:0:0:0:0:
448,0,40288,128,0,40345:0:0:0:0:
64,0,40460,128,0,40545:0:0:0:0:
192,0,40460,128,0,40545:0:0:0:0:
192,0,40631,128,0,40717:0:0:0:0:
320,0,40803,1,0,0:0:0:0:
448,0,40803,1,0,0:0:0:0:
192,0,40974,1,0,0:0:0:0:
64,0,41145,1,0,0:0:0:0:
192,0,41145,1,0,0:0:0:0:
448,0,41145,1,0,0:0:0:0:
448,0,41317,1,0,0:0:0:0:
320,0,41403,1,0,0:0:0:0:
448,0,41488,1,0,0:0:0:0:
192,0,41574,1,0,0:0:0:0:
320,0,41660,1,0,0:0:0:0:
64,0,41745,1,0,0:0:0:0:
192,0,41831,1,0,0:0:0:0:
192,0,42003,1,0,0:0:0:0:
192,0,42174,1,0,0:0:0:0:
448,0,42174,1,0,0:0:0:0:
64,0,42260,1,0,0:0:0:0:
320,0,42345,128,0,42431:0:0:0:0:
448,0,42345,1,0,0:0:0:0:
192,0,42431,1,0,0:0:0:0:
64,0,42517,1,0,0:0:0:0:
320,0,42517,1,0,0:0:0:0:
448,0,42517,1,0,0:0:0:0:
192,0,42688,1,0,0:0:0:0:
448,0,42774,1,0,0:0:0:0:
320,0,42860,1,0,0:0:0:0:
192,0,42945,1,0,0:0:0:0:
64,0,43031,1,0,0:0:0:0:
320,0,43117,1,0,0:0:0:0:
64,0,43203,1,0,0:0:0:0:
320,0,43374,1,0,0:0:0:0:
192,0,43545,1,0,0:0:0:0:
448,0,43545,1,0,0:0:0:0:
64,0,43717,128,0,43803:0:0:0:0:
320,0,43717,1,0,0:0:0:0:
192,0,43803,1,0,0:0:0:0:
64,0,43888,1,0,0:0:0:0:
320,0,43888,1,0,0:0:0:0:
448,0,43888,1,0,0:0:0:0:
192,0,44231,1,0,0:0:0:0:
448,0,44231,1,0,0:0:0:0:
64,0,44403,128,0,44488:0:0:0:0:
64,0,44574,1,0,0:0:0:0:
320,0,44574,1,0,0:0:0:0:
448,0,44574,1,0,0:0:0:0:
192,0,44917,1,0,0:0:0:0:
448,0,44917,1,0,0:0:0:0:
64,0,45088,128,0,45174:0:0:0:0:
192,0,45088,1,0,0:0:0:0:
64,0,45260,1,0,0:0:0:0:
320,0,45260,1,0,0:0:0:0:
448,0,45260,1,0,0:0:0:0:
192,0,45431,128,0,45603:0:0:0:0:
64,0,45603,1,0,0:0:0:0:
320,0,45603,1,0,0:0:0:0:
320,0,45945,1,0,0:0:0:0:
192,0,46203,1,0,0:0:0:0:
448,0,46460,1,0,0:0:0:0:
64,0,46631,1,0,0:0:0:0:
320,0,46631,1,0,0:0:0:0:
448,0,46631,1,0,0:0:0:0:
192,0,46803,1,0,0:0:0:0:
448,0,46803,1,0,0:0:0:0:
192,0,46974,1,0,0:0:0:0:
320,0,46974,1,0,0:0:0:0:
64,0,47145,1,0,0:0:0:0:
320,0,47145,1,0,0:0:0:0:
192,0,47317,1,0,0:0:0:0:
448,0,47317,1,0,0:0:0:0:
192,0,47488,1,0,0:0:0:0:
320,0,47488,1,0,0:0:0:0:
64,0,47660,1,0,0:0:0:0:
448,0,47660,1,0,0:0:0:0:
192,0,47831,1,0,0:0:0:0:
448,0,47831,1,0,0:0:0:0:
64,0,48003,1,0,0:0:0:0:
320,0,48003,1,0,0:0:0:0:
192,0,48174,1,0,0:0:0:0:
448,0,48174,1,0,0:0:0:0:
320,0,48345,1,0,0:0:0:0:
448,0,48345,1,0,0:0:0:0:
192,0,48517,1,0,0:0:0:0:
320,0,48517,1,0,0:0:0:0:
64,0,48688,1,0,0:0:0:0:
192,0,48688,1,0,0:0:0:0:
64,0,48860,1,0,0:0:0:0:
320,0,48860,1,0,0:0:0:0:
192,0,49031,1,0,0:0:0:0:
448,0,49031,1,0,0:0:0:0:
64,0,49203,1,0,0:0:0:0:
192,0,49203,1,0,0:0:0:0:
320,0,49288,1,0,0:0:0:0:
64,0,49374,1,0,0:0:0:0:
448,0,49374,1,0,0:0:0:0:
192,0,49545,1,0,0:0:0:0:
448,0,49545,1,0,0:0:0:0:
64,0,49717,1,0,0:0:0:0:
192,0,49717,1,0,0:0:0:0:
320,0,49888,1,0,0:0:0:0:
448,0,49888,1,0,0:0:0:0:
192,0,50060,1,0,0:0:0:0:
320,0,50060,1,0,0:0:0:0:
192,0,50231,1,0,0:0:0:0:
448,0,50231,1,0,0:0:0:0:
64,0,50403,1,0,0:0:0:0:
320,0,50403,1,0,0:0:0:0:
192,0,50574,1,0,0:0:0:0:
320,0,50574,1,0,0:0:0:0:
320,0,50745,1,0,0:0:0:0:
448,0,50745,1,0,0:0:0:0:
192,0,50917,1,0,0:0:0:0:
448,0,50917,1,0,0:0:0:0:
64,0,51088,1,0,0:0:0:0:
192,0,51088,1,0,0:0:0:0:
64,0,51260,1,0,0:0:0:0:
320,0,51260,1,0,0:0:0:0:
192,0,51431,128,0,51474:0:0:0:0:
320,0,51431,128,0,51474:0:0:0:0:
64,0,51603,128,0,51645:0:0:0:0:
192,0,51774,128,0,51831:0:0:0:0:
320,0,51774,128,0,51831:0:0:0:0:
64,0,51945,128,0,52003:0:0:0:0:
192,0,52031,128,0,52088:0:0:0:0:
320,0,52117,1,0,0:0:0:0:
448,0,52117,1,0,0:0:0:0:
192,0,52288,1,0,0:0:0:0:
320,0,52288,1,0,0:0:0:0:
64,0,52460,1,0,0:0:0:0:
192,0,52460,1,0,0:0:0:0:
64,0,52631,1,0,0:0:0:0:
320,0,52631,1,0,0:0:0:0:
320,0,52803,1,0,0:0:0:0:
448,0,52803,1,0,0:0:0:0:
64,0,52974,1,0,0:0:0:0:
192,0,52974,1,0,0:0:0:0:
320,0,53145,1,0,0:0:0:0:
448,0,53145,1,0,0:0:0:0:
192,0,53317,1,0,0:0:0:0:
448,0,53317,1,0,0:0:0:0:
64,0,53488,1,0,0:0:0:0:
320,0,53488,1,0,0:0:0:0:
192,0,53660,1,0,0:0:0:0:
448,0,53660,1,0,0:0:0:0:
192,0,53831,1,0,0:0:0:0:
320,0,53831,1,0,0:0:0:0:
64,0,54003,1,0,0:0:0:0:
320,0,54003,1,0,0:0:0:0:
64,0,54174,1,0,0:0:0:0:
192,0,54174,1,0,0:0:0:0:
192,0,54345,1,0,0:0:0:0:
320,0,54345,1,0,0:0:0:0:
320,0,54517,1,0,0:0:0:0:
448,0,54517,1,0,0:0:0:0:
64,0,54688,1,0,0:0:0:0:
192,0,54688,1,0,0:0:0:0:
320,0,54774,1,0,0:0:0:0:
64,0,54860,1,0,0:0:0:0:
192,0,54860,1,0,0:0:0:0:
448,0,54860,1,0,0:0:0:0:
320,0,55031,1,0,0:0:0:0:
192,0,55117,1,0,0:0:0:0:
64,0,55203,1,0,0:0:0:0:
320,0,55288,1,0,0:0:0:0:
192,0,55374,1,0,0:0:0:0:
448,0,55460,1,0,0:0:0:0:
320,0,55545,1,0,0:0:0:0:
64,0,55717,1,0,0:0:0:0:
448,0,55717,1,0,0:0:0:0:
64,0,55888,1,0,0:0:0:0:
448,0,55888,1,0,0:0:0:0:
64,0,56060,1,0,0:0:0:0:
448,0,56060,1,0,0:0:0:0:
64,0,56231,1,0,0:0:0:0:
192,0,56231,1,0,0:0:0:0:
448,0,56231,1,0,0:0:0:0:
320,0,56403,128,0,56460:0:0:0:0:
192,0,56488,128,0,56545:0:0:0:0:
64,0,56574,128,0,56631:0:0:0:0:
320,0,56660,128,0,56717:0:0:0:0:
192,0,56745,128,0,56803:0:0:0:0:
448,0,56831,128,0,56888:0:0:0:0:
320,0,56917,128,0,56974:0:0:0:0:
64,0,57088,1,0,0:0:0:0:
448,0,57088,1,0,0:0:0:0:
320,192,57088,128,0,57145:0:0:0:0:
64,0,57260,1,0,0:0:0:0:
448,0,57260,1,0,0:0:0:0:
320,192,57260,128,0,57317:0:0:0:0:
64,0,57431,1,0,0:0:0:0:
448,0,57431,1,0,0:0:0:0:
320,192,57431,128,0,57488:0:0:0:0:
192,0,57603,1,0,0:0:0:0:
320,0,57603,1,0,0:0:0:0:
448,0,57603,1,0,0:0:0:0:
64,0,57774,128,0,57945:0:0:0:0:
192,0,57945,1,0,0:0:0:0:
448,0,57945,1,0,0:0:0:0:
320,0,58203,1,0,0:0:0:0:
192,0,58288,1,0,0:0:0:0:
64,0,58460,1,0,0:0:0:0:
192,0,58631,1,0,0:0:0:0:
320,0,58803,1,0,0:0:0:0:
448,0,58974,1,0,0:0:0:0:
192,0,59317,1,0,0:0:0:0:
320,0,59660,1,0,0:0:0:0:
448,0,60003,1,0,0:0:0:0:
64,0,60345,1,0,0:0:0:0:
192,0,60345,128,0,60860:0:0:0:0:
448,0,60345,1,0,0:0:0:0:
320,0,60517,1,0,0:0:0:0:
64,0,60688,1,0,0:0:0:0:
448,0,60688,1,0,0:0:0:0:
448,0,60860,1,0,0:0:0:0:
64,0,61031,1,0,0:0:0:0:
320,0,61031,128,0,61374:0:0:0:0:
192,0,61203,1,0,0:0:0:0:
64,0,61374,1,0,0:0:0:0:
448,0,61374,1,0,0:0:0:0:
320,0,61488,1,0,0:0:0:0:
448,0,61545,1,0,0:0:0:0:
192,0,61603,1,0,0:0:0:0:
64,0,61717,128,0,62231:0:0:0:0:
320,0,61717,1,0,0:0:0:0:
192,0,61888,1,0,0:0:0:0:
320,0,62060,1,0,0:0:0:0:
448,0,62060,1,0,0:0:0:0:
192,0,62231,1,0,0:0:0:0:
64,0,62403,1,0,0:0:0:0:
448,0,62403,128,0,62745:0:0:0:0:
320,0,62574,1,0,0:0:0:0:
64,0,62745,1,0,0:0:0:0:
192,0,62745,1,0,0:0:0:0:
448,0,62860,1,0,0:0:0:0:
64,0,62917,1,0,0:0:0:0:
192,0,62974,1,0,0:0:0:0:
320,0,63088,128,0,63603:0:0:0:0:
448,0,63088,1,0,0:0:0:0:
64,0,63260,1,0,0:0:0:0:
448,0,63431,1,0,0:0:0:0:
192,0,63460,1,0,0:0:0:0:
64,0,63603,1,0,0:0:0:0:
192,0,63774,128,0,64117:0:0:0:0:
320,0,63803,1,0,0:0:0:0:
64,0,63945,1,0,0:0:0:0:
320,192,64117,128,0,64288:0:0:0:0:
448,0,64145,1,0,0:0:0:0:
64,192,64288,128,0,64460:0:0:0:0:
192,0,64460,1,0,0:0:0:0:
320,0,64460,128,0,64974:0:0:0:0:
64,0,64631,1,0,0:0:0:0:
192,0,64803,1,0,0:0:0:0:
448,0,64831,1,0,0:0:0:0:
64,0,64974,1,0,0:0:0:0:
64,0,65145,128,0,65660:0:0:0:0:
192,0,65174,1,0,0:0:0:0:
320,0,65317,1,0,0:0:0:0:
192,0,65488,1,0,0:0:0:0:
320,0,65488,1,0,0:0:0:0:
448,0,65660,1,0,0:0:0:0:
64,0,65831,1,0,0:0:0:0:
192,0,65831,128,0,66345:0:0:0:0:
320,0,65831,1,0,0:0:0:0:
320,0,66003,1,0,0:0:0:0:
64,0,66174,1,0,0:0:0:0:
448,0,66174,1,0,0:0:0:0:
320,0,66345,1,0,0:0:0:0:
64,0,66517,1,0,0:0:0:0:
320,0,66517,128,0,66860:0:0:0:0:
192,0,66688,1,0,0:0:0:0:
64,0,66860,1,0,0:0:0:0:
448,0,66860,1,0,0:0:0:0:
320,0,66974,1,0,0:0:0:0:
448,0,67031,1,0,0:0:0:0:
192,0,67088,1,0,0:0:0:0:
64,0,67203,128,0,67717:0:0:0:0:
320,0,67203,1,0,0:0:0:0:
192,0,67374,1,0,0:0:0:0:
320,0,67545,1,0,0:0:0:0:
448,0,67545,1,0,0:0:0:0:
192,0,67717,1,0,0:0:0:0:
320,0,67888,1,0,0:0:0:0:
448,0,67888,128,0,68231:0:0:0:0:
64,0,68060,1,0,0:0:0:0:
192,0,68231,1,0,0:0:0:0:
320,0,68231,1,0,0:0:0:0:
448,0,68345,1,0,0:0:0:0:
64,0,68403,1,0,0:0:0:0:
320,0,68460,1,0,0:0:0:0:
64,0,68574,128,0,69088:0:0:0:0:
192,0,68574,1,0,0:0:0:0:
320,0,68745,1,0,0:0:0:0:
448,0,68917,1,0,0:0:0:0:
192,192,68945,1,0,0:0:0:0:
320,0,69088,1,0,0:0:0:0:
192,0,69260,128,0,69603:0:0:0:0:
320,192,69288,1,0,0:0:0:0:
448,0,69431,1,0,0:0:0:0:
64,0,69603,128,0,69774:0:0:0:0:
448,192,69631,1,0,0:0:0:0:
192,0,69774,128,0,69945:0:0:0:0:
64,0,69945,1,0,0:0:0:0:
320,0,69945,128,0,70460:0:0:0:0:
192,0,70117,1,0,0:0:0:0:
64,0,70288,1,0,0:0:0:0:
448,192,70317,1,0,0:0:0:0:
192,0,70460,1,0,0:0:0:0:
448,0,70631,128,0,71203:0:0:0:0:
64,192,70660,1,0,0:0:0:0:
192,0,70803,1,0,0:0:0:0:
64,0,70974,1,0,0:0:0:0:
320,0,70974,1,0,0:0:0:0:
64,0,71145,1,0,0:0:0:0:
192,0,71317,128,0,71831:0:0:0:0:
320,0,71317,1,0,0:0:0:0:
448,0,71317,1,0,0:0:0:0:
64,0,71488,1,0,0:0:0:0:
320,0,71660,1,0,0:0:0:0:
448,0,71660,1,0,0:0:0:0:
64,0,71831,1,0,0:0:0:0:
320,0,72003,1,0,0:0:0:0:
448,0,72003,128,0,72345:0:0:0:0:
192,0,72174,1,0,0:0:0:0:
64,0,72345,1,0,0:0:0:0:
320,0,72345,1,0,0:0:0:0:
448,0,72517,1,0,0:0:0:0:
192,0,72603,1,0,0:0:0:0:
64,0,72688,1,0,0:0:0:0:
320,0,72688,128,0,73203:0:0:0:0:
448,0,72860,1,0,0:0:0:0:
64,0,73031,1,0,0:0:0:0:
192,0,73031,1,0,0:0:0:0:
448,0,73203,1,0,0:0:0:0:
192,0,73374,1,0,0:0:0:0:
448,0,73374,128,0,73717:0:0:0:0:
64,0,73545,1,0,0:0:0:0:
192,0,73717,1,0,0:0:0:0:
320,0,73717,1,0,0:0:0:0:
448,0,73888,1,0,0:0:0:0:
192,0,73974,1,0,0:0:0:0:
64,0,74060,128,0,74574:0:0:0:0:
320,0,74060,1,0,0:0:0:0:
192,0,74231,1,0,0:0:0:0:
320,0,74403,1,0,0:0:0:0:
448,0,74431,1,0,0:0:0:0:
192,0,74574,1,0,0:0:0:0:
192,0,74745,128,0,75260:0:0:0:0:
320,0,74774,1,0,0:0:0:0:
448,0,74917,1,0,0:0:0:0:
64,0,75088,1,0,0:0:0:0:
448,0,75117,1,0,0:0:0:0:
320,0,75260,1,0,0:0:0:0:
64,0,75431,1,0,0:0:0:0:
320,0,75431,128,0,75945:0:0:0:0:
192,0,75603,1,0,0:0:0:0:
64,0,75774,1,0,0:0:0:0:
448,0,75803,1,0,0:0:0:0:
192,0,75945,1,0,0:0:0:0:
448,0,76117,128,0,76631:0:0:0:0:
64,0,76145,1,0,0:0:0:0:
192,0,76288,1,0,0:0:0:0:
64,0,76460,1,0,0:0:0:0:
192,0,76460,1,0,0:0:0:0:
320,0,76631,1,0,0:0:0:0:
64,0,76803,1,0,0:0:0:0:
448,0,76803,1,0,0:0:0:0:
320,0,76803,128,0,78088:0:0:0:0:
192,0,76888,1,0,0:0:0:0:
448,0,76974,1,0,0:0:0:0:
64,0,77060,1,0,0:0:0:0:
192,0,77145,1,0,0:0:0:0:
448,0,77231,1,0,0:0:0:0:
192,0,77317,1,0,0:0:0:0:
64,0,77403,1,0,0:0:0:0:
448,0,77488,1,0,0:0:0:0:
64,0,77574,1,0,0:0:0:0:
192,0,77660,1,0,0:0:0:0:
448,0,77745,1,0,0:0:0:0:
192,0,77831,1,0,0:0:0:0:
64,0,77917,1,0,0:0:0:0:
448,0,78003,1,0,0:0:0:0:
64,0,78088,1,0,0:0:0:0:
192,0,78174,1,0,0:0:0:0:
320,0,78174,1,0,0:0:0:0:
448,0,78174,1,0,0:0:0:0:
64,0,78517,1,0,0:0:0:0:
192,0,78560,1,0,0:0:0:0:
320,0,78603,1,0,0:0:0:0:
448,0,78645,1,0,0:0:0:0:
64,0,78688,1,0,0:0:0:0:
192,0,78731,1,0,0:0:0:0:
320,0,78774,1,0,0:0:0:0:
448,0,78817,1,0,0:0:0:0:
64,0,78860,1,0,0:0:0:0:
192,0,78945,1,0,0:0:0:0:
448,0,79031,1,0,0:0:0:0:
320,0,79117,1,0,0:0:0:0:
192,0,79203,1,0,0:0:0:0:
64,0,79245,1,0,0:0:0:0:
448,0,79288,1,0,0:0:0:0:
320,0,79331,1,0,0:0:0:0:
192,0,79374,1,0,0:0:0:0:
64,0,79417,1,0,0:0:0:0:
448,0,79460,1,0,0:0:0:0:
320,0,79503,1,0,0:0:0:0:
64,0,79545,1,0,0:0:0:0:
192,0,79545,1,0,0:0:0:0:
64,0,79717,1,0,0:0:0:0:
192,0,79717,1,0,0:0:0:0:
64,0,79888,1,0,0:0:0:0:
192,0,79888,1,0,0:0:0:0:
320,0,80060,1,0,0:0:0:0:
448,0,80145,1,0,0:0:0:0:
192,0,80231,1,0,0:0:0:0:
320,0,80231,1,0,0:0:0:0:
192,0,80403,1,0,0:0:0:0:
320,0,80403,1,0,0:0:0:0:
192,0,80574,1,0,0:0:0:0:
320,0,80574,1,0,0:0:0:0:
64,0,80745,1,0,0:0:0:0:
320,0,80831,1,0,0:0:0:0:
64,0,80917,1,0,0:0:0:0:
192,0,80917,1,0,0:0:0:0:
64,0,81088,1,0,0:0:0:0:
192,0,81088,1,0,0:0:0:0:
320,0,81260,1,0,0:0:0:0:
448,0,81260,1,0,0:0:0:0:
192,0,81431,1,0,0:0:0:0:
320,0,81431,1,0,0:0:0:0:
64,0,81603,1,0,0:0:0:0:
192,0,81603,1,0,0:0:0:0:
64,0,81774,1,0,0:0:0:0:
320,0,81774,1,0,0:0:0:0:
192,0,81945,1,0,0:0:0:0:
320,0,81945,1,0,0:0:0:0:
192,0,82117,1,0,0:0:0:0:
448,0,82117,1,0,0:0:0:0:
64,0,82288,1,0,0:0:0:0:
448,0,82288,1,0,0:0:0:0:
320,0,82374,1,0,0:0:0:0:
192,0,82460,1,0,0:0:0:0:
64,0,82545,1,0,0:0:0:0:
320,0,82631,1,0,0:0:0:0:
448,0,82631,1,0,0:0:0:0:
192,0,82717,1,0,0:0:0:0:
320,0,82803,1,0,0:0:0:0:
64,0,82888,1,0,0:0:0:0:
192,0,82974,1,0,0:0:0:0:
448,0,82974,1,0,0:0:0:0:
64,0,83060,1,0,0:0:0:0:
320,0,83145,1,0,0:0:0:0:
192,0,83231,1,0,0:0:0:0:
64,0,83317,1,0,0:0:0:0:
448,0,83317,1,0,0:0:0:0:
320,0,83403,1,0,0:0:0:0:
192,0,83488,1,0,0:0:0:0:
64,0,83574,1,0,0:0:0:0:
320,0,83660,1,0,0:0:0:0:
448,0,83660,1,0,0:0:0:0:
64,0,83745,1,0,0:0:0:0:
192,0,83831,1,0,0:0:0:0:
320,0,83917,1,0,0:0:0:0:
64,0,84003,1,0,0:0:0:0:
192,0,84003,1,0,0:0:0:0:
448,0,84088,1,0,0:0:0:0:
320,0,84174,1,0,0:0:0:0:
448,0,84260,1,0,0:0:0:0:
192,0,84345,1,0,0:0:0:0:
320,0,84345,1,0,0:0:0:0:
64,0,84517,1,0,0:0:0:0:
192,0,84517,1,0,0:0:0:0:
320,0,84688,1,0,0:0:0:0:
448,0,84688,1,0,0:0:0:0:
192,0,84860,1,0,0:0:0:0:
448,0,84860,1,0,0:0:0:0:
64,0,85031,1,0,0:0:0:0:
192,0,85031,1,0,0:0:0:0:
320,0,85031,1,0,0:0:0:0:
64,0,85203,1,0,0:0:0:0:
320,0,85203,1,0,0:0:0:0:
64,0,85374,1,0,0:0:0:0:
320,0,85374,1,0,0:0:0:0:
192,0,85545,1,0,0:0:0:0:
320,0,85631,1,0,0:0:0:0:
64,0,85717,1,0,0:0:0:0:
448,0,85717,1,0,0:0:0:0:
64,0,85888,1,0,0:0:0:0:
448,0,85888,1,0,0:0:0:0:
64,0,86060,1,0,0:0:0:0:
448,0,86060,1,0,0:0:0:0:
320,0,86231,1,0,0:0:0:0:
192,0,86317,1,0,0:0:0:0:
320,0,86403,1,0,0:0:0:0:
448,0,86403,1,0,0:0:0:0:
64,0,86574,1,0,0:0:0:0:
192,0,86574,1,0,0:0:0:0:
64,0,86745,1,0,0:0:0:0:
320,0,86745,1,0,0:0:0:0:
192,0,86917,1,0,0:0:0:0:
448,0,86917,1,0,0:0:0:0:
320,0,87088,1,0,0:0:0:0:
448,0,87088,1,0,0:0:0:0:
64,0,87260,1,0,0:0:0:0:
320,0,87260,1,0,0:0:0:0:
64,0,87431,1,0,0:0:0:0:
192,0,87431,1,0,0:0:0:0:
192,0,87603,1,0,0:0:0:0:
320,0,87603,1,0,0:0:0:0:
64,0,87774,1,0,0:0:0:0:
448,0,87774,1,0,0:0:0:0:
192,0,87860,1,0,0:0:0:0:
320,0,87945,1,0,0:0:0:0:
192,0,88031,1,0,0:0:0:0:
64,0,88117,1,0,0:0:0:0:
448,0,88117,1,0,0:0:0:0:
192,0,88203,1,0,0:0:0:0:
320,0,88288,1,0,0:0:0:0:
192,0,88374,1,0,0:0:0:0:
64,0,88460,1,0,0:0:0:0:
448,0,88460,1,0,0:0:0:0:
320,0,88545,1,0,0:0:0:0:
192,0,88631,1,0,0:0:0:0:
320,0,88717,1,0,0:0:0:0:
64,0,88803,1,0,0:0:0:0:
448,0,88803,1,0,0:0:0:0:
320,0,88888,1,0,0:0:0:0:
192,0,88974,1,0,0:0:0:0:
320,0,89060,1,0,0:0:0:0:
64,0,89145,128,0,89188:0:0:0:0:
448,0,89145,128,0,89188:0:0:0:0:
64,0,89317,128,0,89360:0:0:0:0:
192,0,89317,128,0,89360:0:0:0:0:
192,0,89488,128,0,89545:0:0:0:0:
320,0,89488,128,0,89545:0:0:0:0:
64,0,89660,128,0,89745:0:0:0:0:
448,0,89660,128,0,89745:0:0:0:0:
192,0,89831,1,0,0:0:0:0:
320,0,89831,128,0,90517:0:0:0:0:
64,0,90003,1,0,0:0:0:0:
192,0,90003,1,0,0:0:0:0:
192,0,90174,1,0,0:0:0:0:
448,0,90174,1,0,0:0:0:0:
64,0,90345,1,0,0:0:0:0:
192,0,90345,1,0,0:0:0:0:
64,0,90517,1,0,0:0:0:0:
192,0,90517,1,0,0:0:0:0:
448,0,90517,1,0,0:0:0:0:
64,0,90688,1,0,0:0:0:0:
448,0,90688,1,0,0:0:0:0:
64,0,90860,1,0,0:0:0:0:
448,0,90860,1,0,0:0:0:0:
320,0,91031,1,0,0:0:0:0:
192,0,91117,1,0,0:0:0:0:
64,0,91203,1,0,0:0:0:0:
320,0,91203,1,0,0:0:0:0:
64,0,91374,1,0,0:0:0:0:
320,0,91374,1,0,0:0:0:0:
64,0,91545,1,0,0:0:0:0:
320,0,91545,1,0,0:0:0:0:
192,0,91717,1,0,0:0:0:0:
64,0,91803,1,0,0:0:0:0:
320,0,91888,1,0,0:0:0:0:
448,0,91888,1,0,0:0:0:0:
320,0,92060,1,0,0:0:0:0:
448,0,92060,1,0,0:0:0:0:
192,0,92231,1,0,0:0:0:0:
448,0,92231,1,0,0:0:0:0:
64,0,92403,1,0,0:0:0:0:
320,0,92403,1,0,0:0:0:0:
64,0,92574,1,0,0:0:0:0:
192,0,92574,1,0,0:0:0:0:
64,0,92745,1,0,0:0:0:0:
320,0,92745,1,0,0:0:0:0:
192,0,92917,1,0,0:0:0:0:
320,0,92917,1,0,0:0:0:0:
192,0,93088,1,0,0:0:0:0:
448,0,93088,1,0,0:0:0:0:
320,0,93260,1,0,0:0:0:0:
448,0,93260,1,0,0:0:0:0:
192,0,93345,1,0,0:0:0:0:
64,0,93431,1,0,0:0:0:0:
320,0,93517,1,0,0:0:0:0:
64,0,93603,1,0,0:0:0:0:
192,0,93603,1,0,0:0:0:0:
448,0,93688,1,0,0:0:0:0:
320,0,93774,1,0,0:0:0:0:
192,0,93860,1,0,0:0:0:0:
64,0,93945,1,0,0:0:0:0:
448,0,93945,1,0,0:0:0:0:
320,0,94031,1,0,0:0:0:0:
192,0,94117,1,0,0:0:0:0:
320,0,94203,1,0,0:0:0:0:
64,0,94288,1,0,0:0:0:0:
192,0,94288,1,0,0:0:0:0:
448,0,94374,1,0,0:0:0:0:
320,0,94460,1,0,0:0:0:0:
192,0,94545,1,0,0:0:0:0:
320,0,94631,1,0,0:0:0:0:
448,0,94631,1,0,0:0:0:0:
64,0,94717,1,0,0:0:0:0:
192,0,94803,1,0,0:0:0:0:
64,0,94888,1,0,0:0:0:0:
192,0,94974,1,0,0:0:0:0:
448,0,94974,1,0,0:0:0:0:
320,0,95060,1,0,0:0:0:0:
64,0,95145,1,0,0:0:0:0:
192,0,95231,1,0,0:0:0:0:
320,0,95317,1,0,0:0:0:0:
448,0,95317,1,0,0:0:0:0:
64,0,95488,1,0,0:0:0:0:
192,0,95488,1,0,0:0:0:0:
64,0,95660,1,0,0:0:0:0:
448,0,95660,1,0,0:0:0:0:
192,0,95831,1,0,0:0:0:0:
320,0,95831,1,0,0:0:0:0:
64,0,96003,1,0,0:0:0:0:
192,0,96003,1,0,0:0:0:0:
448,0,96003,1,0,0:0:0:0:
64,0,96174,1,0,0:0:0:0:
448,0,96174,1,0,0:0:0:0:
64,0,96345,1,0,0:0:0:0:
448,0,96345,1,0,0:0:0:0:
320,0,96517,1,0,0:0:0:0:
192,0,96603,1,0,0:0:0:0:
64,0,96688,1,0,0:0:0:0:
320,0,96688,1,0,0:0:0:0:
448,0,96688,1,0,0:0:0:0:
320,0,96860,1,0,0:0:0:0:
448,0,96860,1,0,0:0:0:0:
320,0,97031,1,0,0:0:0:0:
448,0,97031,1,0,0:0:0:0:
64,0,97203,1,0,0:0:0:0:
192,0,97288,1,0,0:0:0:0:
64,0,97374,1,0,0:0:0:0:
320,0,97374,1,0,0:0:0:0:
448,0,97374,1,0,0:0:0:0:
192,0,97545,1,0,0:0:0:0:
320,0,97545,1,0,0:0:0:0:
64,0,97717,1,0,0:0:0:0:
192,0,97717,1,0,0:0:0:0:
448,0,97717,1,0,0:0:0:0:
192,0,97888,1,0,0:0:0:0:
320,0,97888,1,0,0:0:0:0:
64,0,98060,1,0,0:0:0:0:
320,0,98060,1,0,0:0:0:0:
448,0,98060,1,0,0:0:0:0:
192,0,98231,1,0,0:0:0:0:
448,0,98231,1,0,0:0:0:0:
64,0,98403,1,0,0:0:0:0:
320,0,98403,1,0,0:0:0:0:
192,0,98574,1,0,0:0:0:0:
448,0,98574,1,0,0:0:0:0:
64,0,98745,1,0,0:0:0:0:
320,0,98745,1,0,0:0:0:0:
448,0,98745,1,0,0:0:0:0:
192,0,98831,1,0,0:0:0:0:
320,0,98917,1,0,0:0:0:0:
192,0,99003,1,0,0:0:0:0:
64,0,99088,1,0,0:0:0:0:
448,0,99088,1,0,0:0:0:0:
192,0,99174,1,0,0:0:0:0:
320,0,99260,1,0,0:0:0:0:
192,0,99345,1,0,0:0:0:0:
64,0,99431,128,0,99474:0:0:0:0:
448,0,99431,128,0,99474:0:0:0:0:
320,0,99517,128,0,99560:0:0:0:0:
192,0,99603,128,0,99645:0:0:0:0:
320,0,99688,128,0,99731:0:0:0:0:
64,0,99774,128,0,99817:0:0:0:0:
448,0,99774,128,0,99817:0:0:0:0:
320,0,99860,128,0,99903:0:0:0:0:
192,0,99945,128,0,99988:0:0:0:0:
320,0,100031,128,0,100074:0:0:0:0:
64,0,100117,128,0,100174:0:0:0:0:
448,0,100117,128,0,100174:0:0:0:0:
192,0,100203,128,0,100260:0:0:0:0:
320,0,100288,128,0,100345:0:0:0:0:
448,0,100374,128,0,100431:0:0:0:0:
64,0,100460,128,0,100517:0:0:0:0:
192,0,100460,128,0,100517:0:0:0:0:
320,0,100545,128,0,100603:0:0:0:0:
448,0,100631,128,0,100688:0:0:0:0:
64,0,100717,128,0,100774:0:0:0:0:
192,0,100803,128,0,100888:0:0:0:0:
320,0,100803,128,0,100888:0:0:0:0:
448,0,100888,128,0,100974:0:0:0:0:
64,0,100974,128,0,101060:0:0:0:0:
192,0,101060,128,0,101145:0:0:0:0:
320,0,101145,128,0,101231:0:0:0:0:
448,0,101145,128,0,101231:0:0:0:0:
64,0,101231,128,0,101317:0:0:0:0:
192,0,101317,128,0,101403:0:0:0:0:
320,0,101403,128,0,101488:0:0:0:0:
64,0,101488,128,0,101660:0:0:0:0:
448,0,101488,128,0,101660:0:0:0:0:
192,0,101660,1,0,0:0:0:0:
320,0,101745,1,0,0:0:0:0:
192,0,101831,1,0,0:0:0:0:
320,0,101917,1,0,0:0:0:0:
64,0,102003,128,0,102174:0:0:0:0:
448,0,102003,128,0,102174:0:0:0:0:
192,0,102174,1,0,0:0:0:0:
320,0,102260,1,0,0:0:0:0:
192,0,102345,1,0,0:0:0:0:
320,0,102431,1,0,0:0:0:0:
64,0,102517,128,0,102603:0:0:0:0:
448,0,102517,128,0,102603:0:0:0:0:
192,0,102603,1,0,0:0:0:0:
320,0,102688,128,0,102860:0:0:0:0:
64,0,102860,1,0,0:0:0:0:
192,0,102860,1,0,0:0:0:0:
448,0,102860,1,0,0:0:0:0:
64,0,103031,1,0,0:0:0:0:
192,0,103203,1,0,0:0:0:0:
448,0,103374,1,0,0:0:0:0:
320,0,103545,1,0,0:0:0:0:
64,0,103717,1,0,0:0:0:0:
320,0,103888,1,0,0:0:0:0:
448,0,103888,1,0,0:0:0:0:
64,0,103974,1,0,0:0:0:0:
192,0,104060,1,0,0:0:0:0:
320,0,104145,1,0,0:0:0:0:
64,0,104231,1,0,0:0:0:0:
192,0,104231,1,0,0:0:0:0:
448,0,104231,1,0,0:0:0:0:
64,0,104403,1,0,0:0:0:0:
192,0,104574,1,0,0:0:0:0:
448,0,104745,1,0,0:0:0:0:
320,0,104917,1,0,0:0:0:0:
64,0,105088,1,0,0:0:0:0:
320,0,105260,1,0,0:0:0:0:
448,0,105260,1,0,0:0:0:0:
64,0,105345,1,0,0:0:0:0:
192,0,105431,1,0,0:0:0:0:
320,0,105517,1,0,0:0:0:0:
64,0,105603,1,0,0:0:0:0:
192,0,105603,1,0,0:0:0:0:
448,0,105603,1,0,0:0:0:0:
64,0,105774,1,0,0:0:0:0:
192,0,105945,1,0,0:0:0:0:
448,0,106117,1,0,0:0:0:0:
64,0,106288,1,0,0:0:0:0:
192,0,106288,1,0,0:0:0:0:
320,0,106288,1,0,0:0:0:0:
192,0,106460,1,0,0:0:0:0:
448,0,106631,1,0,0:0:0:0:
320,0,106803,1,0,0:0:0:0:
64,0,106974,1,0,0:0:0:0:
448,0,106974,1,0,0:0:0:0:
192,0,107060,1,0,0:0:0:0:
320,0,107145,1,0,0:0:0:0:
448,0,107231,1,0,0:0:0:0:
64,0,107317,1,0,0:0:0:0:
192,0,107317,1,0,0:0:0:0:
448,0,107403,1,0,0:0:0:0:
320,0,107488,1,0,0:0:0:0:
192,0,107574,1,0,0:0:0:0:
64,0,107660,1,0,0:0:0:0:
448,0,107660,1,0,0:0:0:0:
320,0,107745,1,0,0:0:0:0:
192,0,107831,1,0,0:0:0:0:
448,0,107917,1,0,0:0:0:0:
64,0,108003,1,0,0:0:0:0:
320,0,108003,1,0,0:0:0:0:
448,0,108088,1,0,0:0:0:0:
192,0,108174,1,0,0:0:0:0:
320,0,108260,1,0,0:0:0:0:
64,0,108345,1,0,0:0:0:0:
192,0,108345,1,0,0:0:0:0:
448,0,108345,1,0,0:0:0:0:
64,0,108517,1,0,0:0:0:0:
192,0,108688,1,0,0:0:0:0:
448,0,108860,1,0,0:0:0:0:
320,0,109031,1,0,0:0:0:0:
192,0,109203,1,0,0:0:0:0:
64,0,109374,1,0,0:0:0:0:
448,0,109374,1,0,0:0:0:0:
192,0,109460,1,0,0:0:0:0:
320,0,109545,1,0,0:0:0:0:
448,0,109631,1,0,0:0:0:0:
64,0,109717,1,0,0:0:0:0:
192,0,109717,1,0,0:0:0:0:
320,0,109717,1,0,0:0:0:0:
64,0,109888,1,0,0:0:0:0:
192,0,110060,1,0,0:0:0:0:
448,0,110231,1,0,0:0:0:0:
320,0,110403,1,0,0:0:0:0:
192,0,110574,1,0,0:0:0:0:
64,0,110745,1,0,0:0:0:0:
448,0,110745,1,0,0:0:0:0:
192,0,110831,1,0,0:0:0:0:
320,0,110917,1,0,0:0:0:0:
448,0,111003,1,0,0:0:0:0:
64,0,111088,1,0,0:0:0:0:
192,0,111088,1,0,0:0:0:0:
320,0,111088,1,0,0:0:0:0:
64,192,111260,128,0,111317:0:0:0:0:
192,192,111431,128,0,111488:0:0:0:0:
320,192,111603,128,0,111660:0:0:0:0:
64,0,111774,1,0,0:0:0:0:
192,0,111774,1,0,0:0:0:0:
448,0,111774,1,0,0:0:0:0:
320,192,111945,128,0,112031:0:0:0:0:
448,192,112117,128,0,112203:0:0:0:0:
192,192,112288,128,0,112374:0:0:0:0:
448,0,112460,1,0,0:0:0:0:
320,0,112545,1,0,0:0:0:0:
448,0,112631,1,0,0:0:0:0:
192,0,112717,1,0,0:0:0:0:
320,0,112803,1,0,0:0:0:0:
64,0,112888,1,0,0:0:0:0:
448,0,112974,1,0,0:0:0:0:
192,0,113060,1,0,0:0:0:0:
64,0,113145,1,0,0:0:0:0:
192,0,113231,1,0,0:0:0:0:
320,0,113317,1,0,0:0:0:0:
192,0,113403,1,0,0:0:0:0:
64,0,113488,1,0,0:0:0:0:
192,0,113574,1,0,0:0:0:0:
320,192,113660,128,0,113703:0:0:0:0:
448,0,113745,128,0,113788:0:0:0:0:
64,0,113831,128,0,114317:0:0:0:0:
192,0,113831,128,0,114174:0:0:0:0:
320,0,113831,128,0,113917:0:0:0:0:
