osu file format v14

[General]
AudioFilename: Sakuzyo,Siilento's Solid - ChaiN DestructioN (Siilento's Solid Remix).mp3
AudioLeadIn: 0
PreviewTime: 82534
Countdown: 0
SampleSet: Normal
StackLeniency: 0.4
Mode: 0
LetterboxInBreaks: 0
WidescreenStoryboard: 0

[Editor]
Bookmarks: 109368
DistanceSpacing: 2.15
BeatDivisor: 4
GridSize: 8
TimelineZoom: 2.999999

[Metadata]
Title:ChaiN De/structioN (siilento's solid remix)
TitleUnicode:ChaiN De/structioN (siilento's solid remix)
Artist:sakuzyo
ArtistUnicode:削除
Creator:Ryuusei Aika
Version:Shogun's Hard
Source:
Tags:VOCALOID ボーカロイド 初音ミク Hatsune Miku (∵)キョトンP kyotonP DENSHI ONGAKU HAMO Arutsuki ShogunMoon Chalwa Azulae Beomsan Kujinn
BeatmapID:1208459
BeatmapSetID:531385

[Difficulty]
HPDrainRate:5
CircleSize:4
OverallDifficulty:6
ApproachRate:7
SliderMultiplier:1.09999990463257
SliderTickRate:1

[Events]
//Background and Video events
0,0,"BG.jpg",0,0
//Break Periods
2,53568,57468
2,85568,87134
2,130901,141801
//Storyboard Layer 0 (Background)
//Storyboard Layer 1 (Fail)
//Storyboard Layer 2 (Pass)
//Storyboard Layer 3 (Foreground)
//Storyboard Sound Samples

[TimingPoints]
35,333.333333333333,4,2,1,20,1,0
35,-100,4,2,1,20,0,0
8034,-100,4,2,1,50,0,0
9368,-100,4,2,1,60,0,0
10368,-100,4,2,1,70,0,0
10701,-100,4,1,1,75,0,0
32034,-100,4,1,1,80,0,0
42034,-100,4,2,2,60,0,0
42701,-100,4,1,1,85,0,0
46701,-100,4,1,1,35,0,0
48034,-100,4,1,1,85,0,0
52034,-100,4,1,1,35,0,0
53368,-100,4,2,1,60,0,0
58368,-100,4,2,1,80,0,0
58534,-100,4,1,1,80,0,0
58701,-100,4,1,1,90,0,0
61368,-100,4,3,1,100,0,0
64034,-100,4,1,1,100,0,1
85368,-100,4,1,0,90,0,0
88034,-100,4,1,1,60,0,0
90701,-100,4,3,1,75,0,0
93368,-100,4,1,1,60,0,0
96034,-100,4,3,1,75,0,0
98034,-100,4,1,1,60,0,0
101368,-100,4,3,1,75,0,0
104034,-100,4,1,1,60,0,0
106701,-100,4,3,1,75,0,0
108701,-100,4,1,1,60,0,0
109034,-100,4,3,1,85,0,0
109368,-100,4,1,1,75,0,0
120034,-100,4,1,1,80,0,0
125368,-100,4,1,1,90,0,0
130701,-100,4,2,1,90,0,0
142701,-100,4,2,1,50,0,0
153368,-100,4,1,1,100,0,1
174701,-100,4,1,1,90,0,0
178701,-100,4,1,1,90,0,0
190701,-100,4,1,1,90,0,0
195368,-100,4,1,1,85,0,0
196034,-100,4,1,1,30,0,0
201701,-100,4,1,1,10,0,0

[Colours]
Combo1 : 150,150,180
Combo2 : 0,100,200
Combo3 : 180,180,200
Combo4 : 0,200,250

[HitObjects]
256,192,8034,12,0,10368,0:0:0:0:
31,89,10701,6,0,P|78:114|143:97,1,109.999990463257,4|8,0:0|0:0,0:0:0:0:
188,52,11201,2,0,L|180:178,1,109.999990463257
210,233,11701,1,8,0:0:0:0:
167,297,11868,2,0,P|220:308|281:265,1,109.999990463257,0|8,0:0|0:0,0:0:0:0:
330,237,12368,1,0,0:0:0:0:
397,272,12534,1,0,0:0:0:0:
463,233,12701,2,0,L|473:163,1,54.9999952316285
412,128,13034,2,0,L|405:62,1,54.9999952316285,8|0,0:0|0:0,0:0:0:0:
359,12,13368,6,0,P|300:0|237:21,1,109.999990463257,0|8,0:0|0:0,0:0:0:0:
185,49,13868,2,0,P|128:66|78:58,1,109.999990463257,0|0,0:0|0:0,0:0:0:0:
25,114,14368,2,0,L|30:174,1,54.9999952316285,8|0,0:0|0:0,0:0:0:0:
99,201,14701,2,0,L|92:316,1,109.999990463257,0|8,0:0|0:0,0:0:0:0:
163,341,15201,2,0,P|226:331|274:350,1,109.999990463257,0|0,0:0|0:0,0:0:0:0:
344,355,15701,2,0,P|377:358|418:349,1,54.9999952316285,8|0,0:0|0:0,0:0:0:0:
421,281,16034,6,0,L|402:154,1,109.999990463257,0|8,0:0|0:0,0:0:0:0:
367,104,16534,2,0,L|359:230,1,109.999990463257,0|0,0:0|0:0,0:0:0:0:
325,282,17034,2,0,L|315:221,1,54.9999952316285,0|8,0:0|0:0,0:0:0:0:
250,186,17367,2,0,P|195:173|134:189,1,109.999990463257,0|8,0:0|0:0,0:0:0:0:
86,236,17868,1,0,0:0:0:0:
43,171,18034,2,0,L|53:101,1,54.9999952316285,0|0,0:0|0:0,0:0:0:0:
115,74,18367,2,0,L|108:8,1,54.9999952316285,8|0,0:0|0:0,0:0:0:0:
186,9,18701,6,0,P|240:19|302:6,1,109.999990463257,0|8,0:0|0:0,0:0:0:0:
343,68,19201,2,0,P|298:102|287:158,1,109.999990463257,0|0,0:0|0:0,0:0:0:0:
239,213,19701,2,0,L|167:207,1,54.9999952316285,8|0,0:0|0:0,0:0:0:0:
135,148,20034,2,0,L|128:263,1,109.999990463257,0|8,0:0|0:0,0:0:0:0:
169,323,20534,2,0,P|232:313|280:332,1,109.999990463257,0|0,0:0|0:0,0:0:0:0:
349,344,21034,2,0,P|381:351|416:344,1,54.9999952316285,8|0,0:0|0:0,0:0:0:0:
458,294,21368,6,0,P|456:250|423:178,1,109.999990463257,4|8,0:0|0:0,0:0:0:0:
467,121,21868,2,0,P|464:80|495:8,1,109.999990463257
411,5,22368,2,0,L|336:-1,1,54.9999952316285,0|8,0:0|0:0,0:0:0:0:
291,41,22701,2,0,L|223:35,1,54.9999952316285
185,94,23034,2,0,P|174:137|190:178,1,82.4999928474427,8|0,0:0|0:0,0:0:0:0:
219,192,23368,2,0,L|152:219,1,54.9999952316285
115,268,23701,2,0,L|189:294,1,54.9999952316285,8|0,0:0|0:0,0:0:0:0:
219,342,24034,6,0,L|328:375,1,109.999990463257,0|8,0:0|0:0,0:0:0:0:
392,337,24534,2,0,P|380:288|410:220,1,109.999990463257
451,176,25034,2,0,P|412:156|381:162,1,54.9999952316285,8|0,0:0|0:0,0:0:0:0:
324,164,25368,2,0,P|293:164|262:147,1,54.9999952316285
222,94,25701,2,0,P|166:82|116:93,1,109.999990463257,8|0,0:0|0:0,0:0:0:0:
74,158,26201,1,0,0:0:0:0:
103,229,26368,1,8,0:0:0:0:
74,300,26534,1,0,0:0:0:0:
127,355,26701,6,0,L|246:349,1,109.999990463257,0|8,0:0|0:0,0:0:0:0:
287,291,27201,2,0,P|277:240|301:169,1,109.999990463257,0|0,0:0|0:0,0:0:0:0:
353,139,27701,2,0,L|431:136,1,54.9999952316285,0|8,0:0|0:0,0:0:0:0:
426,62,28034,2,0,L|356:65,1,54.9999952316285,0|0,0:0|0:0,0:0:0:0:
300,31,28368,2,0,L|182:34,2,109.999990463257,8|0|8,0:0|0:0|0:0,0:0:0:0:
371,64,29201,1,0,0:0:0:0:
314,116,29368,6,0,L|191:119,1,109.999990463257,0|8,0:0|0:0,0:0:0:0:
148,172,29868,2,0,L|16:175,1,109.999990463257,0|0,0:0|0:0,0:0:0:0:
18,249,30368,2,0,P|22:279|16:316,1,54.9999952316285,8|0,0:0|0:0,0:0:0:0:
77,354,30701,2,0,P|112:348|152:361,1,54.9999952316285,0|0,0:0|0:0,0:0:0:0:
201,320,31034,2,0,P|190:252|214:205,1,109.999990463257,8|0,0:0|0:0,0:0:0:0:
236,191,31451,1,0,0:0:0:0:
236,191,31534,1,0,0:0:0:0:
305,224,31701,2,0,L|371:220,1,54.9999952316285,8|0,0:0|0:0,0:0:0:0:
413,164,32034,6,0,P|398:218|434:281,1,109.999990463257,4|8,0:0|0:0,0:0:0:0:
477,315,32534,2,0,L|362:303,1,109.999990463257,0|0,0:0|0:0,0:0:0:0:
297,336,33034,2,0,L|180:346,1,109.999990463257,8|0,0:0|0:0,0:0:0:0:
120,307,33534,2,0,P|127:272|120:241,1,54.9999952316285,0|8,0:0|0:0,0:0:0:0:
66,201,33868,2,0,P|60:167|70:136,1,54.9999952316285,0|0,0:0|0:0,0:0:0:0:
121,95,34201,2,0,P|127:66|119:32,1,54.9999952316285,0|8,0:0|0:0,0:0:0:0:
195,16,34534,1,0,0:0:0:0:
268,39,34701,6,0,P|314:72|369:61,1,109.999990463257,0|8,0:0|0:0,0:0:0:0:
423,14,35201,2,0,P|409:68|437:121,1,109.999990463257,0|0,0:0|0:0,0:0:0:0:
494,158,35701,2,0,L|359:165,1,109.999990463257,8|0,0:0|0:0,0:0:0:0:
320,207,36201,2,0,L|315:266,1,54.9999952316285,0|8,0:0|0:0,0:0:0:0:
247,299,36534,2,0,L|241:229,1,54.9999952316285,0|0,0:0|0:0,0:0:0:0:
170,215,36868,2,0,L|162:288,1,54.9999952316285,0|8,0:0|0:0,0:0:0:0:
100,314,37201,1,0,0:0:0:0:
43,261,37368,6,0,L|32:137,1,109.999990463257,0|8,0:0|0:0,0:0:0:0:
62,80,37868,2,0,P|117:55|176:64,1,109.999990463257,0|0,0:0|0:0,0:0:0:0:
240,76,38368,2,0,P|297:84|362:63,1,109.999990463257,8|0,0:0|0:0,0:0:0:0:
423,58,38868,2,0,L|429:117,1,54.9999952316285,0|8,0:0|0:0,0:0:0:0:
488,161,39201,2,0,L|480:233,1,54.9999952316285,0|0,0:0|0:0,0:0:0:0:
463,249,39451,1,0,0:0:0:0:
463,249,39534,1,0,0:0:0:0:
414,308,39701,2,0,L|343:311,1,54.9999952316285,8|0,0:0|0:0,0:0:0:0:
290,275,40034,6,0,P|283:217|249:164,1,109.999990463257,0|8,0:0|0:0,0:0:0:0:
184,147,40534,2,0,L|73:131,1,109.999990463257,0|0,0:0|0:0,0:0:0:0:
96,57,41034,2,0,L|216:71,1,109.999990463257,8|0,0:0|0:0,0:0:0:0:
276,39,41534,2,0,L|347:47,1,54.9999952316285,0|8,0:0|0:0,0:0:0:0:
404,21,41868,2,0,L|481:28,1,54.9999952316285,0|4,0:0|0:0,0:0:0:0:
487,97,42201,5,0,0:0:0:0:
455,167,42368,1,4,0:0:0:0:
484,237,42534,1,0,0:0:0:0:
471,313,42701,6,0,P|423:328|342:313,1,109.999990463257,4|8,0:0|0:0,0:0:0:0:
303,275,43201,2,2,P|248:264|182:282,1,109.999990463257,0|0,0:0|0:0,0:0:0:0:
142,330,43701,2,0,L|155:202,1,109.999990463257,0|0,0:0|0:0,0:0:0:0:
136,145,44201,2,0,P|106:136|69:143,1,54.9999952316285,0|0,0:0|0:0,0:0:0:0:
36,76,44534,2,0,P|64:87|98:81,1,54.9999952316285,0|8,0:0|0:0,0:0:0:0:
156,47,44868,1,0,0:0:0:0:
228,22,45034,2,2,P|259:15|295:26,1,54.9999952316285,0|0,0:0|0:0,0:0:0:0:
319,87,45368,6,2,P|310:148|318:214,1,109.999990463257,0|0,0:0|0:0,0:0:0:0:
374,243,45868,2,2,L|253:258,1,109.999990463257,0|0,0:0|0:0,0:0:0:0:
252,332,46368,2,0,L|318:324,1,54.9999952316285
383,319,46701,2,0,L|503:305,1,109.999990463257
432,163,47368,2,2,L|461:68,2,82.4999928474427,8|0|2,0:0|0:0|0:0,0:0:0:0:
367,205,48034,6,0,P|383:153|362:104,1,109.999990463257,0|8,0:0|0:0,0:0:0:0:
308,158,48534,2,0,L|187:165,1,109.999990463257,0|2,0:0|0:0,0:0:0:0:
181,239,49034,2,0,L|295:233,1,109.999990463257
328,300,49534,2,0,L|393:298,1,54.9999952316285
459,283,49868,2,0,P|456:246|464:211,1,54.9999952316285
481,154,50201,1,0,0:0:0:0:
501,80,50367,2,2,P|504:49|491:17,1,54.9999952316285,0|0,0:0|0:0,0:0:0:0:
420,21,50701,6,2,P|364:17|306:29,1,109.999990463257,0|0,0:0|0:0,0:0:0:0:
250,74,51201,2,2,P|196:86|128:79,1,109.999990463257,0|0,0:0|0:0,0:0:0:0:
66,66,51701,2,0,L|74:131,1,54.9999952316285,0|0,0:0|0:0,0:0:0:0:
127,174,52034,2,0,L|141:298,1,109.999990463257,0|0,0:0|0:0,0:0:0:0:
281,343,52701,2,2,L|401:353,1,109.999990463257,0|2,0:0|0:0,0:0:0:0:
350,203,53368,1,0,0:0:0:0:
137,42,58368,6,0,L|145:114,1,54.9999952316285,8|0,0:0|0:0,0:0:0:0:
103,162,58701,6,0,B|147:138|187:159|187:159|215:128,1,109.999990463257,0|8,0:0|0:0,0:0:0:0:
267,101,59201,1,0,0:0:0:0:
270,178,59368,2,0,L|224:227,1,54.9999952316285,0|0,0:0|0:0,0:0:0:0:
178,273,59701,2,0,P|171:310|179:339,1,54.9999952316285,8|0,0:0|0:0,0:0:0:0:
241,363,60034,2,0,L|365:355,1,109.999990463257,0|8,0:0|0:0,0:0:0:0:
422,219,60701,2,0,P|408:167|419:108,1,109.999990463257,0|8,0:0|0:0,0:0:0:0:
272,58,61368,6,0,L|201:68,1,54.9999952316285,0|0,0:0|0:0,0:0:0:0:
160,117,61701,2,0,L|97:126,1,54.9999952316285,0|0,0:0|0:0,0:0:0:0:
73,195,62034,2,0,L|78:230,3,27.4999976158142,0|0|0|0,0:0|0:0|0:0|0:0,0:0:0:0:
104,250,62368,2,0,L|112:286,3,27.4999976158142,0|0|0|0,0:0|0:0|0:0|0:0,0:0:0:0:
97,313,62701,6,0,P|146:278|213:266,1,109.999990463257,4|4,0:0|0:0,0:0:0:0:
270,262,63201,2,0,P|327:246|374:211,1,109.999990463257,4|2,0:0|0:0,0:0:0:0:
417,157,63701,2,0,L|409:83,1,54.9999952316285,8|2,0:0|0:0,0:0:0:0:
361,43,64034,6,0,B|335:31|303:44|303:44|274:56|243:43,1,109.999990463257,12|8,0:0|0:0,0:0:0:0:
187,86,64534,2,0,B|175:112|188:144|188:144|200:173|187:204,1,109.999990463257
166,266,65034,1,8,0:0:0:0:
231,306,65201,2,0,P|284:315|344:302,1,109.999990463257
403,262,65701,1,8,0:0:0:0:
380,188,65868,1,0,0:0:0:0:
380,188,65951,1,0,0:0:0:0:
380,188,66034,2,0,L|393:126,1,54.9999952316285
437,71,66368,2,0,L|415:15,1,54.9999952316285,8|0,0:0|0:0,0:0:0:0:
339,22,66701,6,0,P|293:36|231:20,1,109.999990463257,0|8,0:0|0:0,0:0:0:0:
175,71,67201,2,0,P|186:129|169:181,1,109.999990463257
124,237,67701,1,8,0:0:0:0:
69,291,67868,2,0,L|190:279,1,109.999990463257,0|0,0:0|0:0,0:0:0:0:
249,309,68368,2,0,L|372:319,1,109.999990463257,8|2,0:0|0:0,0:0:0:0:
394,305,68784,1,0,0:0:0:0:
394,305,68868,1,2,0:0:0:0:
442,245,69034,2,0,L|437:171,1,54.9999952316285,10|2,0:0|0:0,0:0:0:0:
471,119,69368,6,0,B|423:156|378:138|378:138|398:110,1,109.999990463257,0|8,0:0|0:0,0:0:0:0:
416,59,69868,1,2,0:0:0:0:
363,3,70034,2,0,L|293:11,1,54.9999952316285,2|2,0:0|0:0,0:0:0:0:
243,52,70368,2,0,L|169:60,1,54.9999952316285,2|8,0:0|0:0,0:0:0:0:
119,92,70701,2,0,B|131:144|114:184|114:184|138:163,1,109.999990463257,0|8,0:0|0:0,0:0:0:0:
199,149,71201,2,0,P|256:137|310:150,1,109.999990463257,0|2,0:0|0:0,0:0:0:0:
357,205,71701,2,0,L|362:268,1,54.9999952316285,10|2,0:0|0:0,0:0:0:0:
315,321,72034,6,0,P|261:311|192:328,1,109.999990463257,0|8,0:0|0:0,0:0:0:0:
135,349,72534,2,0,P|71:362|9:342,1,109.999990463257,0|0,0:0|0:0,0:0:0:0:
9,277,73034,1,8,0:0:0:0:
2,200,73201,2,0,L|0:68,1,109.999990463257,0|0,0:0|0:0,0:0:0:0:
58,38,73701,1,8,0:0:0:0:
133,52,73868,2,0,L|208:58,1,54.9999952316285,0|2,0:0|0:0,0:0:0:0:
262,35,74201,2,0,L|335:41,1,54.9999952316285,2|10,0:0|0:0,0:0:0:0:
374,91,74534,1,2,0:0:0:0:
423,150,74701,6,0,B|380:145|380:145|337:157|337:157|294:152,1,109.999990463257,12|8,0:0|0:0,0:0:0:0:
238,150,75201,2,0,B|196:156|196:156|155:143|155:143|122:148,1,109.999990463257,0|0,0:0|0:0,0:0:0:0:
61,179,75701,1,0,0:0:0:0:
8,235,75868,2,0,L|22:353,1,109.999990463257,8|0,0:0|0:0,0:0:0:0:
94,367,76368,1,8,0:0:0:0:
168,345,76535,1,0,0:0:0:0:
168,345,76618,1,0,0:0:0:0:
168,345,76701,2,0,L|224:337,1,54.9999952316285,0|0,0:0|0:0,0:0:0:0:
300,337,77035,2,0,L|371:347,1,54.9999952316285,8|0,0:0|0:0,0:0:0:0:
425,314,77368,6,0,P|441:258|416:203,1,109.999990463257,0|8,0:0|0:0,0:0:0:0:
347,197,77868,2,0,P|396:176|415:113,1,109.999990463257,0|0,0:0|0:0,0:0:0:0:
339,119,78368,1,8,0:0:0:0:
270,83,78535,2,0,L|149:72,1,109.999990463257,0|0,0:0|0:0,0:0:0:0:
91,105,79034,2,0,P|77:154|98:226,1,109.999990463257,8|2,0:0|0:0,0:0:0:0:
112,241,79451,1,0,0:0:0:0:
112,241,79535,1,2,0:0:0:0:
180,274,79701,2,0,L|251:268,1,54.9999952316285,10|2,0:0|0:0,0:0:0:0:
309,251,80034,6,0,B|348:229|375:269|417:240,1,109.999990463257,0|8,0:0|0:0,0:0:0:0:
459,178,80535,1,0,0:0:0:0:
461,101,80701,2,0,L|445:35,1,54.9999952316285,0|0,0:0|0:0,0:0:0:0:
374,71,81035,2,0,L|357:6,1,54.9999952316285,0|8,0:0|0:0,0:0:0:0:
282,22,81368,2,0,B|244:2|212:44|167:12,1,109.999990463257,0|8,0:0|0:0,0:0:0:0:
98,29,81868,2,0,L|111:155,1,109.999990463257,0|2,0:0|0:0,0:0:0:0:
184,155,82368,2,0,L|189:218,1,54.9999952316285,10|2,0:0|0:0,0:0:0:0:
136,266,82701,6,0,P|189:255|243:265,1,109.999990463257,0|8,0:0|0:0,0:0:0:0:
242,343,83201,2,0,P|178:356|116:336,1,109.999990463257
69,305,83701,1,8,0:0:0:0:
136,266,83868,2,0,L|134:134,1,109.999990463257,0|4,0:0|0:0,0:0:0:0:
186,99,84368,2,0,L|261:105,1,54.9999952316285,4|2,0:0|0:0,0:0:0:0:
303,148,84701,2,0,L|376:154,1,54.9999952316285,2|2,0:0|0:0,0:0:0:0:
434,162,85034,1,4,0:0:0:0:
479,238,85201,1,2,0:0:0:0:
410,334,85368,1,2,0:0:0:0:
58,303,88034,6,0,P|111:314|168:300,1,109.999990463257,0|2,0:0|0:0,0:0:0:0:
233,266,88534,1,0,0:0:0:0:
255,192,88701,2,0,L|259:128,1,54.9999952316285,0|2,0:0|0:0,0:0:0:0:
193,95,89034,2,0,L|188:35,1,54.9999952316285,0|0,0:0|0:0,0:0:0:0:
114,17,89368,2,0,P|85:26|46:15,1,54.9999952316285,2|0,0:0|0:0,0:0:0:0:
15,84,89701,2,0,P|24:117|21:147,1,54.9999952316285,0|2,0:0|0:0,0:0:0:0:
3,212,90034,1,8,0:0:0:0:
186,334,90368,1,2,0:0:0:0:
308,240,90701,6,0,P|367:211|417:228,1,109.999990463257,0|8,0:0|0:0,0:0:0:0:
369,289,91201,2,0,L|358:169,1,109.999990463257,0|0,0:0|0:0,0:0:0:0:
392,110,91701,1,0,0:0:0:0:
392,110,91784,1,0,0:0:0:0:
392,110,91868,2,0,L|387:50,1,54.9999952316285,8|0,0:0|0:0,0:0:0:0:
313,75,92201,2,0,P|257:91|200:74,1,109.999990463257,0|0,0:0|0:0,0:0:0:0:
152,24,92701,2,0,L|168:143,1,109.999990463257,0|8,0:0|0:0,0:0:0:0:
160,209,93201,1,0,0:0:0:0:
114,270,93368,6,0,P|163:286|217:259,1,109.999990463257,0|2,0:0|0:0,0:0:0:0:
261,202,93868,1,0,0:0:0:0:
309,261,94035,2,0,L|316:331,1,54.9999952316285,0|2,0:0|0:0,0:0:0:0:
391,307,94368,2,0,L|383:244,1,54.9999952316285,0|0,0:0|0:0,0:0:0:0:
402,177,94701,2,0,L|395:111,1,54.9999952316285,2|0,0:0|0:0,0:0:0:0:
371,49,95035,2,0,P|368:80|345:109,1,54.9999952316285,0|2,0:0|0:0,0:0:0:0:
289,139,95368,1,8,0:0:0:0:
155,314,95702,1,2,0:0:0:0:
54,198,96034,6,0,L|45:128,1,54.9999952316285,0|0,0:0|0:0,0:0:0:0:
95,82,96368,1,8,0:0:0:0:
167,106,96534,1,0,0:0:0:0:
233,67,96701,2,0,L|294:59,2,54.9999952316285,0|0|8,0:0|0:0|0:0,0:0:0:0:
167,106,97201,1,0,0:0:0:0:
95,82,97368,2,0,L|22:91,2,54.9999952316285,0|0|8,0:0|0:0|0:0,0:0:0:0:
167,106,97868,1,0,0:0:0:0:
223,158,98034,2,0,B|218:185|218:185|222:216|222:216|217:247|217:247|223:280,1,109.999990463257
273,104,98701,6,0,P|219:116|166:105,1,109.999990463257,0|2,0:0|0:0,0:0:0:0:
105,58,99201,1,0,0:0:0:0:
166,105,99368,2,0,L|163:185,1,54.9999952316285,0|2,0:0|0:0,0:0:0:0:
114,219,99701,2,0,L|109:159,1,54.9999952316285,0|0,0:0|0:0,0:0:0:0:
54,109,100035,2,0,L|51:184,1,54.9999952316285,2|0,0:0|0:0,0:0:0:0:
14,231,100368,2,0,L|11:302,1,54.9999952316285,0|2,0:0|0:0,0:0:0:0:
70,336,100701,1,8,0:0:0:0:
272,246,101035,1,2,0:0:0:0:
378,134,101368,6,0,P|389:78|354:31,1,109.999990463257,0|8,0:0|0:0,0:0:0:0:
312,94,101868,2,0,L|316:209,1,109.999990463257,0|0,0:0|0:0,0:0:0:0:
366,273,102368,1,0,0:0:0:0:
366,273,102451,1,0,0:0:0:0:
366,273,102535,2,0,L|293:279,1,54.9999952316285,8|0,0:0|0:0,0:0:0:0:
245,318,102868,2,0,L|127:327,1,109.999990463257,0|0,0:0|0:0,0:0:0:0:
79,272,103368,2,0,P|92:221|68:153,1,109.999990463257,0|8,0:0|0:0,0:0:0:0:
26,108,103868,1,0,0:0:0:0:
77,166,104035,6,0,P|131:179|188:165,1,109.999990463257,0|2,0:0|0:0,0:0:0:0:
242,118,104535,1,0,0:0:0:0:
284,53,104702,2,0,L|291:123,1,54.9999952316285,0|2,0:0|0:0,0:0:0:0:
346,159,105035,2,0,L|340:90,1,54.9999952316285,0|0,0:0|0:0,0:0:0:0:
384,40,105368,2,0,L|391:112,1,54.9999952316285,2|0,0:0|0:0,0:0:0:0:
449,144,105702,2,0,L|456:215,1,54.9999952316285,0|2,0:0|0:0,0:0:0:0:
408,260,106035,1,8,0:0:0:0:
212,361,106369,1,2,0:0:0:0:
84,275,106701,6,0,L|91:209,1,54.9999952316285,0|0,0:0|0:0,0:0:0:0:
108,145,107035,1,8,0:0:0:0:
165,93,107201,1,0,0:0:0:0:
223,42,107368,2,0,L|289:33,2,54.9999952316285,0|0|8,0:0|0:0|0:0,0:0:0:0:
165,93,107868,1,0,0:0:0:0:
108,145,108034,2,0,L|35:154,2,54.9999952316285,0|0|8,0:0|0:0|0:0,0:0:0:0:
165,93,108535,1,0,0:0:0:0:
217,36,108701,2,0,B|247:31|247:31|275:37|275:37|303:30|303:30|333:36,1,109.999990463257
344,188,109368,6,0,L|336:316,1,109.999990463257,4|8,0:0|0:0,0:0:0:0:
264,328,109868,1,0,0:0:0:0:
264,328,109951,1,0,0:0:0:0:
264,328,110034,2,0,P|232:333|197:328,1,54.9999952316285,0|2,0:0|0:0,0:0:0:0:
157,273,110368,2,0,L|149:203,1,54.9999952316285,2|2,0:0|0:0,0:0:0:0:
92,168,110701,6,0,P|148:175|193:136,1,109.999990463257,0|8,0:0|0:0,0:0:0:0:
236,84,111201,1,0,0:0:0:0:
236,84,111284,1,0,0:0:0:0:
236,84,111368,2,0,L|311:88,1,54.9999952316285,2|0,0:0|0:0,0:0:0:0:
361,55,111701,2,0,L|436:59,1,54.9999952316285,2|0,0:0|0:0,0:0:0:0:
465,116,112034,6,0,P|471:169|466:239,1,109.999990463257,2|8,0:0|0:0,0:0:0:0:
422,287,112534,1,0,0:0:0:0:
422,287,112618,1,0,0:0:0:0:
422,287,112701,2,0,L|427:352,1,54.9999952316285,0|2,0:0|0:0,0:0:0:0:
350,356,113034,2,0,P|323:351|284:357,1,54.9999952316285,2|2,0:0|0:0,0:0:0:0:
225,321,113368,6,0,P|191:327|153:321,1,54.9999952316285,0|2,0:0|0:0,0:0:0:0:
117,269,113701,1,2,0:0:0:0:
145,197,113868,1,2,0:0:0:0:
125,122,114034,1,0,0:0:0:0:
157,51,114201,1,2,0:0:0:0:
228,79,114368,2,0,L|288:72,1,54.9999952316285,2|0,0:0|0:0,0:0:0:0:
341,22,114701,6,0,P|362:72|328:134,1,109.999990463257,2|8,0:0|0:0,0:0:0:0:
297,184,115201,1,0,0:0:0:0:
297,184,115284,1,0,0:0:0:0:
297,184,115368,2,0,L|303:254,1,54.9999952316285,0|2,0:0|0:0,0:0:0:0:
234,276,115701,2,0,L|161:286,1,54.9999952316285,2|8,0:0|0:0,0:0:0:0:
209,354,116034,6,0,L|331:335,1,109.999990463257,0|8,0:0|0:0,0:0:0:0:
383,297,116534,2,0,P|375:245|388:181,1,109.999990463257,2|0,0:0|0:0,0:0:0:0:
437,132,117034,2,0,L|406:59,1,54.9999952316285,2|2,0:0|0:0,0:0:0:0:
353,34,117368,2,0,P|304:49|241:30,1,109.999990463257,2|8,0:0|0:0,0:0:0:0:
172,21,117868,1,2,0:0:0:0:
98,42,118034,1,0,0:0:0:0:
22,26,118201,1,2,0:0:0:0:
22,26,118368,1,2,0:0:0:0:
5,100,118534,6,0,P|-9:151|12:204,1,109.999990463257,2|0,0:0|0:0,0:0:0:0:
76,242,119034,2,0,L|148:235,1,54.9999952316285,8|2,0:0|0:0,0:0:0:0:
203,263,119368,2,0,L|275:256,1,54.9999952316285,0|2,0:0|0:0,0:0:0:0:
330,283,119701,2,0,L|402:276,1,54.9999952316285,2|0,0:0|0:0,0:0:0:0:
440,223,120034,6,0,P|444:191|440:153,2,54.9999952316285,14|2|8,0:0|0:0|0:0,0:0:0:0:
384,277,120534,1,2,0:0:0:0:
315,311,120701,2,0,L|324:376,2,54.9999952316285,0|2|0,0:0|0:0|0:0,0:0:0:0:
257,257,121201,6,0,L|237:132,1,109.999990463257,2|2,0:0|0:0,0:0:0:0:
183,95,121701,2,0,L|115:91,2,54.9999952316285,8|2|0,0:0|0:0|0:0,0:0:0:0:
258,78,122201,2,0,L|328:74,1,54.9999952316285,2|8,0:0|0:0,0:0:0:0:
376,31,122534,6,0,P|392:80|352:139,1,109.999990463257,2|2,0:0|0:0,0:0:0:0:
315,187,123034,2,0,P|309:216|318:248,2,54.9999952316285,8|2|0,0:0|0:0|0:0,0:0:0:0:
366,129,123534,2,0,L|441:140,1,54.9999952316285,2|8,0:0|0:0,0:0:0:0:
470,196,123868,2,0,B|444:236|488:268|450:315,2,109.999990463257,2|2|2,0:0|0:0|0:0,0:0:0:0:
420,136,124701,2,0,L|364:129,1,54.9999952316285,2|2,0:0|0:0,0:0:0:0:
310,75,125034,2,0,L|254:68,1,54.9999952316285,2|2,0:0|0:0,0:0:0:0:
209,5,125368,6,0,P|224:62|187:113,1,109.999990463257,2|8,0:0|0:0,0:0:0:0:
147,47,125868,2,0,L|267:70,1,109.999990463257,0|2,0:0|0:0,0:0:0:0:
271,143,126368,1,0,0:0:0:0:
244,214,126534,1,0,0:0:0:0:
280,282,126701,2,0,B|322:272|322:272|362:300|409:283,1,109.999990463257,2|8,0:0|0:0,0:0:0:0:
430,226,127201,2,0,P|409:277|442:345,1,109.999990463257,0|2,0:0|0:0,0:0:0:0:
485,280,127701,1,0,0:0:0:0:
496,356,127868,1,0,0:0:0:0:
424,327,128034,6,0,L|292:338,1,109.999990463257,2|8,0:0|0:0,0:0:0:0:
244,303,128534,1,2,0:0:0:0:
244,303,128618,1,2,0:0:0:0:
244,303,128701,2,2,P|233:245|257:182,1,109.999990463257,2|0,0:0|0:0,0:0:0:0:
216,126,129201,2,0,L|178:117,2,27.4999976158142,2|0|0,0:0|0:0|0:0,0:0:0:0:
256,192,129451,12,0,130701,0:0:0:0:
73,57,142701,6,0,B|63:148|63:148|93:134,1,109.999990463257,6|0,0:0|0:0,0:0:0:0:
152,115,143201,2,0,P|204:101|268:122,2,109.999990463257,0|0|0,0:0|0:0|0:0,0:0:0:0:
289,300,144368,2,0,P|347:312|409:294,1,109.999990463257,0|0,0:0|0:0,0:0:0:0:
342,156,145034,1,0,0:0:0:0:
189,135,145368,6,0,L|62:141,1,109.999990463257
30,200,145868,1,0,0:0:0:0:
148,298,146201,2,0,L|140:371,2,54.9999952316285
496,103,147201,2,0,L|492:42,1,54.9999952316285
417,28,147534,2,0,L|421:92,1,54.9999952316285,0|0,0:0|0:0,0:0:0:0:
359,130,147868,1,0,0:0:0:0:
296,84,148034,6,0,P|286:158|356:209,1,164.999985694885,0|0,0:0|0:0,0:0:0:0:
424,232,148701,2,0,L|430:298,1,54.9999952316285,0|0,0:0|0:0,0:0:0:0:
355,309,149034,2,0,L|349:374,1,54.9999952316285,0|0,0:0|0:0,0:0:0:0:
279,331,149368,6,0,L|269:215,1,109.999990463257,0|0,0:0|0:0,0:0:0:0:
224,159,149868,2,0,P|271:178|330:153,1,109.999990463257,0|0,0:0|0:0,0:0:0:0:
274,100,150368,2,0,L|262:30,1,54.9999952316285,0|0,0:0|0:0,0:0:0:0:
190,25,150701,6,0,P|142:40|82:18,1,109.999990463257,0|0,0:0|0:0,0:0:0:0:
27,71,151201,2,0,L|35:191,1,109.999990463257,0|0,0:0|0:0,0:0:0:0:
256,192,151868,12,0,153034,0:0:0:0:
335,30,153368,6,0,B|281:41|281:41|217:30,1,109.999990463257,12|8,0:0|0:0,0:0:0:0:
184,96,153868,2,0,B|199:156|199:156|184:214,1,109.999990463257,0|8,0:0|0:0,0:0:0:0:
124,157,154368,1,8,0:0:0:0:
59,199,154534,2,0,P|43:248|63:307,1,109.999990463257
127,338,155034,1,8,0:0:0:0:
203,325,155202,1,0,0:0:0:0:
203,325,155285,1,0,0:0:0:0:
203,325,155368,2,0,L|264:331,1,54.9999952316285,0|8,0:0|0:0,0:0:0:0:
317,281,155702,2,0,L|324:221,1,54.9999952316285,8|0,0:0|0:0,0:0:0:0:
378,171,156034,6,0,P|326:148|270:169,1,109.999990463257,0|8,0:0|0:0,0:0:0:0:
217,211,156534,2,0,P|231:158|220:105,1,109.999990463257
172,44,157034,1,8,0:0:0:0:
241,10,157201,2,0,L|362:-2,1,109.999990463257,8|0,0:0|0:0,0:0:0:0:
356,75,157701,2,0,L|479:85,1,109.999990463257,8|0,0:0|0:0,0:0:0:0:
481,119,158118,1,0,0:0:0:0:
481,119,158202,1,0,0:0:0:0:
439,183,158368,2,0,L|442:237,1,54.9999952316285,8|0,0:0|0:0,0:0:0:0:
406,307,158702,6,0,B|364:339|334:289|288:322,1,109.999990463257,0|8,0:0|0:0,0:0:0:0:
231,350,159202,1,0,0:0:0:0:
158,325,159368,2,0,L|88:333,1,54.9999952316285
47,278,159701,2,0,P|43:245|49:214,1,54.9999952316285,8|0,0:0|0:0,0:0:0:0:
62,148,160034,2,0,B|83:89|48:98|77:23,1,109.999990463257,0|8,0:0|0:0,0:0:0:0:
148,28,160534,2,0,L|261:17,1,109.999990463257
323,57,161034,2,0,L|328:120,1,54.9999952316285,8|0,0:0|0:0,0:0:0:0:
382,165,161368,6,0,P|328:155|259:172,1,109.999990463257,0|8,0:0|0:0,0:0:0:0:
206,202,161868,2,0,P|142:215|80:195,1,109.999990463257
47,262,162368,1,8,0:0:0:0:
97,319,162534,2,0,P|153:307|211:325,1,109.999990463257
277,298,163034,2,0,L|271:228,1,54.9999952316285
349,235,163368,2,0,L|355:162,1,54.9999952316285,0|8,0:0|0:0,0:0:0:0:
407,125,163701,1,8,0:0:0:0:
365,13,163868,1,0,0:0:0:0:
310,68,164034,6,4,B|224:75|224:75|236:36,1,109.999990463257,4|8,0:0|0:0,0:0:0:0:
156,30,164534,2,0,B|114:146,1,109.999990463257
65,189,165035,1,8,0:0:0:0:
20,252,165201,2,0,L|34:370,1,109.999990463257,8|0,0:0|0:0,0:0:0:0:
109,366,165702,1,8,0:0:0:0:
152,302,165869,1,0,0:0:0:0:
152,302,165952,1,0,0:0:0:0:
152,302,166035,2,0,L|208:294,1,54.9999952316285
268,247,166368,2,0,L|339:257,1,54.9999952316285,8|0,0:0|0:0,0:0:0:0:
381,304,166701,6,0,P|397:248|372:193,1,109.999990463257,0|8,0:0|0:0,0:0:0:0:
327,144,167201,2,0,L|362:36,1,109.999990463257,8|0,0:0|0:0,0:0:0:0:
434,14,167701,1,8,0:0:0:0:
360,39,167868,2,0,P|304:50|237:30,1,109.999990463257
182,70,168368,2,0,P|168:119|189:191,1,109.999990463257,8|0,0:0|0:0,0:0:0:0:
195,211,168785,1,0,0:0:0:0:
195,211,168869,1,0,0:0:0:0:
135,259,169035,2,0,L|64:264,1,54.9999952316285,8|0,0:0|0:0,0:0:0:0:
57,336,169368,6,0,B|167:330,1,109.999990463257,0|8,0:0|0:0,0:0:0:0:
242,312,169868,1,0,0:0:0:0:
317,296,170034,2,0,P|348:292|386:302,1,54.9999952316285
393,221,170368,2,0,P|385:189|396:153,1,54.9999952316285,8|0,0:0|0:0,0:0:0:0:
441,110,170701,2,0,B|327:126,1,109.999990463257,0|8,0:0|0:0,0:0:0:0:
274,73,171201,2,0,L|141:92,1,109.999990463257
119,150,171701,2,0,P|116:182|122:213,1,54.9999952316285,8|0,0:0|0:0,0:0:0:0:
172,260,172034,6,0,P|118:249|64:260,1,109.999990463257,0|8,0:0|0:0,0:0:0:0:
9,206,172534,2,0,L|-3:85,1,109.999990463257
48,38,173034,1,8,0:0:0:0:
119,67,173201,2,0,P|175:74|232:48,1,109.999990463257
284,6,173701,1,8,0:0:0:0:
317,75,173868,2,0,L|310:146,1,54.9999952316285,0|10,0:0|0:0,0:0:0:0:
370,179,174202,2,0,L|361:250,1,54.9999952316285,10|10,0:0|0:0,0:0:0:0:
397,302,174534,1,10,0:0:0:0:
330,341,174701,6,0,P|276:327|218:344,1,109.999990463257,6|8,0:0|0:0,0:0:0:0:
148,329,175201,1,0,0:0:0:0:
148,329,175284,1,0,0:0:0:0:
148,329,175368,2,0,L|139:260,1,54.9999952316285,0|0,0:0|0:0,0:0:0:0:
91,215,175701,2,0,L|102:144,1,54.9999952316285,0|8,0:0|0:0,0:0:0:0:
125,88,176034,6,0,P|175:62|240:86,1,109.999990463257,0|8,0:0|0:0,0:0:0:0:
304,113,176534,1,0,0:0:0:0:
304,113,176618,1,0,0:0:0:0:
304,113,176701,2,0,L|298:176,1,54.9999952316285
321,241,177034,2,0,L|327:309,1,54.9999952316285,8|0,0:0|0:0,0:0:0:0:
278,357,177368,6,0,P|333:372|391:337,2,109.999990463257,2|2|2,0:0|0:0|0:0,0:0:0:0:
211,318,178201,1,2,0:0:0:0:
211,318,178284,1,0,0:0:0:0:
211,318,178368,2,0,L|146:323,1,54.9999952316285,2|2,0:0|0:0,0:0:0:0:
107,262,178701,6,0,B|120:234|109:200|109:200|96:167|108:139,1,109.999990463257,8|8,0:0|0:0,0:0:0:0:
109,77,179201,2,0,L|150:68,1,27.4999976158142
174,74,179368,2,0,L|218:64,3,27.4999976158142,8|8|8|8,0:0|0:0|0:0|0:0,0:0:0:0:
231,44,179701,2,0,L|303:50,1,54.9999952316285,8|0,0:0|0:0,0:0:0:0:
362,48,180034,6,0,P|351:100|379:168,1,109.999990463257,2|8,0:0|0:0,0:0:0:0:
413,215,180534,2,0,L|293:241,1,109.999990463257,2|0,0:0|0:0,0:0:0:0:
234,266,181034,2,0,L|165:252,1,54.9999952316285,2|2,0:0|0:0,0:0:0:0:
146,185,181368,2,0,P|109:225|117:300,1,109.999990463257
162,348,181868,1,2,0:0:0:0:
162,348,181951,1,2,0:0:0:0:
162,348,182034,2,0,L|286:373,1,109.999990463257,2|2,0:0|0:0,0:0:0:0:
343,346,182534,1,2,0:0:0:0:
373,275,182701,6,0,P|357:230|386:165,2,109.999990463257,2|8|0,0:0|0:0|0:0,0:0:0:0:
434,227,183534,2,0,L|510:217,1,54.9999952316285,0|2,0:0|0:0,0:0:0:0:
506,144,183868,2,0,P|495:86|512:29,1,109.999990463257,2|2,0:0|0:0,0:0:0:0:
437,5,184368,1,2,0:0:0:0:
361,19,184534,1,0,0:0:0:0:
283,22,184701,2,0,P|254:27|216:19,1,54.9999952316285
176,80,185034,2,0,P|183:109|174:149,1,54.9999952316285,2|2,0:0|0:0,0:0:0:0:
128,190,185368,6,0,L|237:187,1,109.999990463257,6|8,0:0|0:0,0:0:0:0:
316,229,185867,1,0,0:0:0:0:
316,229,185950,1,0,0:0:0:0:
316,229,186034,2,0,L|390:227,1,54.9999952316285
421,169,186367,2,0,L|423:97,1,54.9999952316285,0|8,0:0|0:0,0:0:0:0:
356,61,186701,6,0,P|410:29|474:49,1,109.999990463257,0|8,0:0|0:0,0:0:0:0:
422,114,187200,1,0,0:0:0:0:
422,114,187284,1,0,0:0:0:0:
422,114,187367,2,0,L|415:182,1,54.9999952316285
356,224,187701,2,0,L|362:292,1,54.9999952316285,8|0,0:0|0:0,0:0:0:0:
302,330,188034,6,0,P|247:345|189:310,2,109.999990463257,2|2|2,0:0|0:0|0:0,0:0:0:0:
254,269,188867,1,2,0:0:0:0:
254,269,188950,1,0,0:0:0:0:
254,269,189034,2,0,L|202:246,1,54.9999952316285,2|2,0:0|0:0,0:0:0:0:
182,171,189368,2,0,B|177:139|177:139|184:110|184:110|174:78|174:78|178:47,1,109.999990463257,8|8,0:0|0:0,0:0:0:0:
243,27,189868,2,0,L|287:24,1,27.4999976158142
305,30,190034,2,0,L|347:27,3,27.4999976158142,8|8|8|8,0:0|0:0|0:0|0:0,0:0:0:0:
369,39,190368,2,0,L|440:34,1,54.9999952316285,8|0,0:0|0:0,0:0:0:0:
403,109,190701,6,0,P|392:161|420:229,1,109.999990463257,2|8,0:0|0:0,0:0:0:0:
477,249,191201,2,0,P|490:299|469:362,1,109.999990463257,2|8,0:0|0:0,0:0:0:0:
399,369,191701,2,0,L|344:374,1,54.9999952316285,2|2,0:0|0:0,0:0:0:0:
322,300,192034,2,0,P|317:245|323:185,1,109.999990463257,0|8,0:0|0:0,0:0:0:0:
367,130,192534,1,2,0:0:0:0:
367,130,192617,1,2,0:0:0:0:
367,130,192701,2,0,L|265:88,1,109.999990463257,10|10,0:0|0:0,0:0:0:0:
203,42,193200,1,2,0:0:0:0:
139,86,193368,6,0,P|118:136|134:187,2,109.999990463257,2|8|0,0:0|0:0|0:0,0:0:0:0:
203,42,194201,2,0,L|279:32,1,54.9999952316285,0|10,0:0|0:0,0:0:0:0:
324,74,194534,2,0,L|399:63,1,54.9999952316285,2|0,0:0|0:0,0:0:0:0:
416,71,194784,1,0,0:0:0:0:
416,71,194868,1,2,0:0:0:0:
475,119,195034,2,0,L|485:156,3,27.4999976158142,2|0|2|0,0:0|0:0|0:0|0:0,0:0:0:0:
475,183,195368,6,0,L|408:180,1,54.9999952316285,2|2,0:0|0:0,0:0:0:0:
353,219,195701,2,0,L|289:216,1,54.9999952316285,2|2,0:0|0:0,0:0:0:0:
256,192,196034,12,0,201701,0:0:0:0:
