osu file format v14

[General]
AudioFilename: Sakuzyo,Siilento's Solid - ChaiN DestructioN (Siilento's Solid Remix).mp3
AudioLeadIn: 0
PreviewTime: 82534
Countdown: 0
SampleSet: Soft
StackLeniency: 0.7
Mode: 0
LetterboxInBreaks: 0
WidescreenStoryboard: 0

[Editor]
Bookmarks: 109368,127201
DistanceSpacing: 0.9
BeatDivisor: 4
GridSize: 16
TimelineZoom: 2.999999

[Metadata]
Title:ChaiN De/structioN (siilento's solid remix)
TitleUnicode:ChaiN De/structioN (siilento's solid remix)
Artist:sakuzyo
ArtistUnicode:削除
Creator:Ryuusei Aika
Version:Kujinn's Expert
Source:
Tags:VOCALOID ボーカロイド 初音ミク Hatsune Miku (∵)キョトンP kyotonP DENSHI ONGAKU HAMO Arutsuki ShogunMoon Chalwa Azulae Beomsan Kujinn
BeatmapID:1208458
BeatmapSetID:531385

[Difficulty]
HPDrainRate:6
CircleSize:3.8
OverallDifficulty:8.6
ApproachRate:9.4
SliderMultiplier:1.89999990463257
SliderTickRate:1

[Events]
//Background and Video events
0,0,"BG.jpg",0,0
//Break Periods
2,132234,142161
//Storyboard Layer 0 (Background)
//Storyboard Layer 1 (Fail)
//Storyboard Layer 2 (Pass)
//Storyboard Layer 3 (Foreground)
//Storyboard Sound Samples

[TimingPoints]
35,333.333333333333,4,2,1,50,1,0
10701,-111.111111111111,4,1,1,75,0,0
42034,-142.857142857143,4,2,1,60,0,0
42701,-90.9090909090909,4,1,1,85,0,0
44034,-125,4,1,1,85,0,0
44701,-166.666666666667,4,1,1,85,0,0
45034,-80,4,3,1,85,0,0
45368,-90.9090909090909,4,1,1,85,0,0
47368,-200,4,1,1,85,0,0
47701,-80,4,1,1,85,0,0
48034,-90.9090909090909,4,1,1,85,0,0
49368,-125,4,1,1,85,0,0
50034,-200,4,1,1,85,0,0
50368,-80,4,1,1,85,0,0
50701,-90.9090909090909,4,1,1,85,0,0
52701,-200,4,1,1,85,0,0
53034,-74.0740740740741,4,1,1,85,0,0
53368,-166.666666666667,4,2,1,60,0,0
58701,-71.4285714285714,4,3,1,90,0,0
64034,-90.9090909090909,4,1,1,100,0,1
85368,-303.030303030303,4,1,0,60,0,0
88034,-117.647058823529,4,1,1,60,0,0
88368,-64.5161290322581,4,1,1,85,0,0
88534,-117.647058823529,4,1,1,60,0,0
88868,-60.6060606060606,4,1,1,90,0,0
89034,-105.263157894737,4,1,1,60,0,0
89368,-57.1428571428571,4,1,1,93,0,0
89534,-95.2380952380952,4,1,1,60,0,0
89868,-57.1428571428571,4,1,1,100,0,0
90034,-100,4,1,1,70,0,0
90701,-74.0740740740741,4,1,1,75,0,0
93368,-117.647058823529,4,1,1,60,0,0
93701,-64.5161290322579,4,1,1,85,0,0
93868,-117.647058823529,4,1,1,60,0,0
94201,-60.6060606060606,4,1,1,90,0,0
94368,-95.2380952380952,4,1,1,60,0,0
94701,-57.1428571428571,4,1,1,93,0,0
94868,-86.9565217391304,4,1,1,60,0,0
98034,-125,4,1,1,60,0,0
98368,-83.3333333333333,4,1,1,60,0,0
98701,-117.647058823529,4,1,1,60,0,0
99034,-64.5161290322581,4,1,1,85,0,0
99201,-105.263157894737,4,1,1,60,0,0
99534,-60.6060606060606,4,1,1,90,0,0
99701,-95.2380952380952,4,1,1,60,0,0
100034,-57.1428571428571,4,1,1,93,0,0
100201,-86.9565217391304,4,1,1,60,0,0
101368,-74.0740740740741,4,1,1,75,0,0
104034,-117.647058823529,4,1,1,60,0,0
104368,-64.5161290322581,4,1,1,85,0,0
104534,-105.263157894737,4,1,1,60,0,0
104868,-60.6060606060607,4,1,1,90,0,0
105034,-95.2380952380952,4,1,1,60,0,0
105368,-57.1428571428571,4,1,1,93,0,0
105534,-86.9565217391304,4,1,1,60,0,0
106034,-94.3396226415094,4,1,1,70,0,0
106701,-80,4,1,1,75,0,0
108701,-200,4,1,1,60,0,0
108951,-200,4,1,1,5,0,0
109034,-116.279069767442,4,1,1,85,0,0
109284,-116.279069767442,4,1,1,5,0,0
109368,-90.9090909090909,4,1,1,75,0,0
120034,-90.9090909090909,4,1,1,85,0,0
132034,-90.9090909090909,4,2,1,90,0,0
142701,-142.857142857143,4,2,1,40,0,0
152034,-100,4,3,1,85,0,0
153368,-90.9090909090909,4,1,1,100,0,1
174701,-83.3333333333333,4,1,1,90,0,0
190701,-83.3333333333333,4,1,1,90,0,0
201701,-83.3333333333333,4,2,1,35,0,0

[Colours]
Combo1 : 150,150,180
Combo2 : 0,100,200
Combo3 : 180,180,200
Combo4 : 0,200,250

[HitObjects]
258,266,10701,6,0,L|267:88,1,170.999986198426,4|8,0:0|0:0,0:0:0:0:
130,171,11201,1,0,0:0:0:0:
130,171,11284,1,0,0:0:0:0:
130,171,11368,2,0,L|120:100,1,42.7499965496065,0|0,0:0|0:0,0:0:0:0:
110,29,11534,1,0,0:0:0:0:
235,160,11701,1,0,0:0:0:0:
57,340,11868,6,0,P|23:265|59:171,1,170.999986198426,8|0,0:0|0:0,0:0:0:0:
195,339,12368,2,0,L|285:324,1,85.4999930992129,8|0,0:0|0:0,0:0:0:0:
279,324,12618,1,0,0:0:0:0:
279,324,12701,1,0,0:0:0:0:
432,290,12868,1,0,0:0:0:0:
239,244,13034,2,0,P|225:195|240:142,1,85.4999930992129,8|0,0:0|0:0,0:0:0:0:
369,38,13368,6,0,L|353:223,1,170.999986198426,0|8,0:0|0:0,0:0:0:0:
278,324,13868,2,0,L|190:309,1,85.4999930992129
52,280,14201,1,0,0:0:0:0:
232,158,14368,1,8,0:0:0:0:
193,309,14534,1,0,0:0:0:0:
50,157,14701,5,0,0:0:0:0:
50,157,14784,1,0,0:0:0:0:
50,157,14868,1,0,0:0:0:0:
186,44,15034,1,8,0:0:0:0:
123,251,15201,1,0,0:0:0:0:
123,251,15284,5,0,0:0:0:0:
123,251,15368,2,0,L|131:181,1,42.7499965496065,0|0,0:0|0:0,0:0:0:0:
151,20,15534,1,0,0:0:0:0:
242,233,15701,1,8,0:0:0:0:
86,106,15868,1,0,0:0:0:0:
306,140,16034,6,0,L|488:115,1,170.999986198426,0|8,0:0|0:0,0:0:0:0:
281,51,16534,1,0,0:0:0:0:
281,51,16618,1,0,0:0:0:0:
281,51,16701,2,0,L|219:44,1,42.7499965496065
139,34,16868,1,0,0:0:0:0:
359,13,17034,1,0,0:0:0:0:
212,135,17201,6,0,L|240:329,1,170.999986198426,8|0,0:0|0:0,0:0:0:0:
330,208,17701,1,8,0:0:0:0:
132,342,17868,1,0,0:0:0:0:
132,342,17951,1,0,0:0:0:0:
132,342,18034,2,0,L|119:275,1,42.7499965496065,0|0,0:0|0:0,0:0:0:0:
39,191,18201,2,0,L|35:234,1,42.7499965496065
24,313,18368,1,8,0:0:0:0:
54,93,18534,1,0,0:0:0:0:
176,170,18701,6,0,L|367:142,1,170.999986198426,0|8,0:0|0:0,0:0:0:0:
463,87,19201,2,0,L|372:71,1,85.4999930992129,0|0,0:0|0:0,0:0:0:0:
340,63,19451,1,0,0:0:0:0:
302,54,19534,1,0,0:0:0:0:
400,222,19701,1,8,0:0:0:0:
463,87,19868,1,0,0:0:0:0:
250,160,20034,5,0,0:0:0:0:
250,160,20118,1,0,0:0:0:0:
250,160,20201,1,0,0:0:0:0:
168,328,20368,1,8,0:0:0:0:
110,88,20534,1,0,0:0:0:0:
110,88,20618,1,0,0:0:0:0:
110,88,20701,2,0,L|137:133,1,42.7499965496065,0|0,0:0|0:0,0:0:0:0:
258,310,20868,1,0,0:0:0:0:
54,236,21034,1,8,0:0:0:0:
221,85,21201,1,0,0:0:0:0:
408,238,21368,6,0,L|227:256,1,170.999986198426,4|8,0:0|0:0,0:0:0:0:
110,343,21868,1,0,0:0:0:0:
110,343,21951,1,0,0:0:0:0:
110,343,22034,2,0,L|100:265,1,42.7499965496065,0|0,0:0|0:0,0:0:0:0:
83,157,22201,1,0,0:0:0:0:
13,305,22368,1,0,0:0:0:0:
224,217,22534,6,0,L|236:45,1,170.999986198426,8|0,0:0|0:0,0:0:0:0:
132,77,23034,1,8,0:0:0:0:
313,169,23201,1,0,0:0:0:0:
313,169,23284,1,0,0:0:0:0:
313,169,23368,2,0,L|419:155,1,85.4999930992129,0|0,0:0|0:0,0:0:0:0:
486,49,23701,2,0,L|393:40,1,85.4999930992129,8|0,0:0|0:0,0:0:0:0:
132,77,24034,6,0,B|214:59|214:59|332:94,1,170.999986198426,0|8,0:0|0:0,0:0:0:0:
197,218,24534,2,0,L|85:207,1,85.4999930992129,0|0,0:0|0:0,0:0:0:0:
1,197,24868,1,0,0:0:0:0:
159,351,25034,1,8,0:0:0:0:
218,140,25201,1,0,0:0:0:0:
59,299,25368,5,0,0:0:0:0:
59,299,25451,1,0,0:0:0:0:
59,299,25534,1,0,0:0:0:0:
350,257,25701,1,8,0:0:0:0:
128,199,25868,5,0,0:0:0:0:
128,199,25951,1,0,0:0:0:0:
128,199,26034,2,0,L|186:226,1,42.7499965496065,0|0,0:0|0:0,0:0:0:0:
435,334,26201,1,0,0:0:0:0:
286,129,26368,1,8,0:0:0:0:
139,341,26534,1,0,0:0:0:0:
412,224,26701,6,0,L|425:35,1,170.999986198426,0|8,0:0|0:0,0:0:0:0:
227,201,27201,1,0,0:0:0:0:
227,201,27284,1,0,0:0:0:0:
227,201,27368,2,0,L|214:111,1,85.4999930992129,0|0,0:0|0:0,0:0:0:0:
195,6,27701,1,0,0:0:0:0:
227,201,27868,6,0,L|210:387,1,170.999986198426,8|0,0:0|0:0,0:0:0:0:
345,229,28368,1,8,0:0:0:0:
47,278,28534,1,0,0:0:0:0:
47,278,28618,1,0,0:0:0:0:
47,278,28701,2,0,L|35:205,1,42.7499965496065,0|0,0:0|0:0,0:0:0:0:
133,160,28868,2,0,L|143:98,1,42.7499965496065,0|0,0:0|0:0,0:0:0:0:
51,36,29034,1,8,0:0:0:0:
154,247,29201,1,0,0:0:0:0:
377,95,29368,6,0,L|198:80,1,170.999986198426,0|8,0:0|0:0,0:0:0:0:
304,219,29868,2,0,L|395:211,1,85.4999930992129,0|0,0:0|0:0,0:0:0:0:
506,204,30201,1,0,0:0:0:0:
245,100,30368,1,8,0:0:0:0:
362,336,30534,1,0,0:0:0:0:
410,50,30701,5,0,0:0:0:0:
410,50,30784,1,0,0:0:0:0:
410,50,30868,1,0,0:0:0:0:
258,285,31034,1,8,0:0:0:0:
281,31,31201,1,0,0:0:0:0:
281,31,31284,1,0,0:0:0:0:
281,31,31368,2,0,L|291:97,1,42.7499965496065,0|0,0:0|0:0,0:0:0:0:
322,316,31534,1,0,0:0:0:0:
190,100,31701,1,8,0:0:0:0:
97,350,31868,1,0,0:0:0:0:
294,233,32034,6,0,P|325:157|278:62,1,170.999986198426,4|8,0:0|0:0,0:0:0:0:
99,176,32534,1,0,0:0:0:0:
99,176,32618,1,0,0:0:0:0:
99,176,32701,2,0,L|107:245,1,42.7499965496065,0|0,0:0|0:0,0:0:0:0:
117,351,32868,1,0,0:0:0:0:
209,164,33034,1,0,0:0:0:0:
34,257,33201,1,8,0:0:0:0:
250,332,33368,6,0,L|345:340,1,85.4999930992129,0|0,0:0|0:0,0:0:0:0:
451,257,33701,1,8,0:0:0:0:
323,67,33868,1,0,0:0:0:0:
323,67,33951,1,0,0:0:0:0:
323,67,34034,2,0,L|313:129,1,42.7499965496065,0|0,0:0|0:0,0:0:0:0:
286,261,34201,1,0,0:0:0:0:
223,35,34368,1,8,0:0:0:0:
387,181,34534,1,0,0:0:0:0:
197,282,34701,6,0,L|19:257,1,170.999986198426,0|8,0:0|0:0,0:0:0:0:
164,175,35201,2,0,L|261:166,1,85.4999930992129,0|0,0:0|0:0,0:0:0:0:
372,155,35534,1,0,0:0:0:0:
148,59,35701,1,8,0:0:0:0:
296,295,35868,1,0,0:0:0:0:
290,42,36034,5,0,0:0:0:0:
290,42,36118,1,0,0:0:0:0:
290,42,36201,1,0,0:0:0:0:
197,282,36368,1,8,0:0:0:0:
412,38,36534,1,0,0:0:0:0:
412,38,36618,1,0,0:0:0:0:
412,38,36701,2,0,L|394:96,1,42.7499965496065,0|0,0:0|0:0,0:0:0:0:
296,295,36868,1,0,0:0:0:0:
268,124,37034,1,8,0:0:0:0:
450,289,37201,1,0,0:0:0:0:
154,331,37368,6,0,L|138:133,1,170.999986198426,0|8,0:0|0:0,0:0:0:0:
228,57,37868,1,0,0:0:0:0:
228,57,37951,1,0,0:0:0:0:
228,57,38034,2,0,L|236:130,1,42.7499965496065,0|0,0:0|0:0,0:0:0:0:
253,242,38201,1,0,0:0:0:0:
118,82,38368,1,0,0:0:0:0:
326,113,38534,1,8,0:0:0:0:
237,264,38701,6,0,L|128:253,1,85.4999930992129,0|0,0:0|0:0,0:0:0:0:
46,243,39034,1,8,0:0:0:0:
228,371,39201,1,0,0:0:0:0:
228,371,39284,1,0,0:0:0:0:
228,371,39368,2,0,L|285:366,1,42.7499965496065,0|0,0:0|0:0,0:0:0:0:
485,348,39534,1,0,0:0:0:0:
317,169,39701,1,8,0:0:0:0:
376,366,39868,1,0,0:0:0:0:
454,212,40034,6,0,L|473:38,1,170.999986198426,0|8,0:0|0:0,0:0:0:0:
317,169,40534,2,0,L|305:65,1,85.4999930992129,0|0,0:0|0:0,0:0:0:0:
294,0,40868,1,0,0:0:0:0:
141,271,41034,2,0,L|151:171,1,85.4999930992129,8|0,0:0|0:0,0:0:0:0:
160,53,41368,5,0,0:0:0:0:
160,53,41451,1,0,0:0:0:0:
160,53,41534,1,0,0:0:0:0:
306,296,41701,1,8,0:0:0:0:
306,296,41784,1,0,0:0:0:0:
306,296,41868,1,0,0:0:0:0:
52,132,42034,5,4,0:0:0:0:
454,212,42368,1,4,0:0:0:0:
164,350,42701,6,0,L|152:176,1,156.749996915817,4|0,0:0|0:0,0:0:0:0:
154,141,43034,1,8,0:0:0:0:
243,68,43201,2,0,L|251:237,1,156.749996915817
253,276,43534,1,2,0:0:0:0:
57,184,43701,2,0,L|51:72,1,104.499997943878,0|0,0:0|0:0,0:0:0:0:
282,15,44034,2,0,L|287:105,1,75.9999961853028,0|0,0:0|0:0,0:0:0:0:
391,131,44368,2,0,L|396:228,1,75.9999961853028
316,328,44701,6,0,L|211:336,1,85.4999930992129,8|0,0:0|0:0,0:0:0:0:
128,318,45034,6,2,P|81:276|158:286,1,178.124991059303,2|0,0:0|0:0,0:0:0:0:
230,334,45368,6,0,L|401:322,1,156.749996915817
439,319,45701,1,2,0:0:0:0:
375,228,45868,2,0,L|191:241,1,156.749996915817,0|0,0:0|0:0,0:0:0:0:
166,241,46201,1,2,0:0:0:0:
276,159,46368,2,0,P|291:100|261:46,1,104.499997943878,0|0,0:0|0:0,0:0:0:0:
66,71,46701,2,0,P|48:126|81:184,1,104.499997943878,0|0,0:0|0:0,0:0:0:0:
166,241,47034,2,0,L|171:124,1,104.499997943878,0|0,0:0|0:0,0:0:0:0:
244,324,47368,6,0,P|281:332|323:324,1,71.2499964237214,8|0,0:0|0:0,0:0:0:0:
388,283,47701,6,2,P|365:224|418:279,1,178.124991059303,2|0,0:0|0:0,0:0:0:0:
313,327,48034,6,0,P|257:328|163:270,1,156.749996915817,0|0,0:0|0:0,0:0:0:0:
131,245,48368,1,8,0:0:0:0:
211,179,48534,2,0,P|267:179|361:121,1,156.749996915817
394,96,48868,1,2,0:0:0:0:
254,75,49034,6,0,P|197:75|103:17,1,156.749996915817,0|0,0:0|0:0,0:0:0:0:
93,12,49368,2,0,L|104:121,1,75.9999961853028,0|0,0:0|0:0,0:0:0:0:
37,168,49701,2,0,L|48:271,1,75.9999961853028,0|0,0:0|0:0,0:0:0:0:
262,362,50034,2,0,L|270:284,1,71.2499964237214,8|0,0:0|0:0,0:0:0:0:
305,227,50368,6,2,P|361:193|282:184,1,178.124991059303,2|0,0:0|0:0,0:0:0:0:
185,218,50701,6,0,P|179:134|196:98,1,104.499997943878,0|0,0:0|0:0,0:0:0:0:
98,27,51034,1,2,0:0:0:0:
0,146,51201,2,0,P|6:230|-11:266,1,104.499997943878,0|0,0:0|0:0,0:0:0:0:
106,331,51534,1,2,0:0:0:0:
185,218,51701,1,0,0:0:0:0:
185,218,51784,1,0,0:0:0:0:
185,218,51868,2,0,L|178:150,1,52.2499989719391,0|0,0:0|0:0,0:0:0:0:
165,57,52034,5,0,0:0:0:0:
205,45,52118,1,0,0:0:0:0:
246,44,52201,1,0,0:0:0:0:
284,59,52284,1,0,0:0:0:0:
319,81,52368,1,0,0:0:0:0:
360,87,52451,1,0,0:0:0:0:
400,79,52534,1,0,0:0:0:0:
435,56,52618,1,0,0:0:0:0:
463,28,52701,6,0,L|470:101,1,71.2499964237214,0|0,0:0|0:0,0:0:0:0:
417,242,53034,2,2,P|353:225|437:197,1,192.3749910779,2|0,0:0|0:0,0:0:0:0:
402,344,53368,6,0,L|275:331,1,113.999990798951,0|0,0:0|0:0,0:0:0:0:
41,211,54034,2,0,L|168:198,1,113.999990798951,0|0,0:0|0:0,0:0:0:0:
388,36,54701,2,0,L|379:164,1,113.999990798951,0|0,0:0|0:0,0:0:0:0:
189,277,55368,2,0,L|201:164,1,113.999990798951
41,328,56034,5,0,0:0:0:0:
317,215,56368,1,0,0:0:0:0:
47,140,56701,1,0,0:0:0:0:
203,367,57034,1,0,0:0:0:0:
286,24,57368,5,0,0:0:0:0:
146,265,57701,1,0,0:0:0:0:
455,131,58034,1,0,0:0:0:0:
195,66,58368,1,8,0:0:0:0:
337,182,58534,1,0,0:0:0:0:
337,182,58618,1,0,0:0:0:0:
337,182,58701,6,0,L|349:329,1,132.999989265442
217,248,59034,1,8,0:0:0:0:
436,184,59201,1,0,0:0:0:0:
436,184,59284,1,0,0:0:0:0:
436,184,59368,2,0,L|426:46,1,132.999989265442,0|0,0:0|0:0,0:0:0:0:
241,8,59701,1,8,0:0:0:0:
75,82,59868,1,0,0:0:0:0:
75,82,59951,1,0,0:0:0:0:
75,82,60034,6,0,L|86:268,1,132.999989265442,0|0,0:0|0:0,0:0:0:0:
317,340,60368,1,8,0:0:0:0:
161,297,60534,1,0,0:0:0:0:
161,297,60618,1,0,0:0:0:0:
161,297,60701,2,0,L|152:149,1,132.999989265442,0|0,0:0|0:0,0:0:0:0:
315,83,61034,1,8,0:0:0:0:
450,242,61201,1,0,0:0:0:0:
450,242,61284,1,0,0:0:0:0:
450,242,61368,5,0,0:0:0:0:
280,173,61534,1,0,0:0:0:0:
449,89,61701,1,0,0:0:0:0:
319,298,61868,1,0,0:0:0:0:
166,186,62034,2,0,L|154:117,3,66.4999946327212,0|0|0|0,0:0|0:0|0:0|0:0,0:0:0:0:
256,78,62368,2,0,L|245:4,3,66.4999946327212,0|0|0|0,0:0|0:0|0:0|0:0,0:0:0:0:
368,50,62701,5,4,0:0:0:0:
388,84,62784,1,4,0:0:0:0:
394,123,62868,1,4,0:0:0:0:
378,159,62951,1,4,0:0:0:0:
361,195,63034,1,4,0:0:0:0:
353,234,63118,1,4,0:0:0:0:
365,271,63201,1,4,0:0:0:0:
383,306,63284,1,4,0:0:0:0:
403,335,63368,6,0,L|301:345,1,66.4999946327212,2|2,0:0|0:0,0:0:0:0:
301,302,63534,2,0,L|200:312,1,66.4999946327212,2|2,0:0|0:0,0:0:0:0:
81,196,63701,6,0,L|183:206,1,66.4999946327212,2|2,0:0|0:0,0:0:0:0:
183,163,63867,2,0,L|284:173,1,66.4999946327212,2|2,0:0|0:0,0:0:0:0:
404,165,64034,6,0,P|447:109|377:120,1,156.749996915817,4|0,0:0|0:0,0:0:0:0:
371,110,64368,1,8,0:0:0:0:
234,309,64534,1,0,0:0:0:0:
213,271,64618,1,0,0:0:0:0:
209,229,64701,1,0,0:0:0:0:
259,79,64868,1,0,0:0:0:0:
345,239,65034,1,0,0:0:0:0:
138,358,65201,6,0,L|121:173,1,156.749996915817,8|0,0:0|0:0,0:0:0:0:
121,169,65534,1,0,0:0:0:0:
53,300,65701,1,8,0:0:0:0:
272,207,65868,2,0,L|364:222,1,52.2499989719391,0|0,0:0|0:0,0:0:0:0:
449,128,66034,2,0,L|369:115,1,52.2499989719391,0|0,0:0|0:0,0:0:0:0:
285,98,66201,1,0,0:0:0:0:
451,238,66368,1,8,0:0:0:0:
395,15,66534,1,0,0:0:0:0:
297,296,66701,6,0,P|359:324|450:230,1,208.999995887756,0|8,0:0|0:0,0:0:0:0:
296,295,67201,2,0,P|275:249|285:198,1,104.499997943878,0|0,0:0|0:0,0:0:0:0:
438,140,67534,2,0,P|459:186|449:237,1,104.499997943878,0|8,0:0|0:0,0:0:0:0:
246,345,67868,1,0,0:0:0:0:
124,207,68034,5,0,0:0:0:0:
83,218,68118,1,0,0:0:0:0:
43,230,68201,1,0,0:0:0:0:
175,39,68368,1,8,0:0:0:0:
301,140,68534,1,0,0:0:0:0:
301,140,68618,1,0,0:0:0:0:
301,140,68701,2,0,L|297:220,1,52.2499989719391,2|0,0:0|0:0,0:0:0:0:
208,326,68868,2,0,L|210:246,1,52.2499989719391,2|0,0:0|0:0,0:0:0:0:
210,151,69034,1,10,0:0:0:0:
338,288,69201,1,2,0:0:0:0:
125,374,69368,6,0,P|95:302|135:171,1,208.999995887756,2|8,0:0|0:0,0:0:0:0:
336,62,69868,2,0,L|263:57,1,52.2499989719391
187,55,70034,1,2,0:0:0:0:
407,20,70201,2,0,P|419:70|398:117,1,104.499997943878,2|2,0:0|0:0,0:0:0:0:
243,246,70534,5,10,0:0:0:0:
243,246,70618,1,0,0:0:0:0:
243,246,70701,2,0,B|338:240|338:240|361:215|361:215|479:209,1,208.999995887756,2|8,0:0|0:0,0:0:0:0:
346,340,71201,1,0,0:0:0:0:
307,323,71284,1,0,0:0:0:0:
264,326,71368,1,0,0:0:0:0:
225,340,71451,1,0,0:0:0:0:
188,360,71534,2,0,L|177:285,1,52.2499989719391,2|0,0:0|0:0,0:0:0:0:
101,260,71701,2,0,L|90:180,1,52.2499989719391,10|0,0:0|0:0,0:0:0:0:
178,140,71868,2,0,L|169:54,1,52.2499989719391,2|0,0:0|0:0,0:0:0:0:
81,36,72034,6,0,P|37:112|95:209,1,208.999995887756,0|8,0:0|0:0,0:0:0:0:
180,308,72534,2,0,P|231:271|382:321,1,208.999995887756
454,370,73034,1,8,0:0:0:0:
512,143,73201,2,0,B|436:156|436:156|401:137|401:137|264:157,1,208.999995887756
234,171,73618,5,0,0:0:0:0:
234,171,73701,1,8,0:0:0:0:
331,29,73868,1,0,0:0:0:0:
395,240,74034,1,2,0:0:0:0:
225,47,74201,1,2,0:0:0:0:
451,80,74368,1,10,0:0:0:0:
284,280,74534,1,2,0:0:0:0:
284,280,74618,1,0,0:0:0:0:
284,280,74701,6,0,B|203:269|203:269|171:296|171:296|57:279,1,208.999995887756,4|8,0:0|0:0,0:0:0:0:
46,156,75201,2,0,L|65:80,1,52.2499989719391,0|0,0:0|0:0,0:0:0:0:
69,65,75368,1,0,0:0:0:0:
215,251,75534,1,0,0:0:0:0:
252,99,75701,1,0,0:0:0:0:
150,318,75868,6,0,P|212:345|306:265,1,156.749996915817,8|0,0:0|0:0,0:0:0:0:
314,275,76201,1,0,0:0:0:0:
150,318,76368,1,8,0:0:0:0:
406,382,76534,1,0,0:0:0:0:
423,343,76618,1,0,0:0:0:0:
431,302,76701,1,0,0:0:0:0:
428,260,76784,1,0,0:0:0:0:
419,218,76868,1,0,0:0:0:0:
275,138,77034,2,0,P|264:76|286:29,1,104.499997943878,8|0,0:0|0:0,0:0:0:0:
269,239,77368,6,0,P|189:278|96:203,1,208.999995887756,0|8,0:0|0:0,0:0:0:0:
275,138,77868,2,0,P|284:191|257:253,1,104.499997943878,0|0,0:0|0:0,0:0:0:0:
99,214,78201,2,0,P|95:147|133:99,1,104.499997943878,0|8,0:0|0:0,0:0:0:0:
228,35,78534,1,0,0:0:0:0:
344,193,78701,5,0,0:0:0:0:
383,183,78784,1,0,0:0:0:0:
423,173,78868,1,0,0:0:0:0:
282,337,79034,1,8,0:0:0:0:
113,268,79201,1,0,0:0:0:0:
113,268,79284,1,0,0:0:0:0:
113,268,79368,2,0,L|101:197,1,52.2499989719391,2|0,0:0|0:0,0:0:0:0:
194,63,79534,2,0,L|203:115,1,52.2499989719391,2|0,0:0|0:0,0:0:0:0:
230,242,79701,1,10,0:0:0:0:
88,125,79868,1,2,0:0:0:0:
303,46,80034,6,0,P|389:40|443:170,1,208.999995887756,2|8,0:0|0:0,0:0:0:0:
357,274,80534,2,0,L|353:195,1,52.2499989719391,0|0,0:0|0:0,0:0:0:0:
349,143,80701,1,2,0:0:0:0:
311,347,80868,2,0,P|376:362|432:330,1,104.499997943878,2|2,0:0|0:0,0:0:0:0:
259,227,81201,1,10,0:0:0:0:
259,227,81285,1,0,0:0:0:0:
259,227,81368,6,0,B|170:235|170:235|148:263|148:263|33:271,1,208.999995887756,2|8,0:0|0:0,0:0:0:0:
105,174,81868,1,0,0:0:0:0:
84,137,81952,1,0,0:0:0:0:
80,95,82035,1,0,0:0:0:0:
94,56,82118,1,0,0:0:0:0:
124,27,82201,2,0,L|193:35,1,52.2499989719391,2|0,0:0|0:0,0:0:0:0:
223,118,82368,2,0,L|291:124,1,52.2499989719391,10|0,0:0|0:0,0:0:0:0:
352,40,82534,2,0,L|439:47,1,52.2499989719391,2|0,0:0|0:0,0:0:0:0:
410,138,82701,6,0,B|395:222|395:222|406:262|406:262|383:378,1,208.999995887756,0|8,0:0|0:0,0:0:0:0:
139,342,83201,1,0,0:0:0:0:
139,342,83284,1,0,0:0:0:0:
139,342,83368,2,0,B|124:262|124:262|135:222|135:222|120:138,1,208.999995887756,0|8,0:0|0:0,0:0:0:0:
284,74,83868,1,0,0:0:0:0:
284,74,83951,1,0,0:0:0:0:
284,74,84034,5,0,0:0:0:0:
300,112,84118,1,0,0:0:0:0:
298,153,84201,1,0,0:0:0:0:
273,186,84284,1,0,0:0:0:0:
252,222,84368,1,0,0:0:0:0:
243,262,84451,1,0,0:0:0:0:
249,303,84534,1,0,0:0:0:0:
270,339,84618,1,0,0:0:0:0:
311,338,84701,6,0,L|325:253,1,52.2499989719391,2|0,0:0|0:0,0:0:0:0:
192,286,84868,2,0,L|201:338,1,52.2499989719391,2|0,0:0|0:0,0:0:0:0:
254,215,85034,2,0,L|253:95,1,104.499997943878
188,37,85368,6,2,P|178:173|315:37,1,470.249974961472,0|0,0:0|0:0,0:0:0:0:
188,37,88034,6,0,P|127:57|67:25,1,121.124996230602,0|0,0:0|0:0,0:0:0:0:
50,18,88368,2,0,L|67:100,1,73.6249968662262,2|0,0:0|0:0,0:0:0:0:
83,213,88534,6,0,P|141:193|212:220,1,121.124996230602,0|0,0:0|0:0,0:0:0:0:
228,235,88868,2,0,L|241:149,1,78.3749968135357,2|0,0:0|0:0,0:0:0:0:
345,55,89034,6,0,L|363:200,1,135.374989590168
314,336,89368,2,0,L|299:254,1,83.1249966204167,2|0,0:0|0:0,0:0:0:0:
362,190,89534,2,0,P|425:213|495:160,1,149.624987923623,0|0,0:0|0:0,0:0:0:0:
419,127,89868,1,2,0:0:0:0:
314,336,90034,6,0,L|189:324,1,94.9999952316285,8|0,0:0|0:0,0:0:0:0:
44,229,90368,2,0,L|166:223,1,94.9999952316285,2|2,0:0|0:0,0:0:0:0:
296,67,90701,6,0,P|213:31|119:147,1,256.499988103867,4|8,0:0|0:0,0:0:0:0:
255,264,91201,2,0,B|363:278|363:278|399:257|399:257|534:273,1,256.499988103867
332,175,91701,2,0,B|267:140|208:178|208:178|137:225|57:160,1,256.499988103867,0|0,0:0|0:0,0:0:0:0:
372,243,92201,2,0,B|421:211|422:145|377:108|377:108|413:58|370:7,1,256.499988103867,0|0,0:0|0:0,0:0:0:0:
268,234,92701,6,0,P|217:276|213:347,1,128.249994051933,0|0,0:0|0:0,0:0:0:0:
149,118,93034,2,0,P|106:62|108:-1,1,128.249994051933,8|0,0:0|0:0,0:0:0:0:
328,173,93368,6,0,P|389:167|443:197,1,121.124996230602,0|0,0:0|0:0,0:0:0:0:
460,214,93701,2,0,L|446:130,1,73.6249968662262,2|0,0:0|0:0,0:0:0:0:
413,32,93868,6,0,P|354:54|276:23,1,121.124996230602,0|0,0:0|0:0,0:0:0:0:
267,27,94201,2,0,L|251:122,1,78.3749968135357,2|0,0:0|0:0,0:0:0:0:
165,212,94368,6,0,L|142:61,1,149.624987923623,0|0,0:0|0:0,0:0:0:0:
37,23,94701,2,0,L|22:120,1,83.1249966204167,2|0,0:0|0:0,0:0:0:0:
3,246,94868,6,0,P|73:238|135:315,1,163.874994900227,0|0,0:0|0:0,0:0:0:0:
44,319,95201,1,2,0:0:0:0:
166,209,95368,2,0,L|289:225,1,109.249996600151,8|0,0:0|0:0,0:0:0:0:
457,89,95701,2,0,L|328:71,1,109.249996600151,2|2,0:0|0:0,0:0:0:0:
138,31,96034,5,0,0:0:0:0:
190,188,96201,1,0,0:0:0:0:
120,61,96368,1,8,0:0:0:0:
234,199,96534,1,0,0:0:0:0:
83,182,96701,5,0,0:0:0:0:
311,148,96868,1,0,0:0:0:0:
77,222,97034,1,8,0:0:0:0:
306,111,97201,1,0,0:0:0:0:
197,317,97368,5,0,0:0:0:0:
179,80,97534,1,0,0:0:0:0:
232,325,97701,1,8,0:0:0:0:
142,74,97868,1,0,0:0:0:0:
412,268,98034,6,0,P|434:226|395:148,1,113.999994277954,0|0,0:0|0:0,0:0:0:0:
360,213,98368,2,0,B|274:172|291:254|166:196,1,170.999986198426,0|0,0:0|0:0,0:0:0:0:
159,192,98701,6,0,P|150:150|183:75,1,121.124996230602,0|0,0:0|0:0,0:0:0:0:
208,59,99034,2,0,L|119:77,1,73.6249968662262,2|0,0:0|0:0,0:0:0:0:
19,98,99201,6,0,P|49:146|36:227,1,135.374989590168,0|0,0:0|0:0,0:0:0:0:
25,253,99534,2,0,L|127:229,1,78.3749968135357,2|0,0:0|0:0,0:0:0:0:
192,211,99701,6,0,B|177:318|177:318|214:277,1,149.624987923623,0|0,0:0|0:0,0:0:0:0:
240,142,100034,2,0,P|189:128|148:143,1,83.1249966204167,2|0,0:0|0:0,0:0:0:0:
205,287,100201,6,0,P|268:310|346:256,1,163.874994900227,0|0,0:0|0:0,0:0:0:0:
266,226,100534,1,2,0:0:0:0:
428,343,100701,2,0,L|445:215,1,109.249996600151,8|0,0:0|0:0,0:0:0:0:
349,44,101034,2,0,L|331:173,1,109.249996600151,2|2,0:0|0:0,0:0:0:0:
208,288,101368,6,0,B|189:188|189:188|137:157|137:157|111:37,1,256.499988103867,0|8,0:0|0:0,0:0:0:0:
214,100,101868,2,0,P|219:29|301:108,1,256.499988103867,0|0,0:0|0:0,0:0:0:0:
125,237,102368,2,0,B|89:197|9:184|9:184|87:182|157:116,1,256.499988103867,0|0,0:0|0:0,0:0:0:0:
433,236,102868,2,0,B|319:230|319:230|296:198|296:198|171:190,1,256.499988103867,0|0,0:0|0:0,0:0:0:0:
379,135,103368,2,0,B|516:139|516:139|465:115|454:98,1,192.3749910779,0|0,0:0|0:0,0:0:0:0:
386,54,103701,2,0,L|246:49,1,128.249994051933,8|0,0:0|0:0,0:0:0:0:
111,15,104034,6,0,P|110:73|164:135,1,121.124996230602,0|0,0:0|0:0,0:0:0:0:
175,138,104368,2,0,L|166:231,1,73.6249968662262,2|0,0:0|0:0,0:0:0:0:
148,343,104534,6,0,P|223:328|288:376,1,135.374989590168,0|0,0:0|0:0,0:0:0:0:
299,378,104868,2,0,L|312:276,1,78.3749968135357,2|0,0:0|0:0,0:0:0:0:
266,195,105034,6,0,B|334:159|334:159|396:227,1,149.624987923623,0|0,0:0|0:0,0:0:0:0:
308,299,105368,2,0,L|180:282,1,83.1249966204167,2|0,0:0|0:0,0:0:0:0:
37,248,105534,6,0,P|58:176|176:182,1,163.874994900227,0|0,0:0|0:0,0:0:0:0:
116,234,105868,1,2,0:0:0:0:
101,60,106034,2,0,P|157:56|217:90,1,100.699995099182,8|0,0:0|0:0,0:0:0:0:
398,187,106368,2,0,P|342:183|282:217,1,100.699995099182,2|2,0:0|0:0,0:0:0:0:
140,309,106701,5,0,0:0:0:0:
358,258,106868,1,0,0:0:0:0:
134,345,107034,1,8,0:0:0:0:
358,219,107201,1,0,0:0:0:0:
241,349,107368,5,0,0:0:0:0:
271,122,107534,1,0,0:0:0:0:
272,326,107701,1,8,0:0:0:0:
237,92,107868,1,0,0:0:0:0:
362,220,108034,5,0,0:0:0:0:
141,80,108201,1,0,0:0:0:0:
379,192,108368,1,8,0:0:0:0:
99,105,108534,1,0,0:0:0:0:
218,282,108701,6,0,P|263:293|305:277,1,71.2499964237214,0|0,0:0|0:0,0:0:0:0:
318,287,109034,2,0,P|271:304|183:269,1,122.549995718765,0|0,0:0|0:0,0:0:0:0:
175,264,109368,6,0,L|179:148,1,104.499997943878,4|0,0:0|0:0,0:0:0:0:
183,41,109701,1,8,0:0:0:0:
64,184,109868,1,0,0:0:0:0:
64,184,109951,1,0,0:0:0:0:
64,184,110034,1,0,0:0:0:0:
260,223,110201,1,0,0:0:0:0:
118,112,110368,1,0,0:0:0:0:
169,326,110534,6,0,B|253:312|253:312|286:335|286:335|415:316,1,208.999995887756,8|0,0:0|0:0,0:0:0:0:
437,218,111034,2,0,P|410:168|423:104,1,104.499997943878,8|0,0:0|0:0,0:0:0:0:
414,122,111284,1,0,0:0:0:0:
414,122,111368,1,0,0:0:0:0:
177,44,111534,1,0,0:0:0:0:
285,197,111701,1,8,0:0:0:0:
365,21,111868,1,0,0:0:0:0:
142,139,112034,6,0,B|121:207|146:284|146:284|117:247|67:237,1,208.999995887756,0|8,0:0|0:0,0:0:0:0:
68,322,112534,1,0,0:0:0:0:
68,322,112618,1,0,0:0:0:0:
68,322,112701,1,0,0:0:0:0:
309,214,112868,2,0,P|316:175|312:143,1,52.2499989719391
251,108,113034,2,0,P|251:68|242:37,1,52.2499989719391,8|0,0:0|0:0,0:0:0:0:
168,42,113201,6,0,P|105:24|27:130,1,208.999995887756,0|0,0:0|0:0,0:0:0:0:
143,278,113701,2,0,P|201:260|266:291,1,104.499997943878,8|0,0:0|0:0,0:0:0:0:
241,271,113951,1,0,0:0:0:0:
241,271,114034,1,0,0:0:0:0:
376,310,114201,1,0,0:0:0:0:
241,164,114368,1,8,0:0:0:0:
194,343,114534,1,0,0:0:0:0:
396,220,114701,6,0,B|423:66|423:66|367:114,1,208.999995887756,0|8,0:0|0:0,0:0:0:0:
276,209,115201,2,0,L|211:185,1,52.2499989719391,0|0,0:0|0:0,0:0:0:0:
147,87,115368,2,0,L|65:110,1,52.2499989719391,0|0,0:0|0:0,0:0:0:0:
5,129,115534,1,0,0:0:0:0:
216,324,115701,1,0,0:0:0:0:
82,345,115868,6,0,B|38:260|83:191|83:191|130:249,1,208.999995887756,8|0,0:0|0:0,0:0:0:0:
217,322,116368,2,0,L|354:297,1,104.499997943878,8|0,0:0|0:0,0:0:0:0:
398,288,116618,1,0,0:0:0:0:
398,288,116701,1,0,0:0:0:0:
233,177,116868,1,0,0:0:0:0:
353,384,117034,1,8,0:0:0:0:
471,171,117201,6,0,B|436:118|448:68|448:68|416:111|339:113,1,208.999995887756,0|0,0:0|0:0,0:0:0:0:
365,30,117701,1,8,0:0:0:0:
386,189,117868,1,0,0:0:0:0:
367,226,117951,1,0,0:0:0:0:
351,264,118034,1,0,0:0:0:0:
170,368,118201,2,0,P|155:315|159:273,1,52.2499989719391,0|0,0:0|0:0,0:0:0:0:
83,262,118368,2,0,P|81:218|88:192,1,52.2499989719391,8|0,0:0|0:0,0:0:0:0:
48,120,118534,6,0,P|77:68|230:100,1,208.999995887756,0|0,0:0|0:0,0:0:0:0:
345,227,119034,1,8,0:0:0:0:
138,130,119201,1,0,0:0:0:0:
138,130,119284,1,0,0:0:0:0:
138,130,119368,2,0,L|206:124,1,52.2499989719391
384,110,119534,1,0,0:0:0:0:
154,238,119701,1,8,0:0:0:0:
154,238,119867,1,0,0:0:0:0:
234,78,120034,5,12,0:0:0:0:
319,274,120201,1,0,0:0:0:0:
336,49,120368,5,8,0:0:0:0:
230,275,120534,1,0,0:0:0:0:
336,146,120701,6,0,P|392:142|448:170,1,104.499997943878,0|0,0:0|0:0,0:0:0:0:
324,344,121034,1,0,0:0:0:0:
324,344,121118,1,0,0:0:0:0:
324,344,121201,2,0,B|257:331|257:331|222:354|222:354|106:328,1,208.999995887756,8|0,0:0|0:0,0:0:0:0:
63,155,121701,1,8,0:0:0:0:
208,271,121868,1,0,0:0:0:0:
134,52,122034,1,0,0:0:0:0:
48,266,122201,1,0,0:0:0:0:
244,115,122368,5,8,0:0:0:0:
244,115,122451,1,0,0:0:0:0:
244,115,122534,2,0,B|329:146|397:78|397:78|423:151,1,208.999995887756,0|0,0:0|0:0,0:0:0:0:
480,294,123034,1,8,0:0:0:0:
229,190,123201,1,0,0:0:0:0:
449,211,123368,1,0,0:0:0:0:
173,314,123534,1,0,0:0:0:0:
311,49,123701,1,8,0:0:0:0:
280,316,123868,6,0,B|269:217|178:216|178:216|231:154,1,208.999995887756,0|0,0:0|0:0,0:0:0:0:
315,35,124368,1,8,0:0:0:0:
99,133,124534,1,0,0:0:0:0:
355,181,124701,1,0,0:0:0:0:
118,60,124868,1,0,0:0:0:0:
173,314,125034,1,8,0:0:0:0:
274,150,125201,1,0,0:0:0:0:
116,122,125368,6,0,B|130:209|130:209|160:230|160:230|178:352,1,208.999995887756,0|8,0:0|0:0,0:0:0:0:
360,314,125868,2,0,B|372:230|372:230|402:209|402:209|416:122,1,208.999995887756,0|2,0:0|0:0,0:0:0:0:
245,36,126368,2,0,L|247:149,1,104.499997943878,0|0,0:0|0:0,0:0:0:0:
59,222,126701,6,0,B|39:137|39:137|161:157,1,208.999995887756,0|8,0:0|0:0,0:0:0:0:
444,224,127201,2,0,B|464:139|464:139|344:159,1,208.999995887756,0|2,0:0|0:0,0:0:0:0:
248,340,127701,2,0,L|249:220,1,104.499997943878,0|0,0:0|0:0,0:0:0:0:
240,49,128034,5,0,0:0:0:0:
367,204,128201,1,0,0:0:0:0:
134,62,128368,1,8,0:0:0:0:
362,89,128534,1,0,0:0:0:0:
362,89,128618,1,0,0:0:0:0:
362,89,128701,1,0,0:0:0:0:
228,295,128868,2,0,P|166:289|121:243,1,104.499997943878,2|0,0:0|0:0,0:0:0:0:
70,134,129201,1,0,0:0:0:0:
70,134,129284,1,0,0:0:0:0:
70,134,129368,5,0,0:0:0:0:
108,117,129451,1,0,0:0:0:0:
149,113,129534,1,0,0:0:0:0:
189,124,129618,1,0,0:0:0:0:
219,152,129701,1,0,0:0:0:0:
256,169,129784,1,0,0:0:0:0:
298,170,129868,1,0,0:0:0:0:
338,158,129951,1,0,0:0:0:0:
373,136,130034,5,0,0:0:0:0:
397,170,130118,1,0,0:0:0:0:
406,210,130201,1,2,0:0:0:0:
401,251,130284,1,0,0:0:0:0:
388,300,130368,1,0,0:0:0:0:
337,274,130451,1,0,0:0:0:0:
281,267,130534,1,0,0:0:0:0:
228,289,130618,1,0,0:0:0:0:
256,192,130701,12,4,132034,0:0:0:0:
84,96,142701,6,0,P|132:78|225:98,1,132.999989265442,6|0,0:0|0:0,0:0:0:0:
281,180,143201,2,0,L|271:262,1,66.4999946327212,0|0,0:0|0:0,0:0:0:0:
336,350,143534,2,0,L|347:272,1,66.4999946327212,0|0,0:0|0:0,0:0:0:0:
198,335,143868,6,0,P|129:316|95:243,1,132.999989265442,0|0,0:0|0:0,0:0:0:0:
198,177,144368,2,0,L|181:246,1,66.4999946327212,0|0,0:0|0:0,0:0:0:0:
104,58,144701,2,0,L|112:130,1,66.4999946327212,0|0,0:0|0:0,0:0:0:0:
299,11,145034,2,0,L|285:83,1,66.4999946327212,0|0,0:0|0:0,0:0:0:0:
254,217,145368,6,0,B|317:249|317:249|403:215,1,132.999989265442,0|0,0:0|0:0,0:0:0:0:
319,152,145868,2,0,P|310:113|335:66,1,66.4999946327212,0|0,0:0|0:0,0:0:0:0:
392,117,146201,1,0,0:0:0:0:
392,117,146368,1,0,0:0:0:0:
256,213,146534,6,0,P|192:190|121:214,1,132.999989265442,0|0,0:0|0:0,0:0:0:0:
52,313,147034,2,0,L|143:324,1,66.4999946327212,0|0,0:0|0:0,0:0:0:0:
275,336,147368,1,0,0:0:0:0:
191,269,147534,1,0,0:0:0:0:
183,366,147701,1,0,0:0:0:0:
304,254,147868,1,0,0:0:0:0:
126,206,148034,6,0,B|104:148|104:148|176:78,1,132.999989265442,0|0,0:0|0:0,0:0:0:0:
252,17,148534,2,0,L|266:100,1,66.4999946327212,0|0,0:0|0:0,0:0:0:0:
319,220,148868,1,0,0:0:0:0:
408,48,149034,2,0,L|390:122,1,66.4999946327212,0|0,0:0|0:0,0:0:0:0:
317,253,149368,6,0,P|263:238|185:266,1,132.999989265442,0|0,0:0|0:0,0:0:0:0:
103,354,149868,2,0,P|75:315|88:208,1,132.999989265442,0|0,0:0|0:0,0:0:0:0:
189,128,150368,2,0,L|103:119,1,66.4999946327212,0|0,0:0|0:0,0:0:0:0:
241,50,150701,6,0,B|319:29|300:78|399:48,1,132.999989265442,0|0,0:0|0:0,0:0:0:0:
460,167,151201,2,0,B|390:179|390:179|378:174|378:174|312:185,1,132.999989265442,0|0,0:0|0:0,0:0:0:0:
207,261,151701,1,0,0:0:0:0:
410,355,151868,1,0,0:0:0:0:
410,355,152034,6,0,L|423:282,1,47.4999976158143,4|4,0:0|0:0,0:0:0:0:
320,69,152201,1,4,0:0:0:0:
320,69,152284,1,4,0:0:0:0:
320,69,152368,2,0,L|300:148,1,47.4999976158143,4|4,0:0|0:0,0:0:0:0:
125,225,152534,1,4,0:0:0:0:
125,225,152618,1,4,0:0:0:0:
125,225,152701,2,0,L|153:157,1,47.4999976158143,2|0,0:0|0:0,0:0:0:0:
204,53,152868,5,0,0:0:0:0:
234,315,153034,1,0,0:0:0:0:
0,195,153201,1,2,0:0:0:0:
308,115,153368,6,0,B|432:80|394:168|523:131,1,208.999995887756,4|8,0:0|0:0,0:0:0:0:
405,282,153868,1,0,0:0:0:0:
365,296,153951,1,0,0:0:0:0:
323,289,154034,1,0,0:0:0:0:
136,198,154201,1,0,0:0:0:0:
305,115,154368,1,0,0:0:0:0:
164,281,154534,6,0,P|106:282|52:185,1,156.749996915817,8|0,0:0|0:0,0:0:0:0:
48,178,154868,1,0,0:0:0:0:
255,64,155034,6,0,L|259:122,1,52.2499989719391,8|0,0:0|0:0,0:0:0:0:
349,263,155201,2,0,L|361:200,1,52.2499989719391,0|0,0:0|0:0,0:0:0:0:
386,79,155368,1,0,0:0:0:0:
254,206,155534,1,0,0:0:0:0:
473,170,155701,1,8,0:0:0:0:
320,15,155868,1,0,0:0:0:0:
210,332,156034,6,0,B|308:298|308:298|425:347,1,208.999995887756,0|8,0:0|0:0,0:0:0:0:
219,245,156534,2,0,P|205:188|233:134,1,104.499997943878,0|0,0:0|0:0,0:0:0:0:
426,79,156868,2,0,P|442:134|416:193,1,104.499997943878,0|8,0:0|0:0,0:0:0:0:
310,300,157201,1,0,0:0:0:0:
142,151,157368,5,0,0:0:0:0:
181,137,157451,1,0,0:0:0:0:
221,146,157534,1,0,0:0:0:0:
362,223,157701,1,8,0:0:0:0:
119,347,157868,1,0,0:0:0:0:
119,347,157951,1,0,0:0:0:0:
119,347,158034,6,0,L|110:274,1,52.2499989719391,2|0,0:0|0:0,0:0:0:0:
88,84,158200,2,0,L|95:152,1,52.2499989719391,2|0,0:0|0:0,0:0:0:0:
274,245,158367,2,0,L|279:176,1,52.2499989719391,10|0,0:0|0:0,0:0:0:0:
281,48,158534,1,2,0:0:0:0:
202,314,158701,6,0,P|258:347|371:259,1,208.999995887756,2|8,0:0|0:0,0:0:0:0:
282,49,159201,2,0,L|281:131,1,52.2499989719391
276,245,159368,1,2,0:0:0:0:
101,115,159534,2,0,P|112:50|160:15,1,104.499997943878,2|2,0:0|0:0,0:0:0:0:
204,234,159868,5,10,0:0:0:0:
204,234,159951,1,0,0:0:0:0:
204,234,160034,2,0,B|121:213|121:213|84:229|84:229|-23:204,1,208.999995887756,0|8,0:0|0:0,0:0:0:0:
197,314,160534,1,0,0:0:0:0:
239,311,160618,1,0,0:0:0:0:
279,320,160701,1,0,0:0:0:0:
313,343,160784,1,0,0:0:0:0:
342,372,160868,6,0,L|358:278,1,52.2499989719391,2|0,0:0|0:0,0:0:0:0:
475,261,161034,2,0,L|464:179,1,52.2499989719391,2|0,0:0|0:0,0:0:0:0:
330,131,161201,2,0,L|345:58,1,52.2499989719391,2|0,0:0|0:0,0:0:0:0:
350,35,161368,6,0,B|257:42|257:42|223:24|223:24|114:32,1,208.999995887756,0|8,0:0|0:0,0:0:0:0:
204,283,161868,2,0,P|253:217|181:107,1,208.999995887756
96,203,162368,1,8,0:0:0:0:
345,362,162534,2,0,B|357:264|357:264|372:253|372:253|386:131,1,208.999995887756,0|0,0:0|0:0,0:0:0:0:
391,80,162951,1,0,0:0:0:0:
391,80,163034,1,8,0:0:0:0:
200,105,163201,5,0,0:0:0:0:
465,222,163368,1,2,0:0:0:0:
118,245,163534,5,2,0:0:0:0:
391,131,163701,1,10,0:0:0:0:
138,43,163868,5,2,0:0:0:0:
138,43,163951,1,0,0:0:0:0:
138,43,164034,2,0,B|120:130|120:130|135:157|135:157|109:286,1,208.999995887756,4|12,0:0|0:0,0:0:0:0:
276,358,164534,1,0,0:0:0:0:
293,319,164618,1,0,0:0:0:0:
291,277,164701,1,0,0:0:0:0:
201,109,164868,1,0,0:0:0:0:
110,280,165034,1,0,0:0:0:0:
413,198,165201,6,0,P|435:130|372:73,1,156.749996915817,8|0,0:0|0:0,0:0:0:0:
350,69,165534,1,0,0:0:0:0:
273,299,165701,6,0,L|369:315,1,52.2499989719391,8|0,0:0|0:0,0:0:0:0:
133,185,165868,2,0,L|184:178,1,52.2499989719391
335,153,166034,1,0,0:0:0:0:
128,310,166201,1,0,0:0:0:0:
200,69,166368,1,8,0:0:0:0:
363,275,166534,1,0,0:0:0:0:
65,143,166701,6,0,B|30:111|30:111|127:52|210:120,1,208.999995887756,0|8,0:0|0:0,0:0:0:0:
292,285,167201,2,0,P|226:296|181:273,1,104.499997943878,0|0,0:0|0:0,0:0:0:0:
303,102,167534,2,0,P|362:92|414:113,1,104.499997943878,0|8,0:0|0:0,0:0:0:0:
509,219,167868,1,0,0:0:0:0:
266,356,168034,5,0,0:0:0:0:
266,356,168118,1,0,0:0:0:0:
266,356,168201,1,0,0:0:0:0:
217,145,168368,1,8,0:0:0:0:
405,275,168534,1,0,0:0:0:0:
405,275,168618,1,0,0:0:0:0:
405,275,168701,6,0,L|334:271,1,52.2499989719391,2|0,0:0|0:0,0:0:0:0:
82,253,168868,2,0,L|166:260,1,52.2499989719391,2|0,0:0|0:0,0:0:0:0:
391,164,169034,2,0,L|328:212,1,52.2499989719391,10|0,0:0|0:0,0:0:0:0:
186,325,169201,1,2,0:0:0:0:
111,161,169368,6,0,B|98:71|188:35|188:35|174:114,1,208.999995887756,2|8,0:0|0:0,0:0:0:0:
236,263,169868,6,0,L|326:276,1,52.2499989719391,0|0,0:0|0:0,0:0:0:0:
370,288,170034,1,2,0:0:0:0:
158,304,170201,2,0,P|152:234|191:192,1,104.499997943878,2|2,0:0|0:0,0:0:0:0:
342,33,170534,5,10,0:0:0:0:
342,33,170618,1,0,0:0:0:0:
342,33,170701,2,0,B|350:109|350:109|367:126|367:126|378:223,1,156.749996915817,2|0,0:0|0:0,0:0:0:0:
381,215,171034,1,8,0:0:0:0:
75,199,171201,2,0,P|154:175|235:257,1,208.999995887756,0|2,0:0|0:0,0:0:0:0:
248,340,171618,1,0,0:0:0:0:
248,340,171701,1,2,0:0:0:0:
6,255,171868,1,2,0:0:0:0:
346,229,172034,6,0,B|359:138|359:138|386:117|386:117|405:18,1,208.999995887756,0|8,0:0|0:0,0:0:0:0:
87,74,172534,1,0,0:0:0:0:
87,74,172618,1,0,0:0:0:0:
87,74,172701,2,0,B|98:168|98:168|124:190|124:190|137:301,1,208.999995887756,0|8,0:0|0:0,0:0:0:0:
349,363,173201,1,4,0:0:0:0:
349,363,173284,1,4,0:0:0:0:
325,327,173368,5,0,0:0:0:0:
319,285,173451,1,0,0:0:0:0:
330,244,173534,1,0,0:0:0:0:
359,213,173618,1,0,0:0:0:0:
391,187,173701,1,0,0:0:0:0:
350,179,173784,1,0,0:0:0:0:
314,156,173868,1,0,0:0:0:0:
295,118,173951,1,0,0:0:0:0:
296,72,174034,6,0,L|199:62,1,52.2499989719391,2|0,0:0|0:0,0:0:0:0:
175,108,174201,2,0,L|103:99,1,52.2499989719391,10|0,0:0|0:0,0:0:0:0:
19,206,174368,2,0,L|94:194,1,52.2499989719391,2|0,0:0|0:0,0:0:0:0:
129,248,174534,2,0,L|210:237,1,52.2499989719391,2|0,0:0|0:0,0:0:0:0:
274,223,174701,6,0,P|272:291|306:337,1,113.999990798951,6|0,0:0|0:0,0:0:0:0:
395,250,175034,1,8,0:0:0:0:
251,118,175201,1,0,0:0:0:0:
205,142,175284,1,0,0:0:0:0:
153,134,175368,1,0,0:0:0:0:
117,96,175451,1,0,0:0:0:0:
108,45,175534,1,0,0:0:0:0:
324,77,175701,1,0,0:0:0:0:
139,328,175868,6,0,B|124:223|124:223|103:213|103:213|88:109,1,227.999981597901,8|0,0:0|0:0,0:0:0:0:
88,115,176368,1,8,0:0:0:0:
283,188,176534,1,0,0:0:0:0:
283,188,176618,1,0,0:0:0:0:
283,188,176701,2,0,L|272:261,1,56.9999953994753,0|0,0:0|0:0,0:0:0:0:
182,366,176868,2,0,L|176:286,1,56.9999953994753,0|0,0:0|0:0,0:0:0:0:
51,216,177034,2,0,P|113:204|174:235,1,113.999990798951,8|0,0:0|0:0,0:0:0:0:
426,337,177368,5,0,0:0:0:0:
419,287,177451,1,0,0:0:0:0:
413,237,177534,1,0,0:0:0:0:
405,186,177618,1,0,0:0:0:0:
398,136,177701,1,0,0:0:0:0:
197,26,177868,1,0,0:0:0:0:
190,76,177951,1,0,0:0:0:0:
184,126,178034,1,0,0:0:0:0:
176,177,178118,1,0,0:0:0:0:
169,227,178201,1,0,0:0:0:0:
354,73,178368,6,0,L|405:68,6,28.4999976997376,2|2|2|2|2|2|2,0:0|0:0|0:0|0:0|0:0|0:0|0:0,0:0:0:0:
320,60,178701,5,0,0:0:0:0:
269,52,178784,1,0,0:0:0:0:
217,57,178868,1,0,0:0:0:0:
171,79,178951,1,0,0:0:0:0:
145,122,179034,6,0,L|48:103,2,56.9999953994753,8|0|0,0:0|0:0|0:0,0:0:0:0:
377,131,179368,6,0,P|356:189|383:262,1,113.999990798951,0|8,0:0|0:0,0:0:0:0:
393,283,179618,2,0,P|309:265|255:302,1,113.999990798951
195,325,179868,2,0,L|180:254,1,56.9999953994753
125,114,180034,6,0,P|215:92|150:173,1,227.999981597901,0|8,0:0|0:0,0:0:0:0:
39,184,180534,2,0,P|17:119|49:39,1,113.999990798951,0|0,0:0|0:0,0:0:0:0:
244,31,180868,1,0,0:0:0:0:
244,31,180951,1,0,0:0:0:0:
244,31,181034,2,0,L|230:126,1,56.9999953994753,0|0,0:0|0:0,0:0:0:0:
285,253,181201,2,0,B|310:93|310:93|339:195,1,227.999981597901,8|0,0:0|0:0,0:0:0:0:
386,310,181701,1,8,0:0:0:0:
167,367,181868,5,0,0:0:0:0:
167,367,181951,1,0,0:0:0:0:
167,367,182034,2,0,L|147:277,1,56.9999953994753,0|0,0:0|0:0,0:0:0:0:
74,281,182201,2,0,L|56:205,1,56.9999953994753,0|0,0:0|0:0,0:0:0:0:
172,97,182368,2,0,L|149:194,1,56.9999953994753,8|0,0:0|0:0,0:0:0:0:
271,25,182534,2,0,L|252:103,1,56.9999953994753,0|0,0:0|0:0,0:0:0:0:
184,244,182701,6,0,B|262:251|262:251|290:227|290:227|387:237,1,170.999986198426,0|0,0:0|0:0,0:0:0:0:
384,238,183034,1,8,0:0:0:0:
135,332,183201,2,0,P|89:232|174:149,1,227.999981597901,0|0,0:0|0:0,0:0:0:0:
388,60,183701,5,8,0:0:0:0:
388,60,183784,1,0,0:0:0:0:
388,60,183868,2,0,B|366:143|366:143|385:186|385:186|351:298,1,227.999981597901,0|0,0:0|0:0,0:0:0:0:
181,369,184368,2,0,L|158:278,1,56.9999953994753,8|0,0:0|0:0,0:0:0:0:
112,102,184534,2,0,L|80:168,1,56.9999953994753,0|0,0:0|0:0,0:0:0:0:
17,290,184701,1,0,0:0:0:0:
284,248,184868,1,0,0:0:0:0:
112,25,185034,1,8,0:0:0:0:
143,202,185201,1,0,0:0:0:0:
444,85,185368,6,0,B|370:23|279:72|279:72|312:120,1,227.999981597901,4|8,0:0|0:0,0:0:0:0:
398,289,185868,1,0,0:0:0:0:
354,262,185951,1,0,0:0:0:0:
303,251,186034,1,0,0:0:0:0:
251,258,186118,1,0,0:0:0:0:
208,286,186201,1,0,0:0:0:0:
94,352,186368,1,0,0:0:0:0:
10,133,186534,6,0,B|110:147|110:147|133:122|133:122|273:139,1,227.999981597901,8|0,0:0|0:0,0:0:0:0:
450,160,187034,1,8,0:0:0:0:
269,19,187201,1,0,0:0:0:0:
269,19,187284,1,0,0:0:0:0:
269,19,187368,2,0,P|251:75|252:100,1,56.9999953994753,0|0,0:0|0:0,0:0:0:0:
375,197,187534,2,0,P|370:239|357:269,1,56.9999953994753,0|0,0:0|0:0,0:0:0:0:
211,357,187701,1,8,0:0:0:0:
168,175,187868,1,0,0:0:0:0:
469,104,188034,5,0,0:0:0:0:
441,147,188118,1,0,0:0:0:0:
398,175,188201,1,0,0:0:0:0:
347,181,188284,1,0,0:0:0:0:
296,168,188368,1,8,0:0:0:0:
78,35,188534,1,0,0:0:0:0:
111,74,188618,1,0,0:0:0:0:
122,123,188701,1,0,0:0:0:0:
121,174,188784,1,0,0:0:0:0:
97,219,188868,1,0,0:0:0:0:
302,336,189034,2,0,L|250:327,6,28.4999976997376,2|2|2|2|2|2|2,0:0|0:0|0:0|0:0|0:0|0:0|0:0,0:0:0:0:
352,346,189368,5,0,0:0:0:0:
335,297,189451,1,0,0:0:0:0:
348,247,189534,1,0,0:0:0:0:
383,209,189618,1,0,0:0:0:0:
428,191,189701,2,0,L|507:182,2,56.9999953994753,8|0|0,0:0|0:0|0:0,0:0:0:0:
166,31,190034,6,0,P|157:105|180:154,1,113.999990798951
207,193,190284,2,0,P|141:173|83:199,1,113.999990798951
3,249,190534,2,0,L|23:168,1,56.9999953994753
54,29,190701,6,0,B|133:77|228:24|228:24|261:86,1,227.999981597901,0|8,0:0|0:0,0:0:0:0:
381,280,191201,2,0,B|256:224|284:326|117:256,1,227.999981597901,2|8,0:0|0:0,0:0:0:0:
350,76,191701,2,0,P|418:77|371:145,1,170.999986198426,0|0,0:0|0:0,0:0:0:0:
230,37,192034,6,0,B|246:140|246:140|267:154|267:154|286:293,1,227.999981597901,0|8,0:0|0:0,0:0:0:0:
0,351,192534,2,0,B|13:253|13:253|34:239|34:239|50:136,1,227.999981597901,2|8,0:0|0:0,0:0:0:0:
140,19,193034,2,0,B|139:84|139:84|144:91|144:91|143:142,1,113.999990798951,0|0,0:0|0:0,0:0:0:0:
292,335,193368,6,0,B|379:324|400:202|400:202|349:237,1,227.999981597901,0|8,0:0|0:0,0:0:0:0:
113,226,193868,1,0,0:0:0:0:
113,226,193951,1,0,0:0:0:0:
113,226,194034,2,0,B|26:215|5:93|5:93|56:128,1,227.999981597901,0|8,0:0|0:0,0:0:0:0:
286,42,194534,1,0,0:0:0:0:
286,42,194618,1,0,0:0:0:0:
286,42,194701,5,0,0:0:0:0:
241,66,194784,1,0,0:0:0:0:
211,108,194868,1,0,0:0:0:0:
208,159,194951,1,0,0:0:0:0:
220,208,195034,1,0,0:0:0:0:
268,188,195118,1,0,0:0:0:0:
319,189,195201,1,0,0:0:0:0:
367,205,195284,1,0,0:0:0:0:
408,235,195368,6,0,L|390:336,1,56.9999953994753,8|0,0:0|0:0,0:0:0:0:
183,365,195534,2,0,L|163:269,1,56.9999953994753,0|0,0:0|0:0,0:0:0:0:
52,156,195701,2,0,L|70:238,1,56.9999953994753,0|0,0:0|0:0,0:0:0:0:
318,189,195868,2,0,L|336:91,1,56.9999953994753,8|0,0:0|0:0,0:0:0:0:
195,29,196034,5,0,0:0:0:0:
256,192,196118,12,0,201701,0:0:0:0:
