osu file format v14

[General]
AudioFilename: Sakuzyo,Siilento's Solid - ChaiN DestructioN (Siilento's Solid Remix).mp3
AudioLeadIn: 0
PreviewTime: 82534
Countdown: 0
SampleSet: Soft
StackLeniency: 0.7
Mode: 0
LetterboxInBreaks: 0
WidescreenStoryboard: 0

[Editor]
DistanceSpacing: 1
BeatDivisor: 4
GridSize: 4
TimelineZoom: 2.999999

[Metadata]
Title:ChaiN De/structioN (siilento's solid remix)
TitleUnicode:ChaiN De/structioN (siilento's solid remix)
Artist:sakuzyo
ArtistUnicode:削除
Creator:Ryuusei Aika
Version:Easy
Source:
Tags:VOCALOID ボーカロイド 初音ミク Hatsune Miku (∵)キョトンP kyotonP DENSHI ONGAKU HAMO Arutsuki ShogunMoon Chalwa Azulae Beomsan Kujinn
BeatmapID:1208468
BeatmapSetID:531385

[Difficulty]
HPDrainRate:2
CircleSize:3
OverallDifficulty:2
ApproachRate:3
SliderMultiplier:0.949999904632568
SliderTickRate:1

[Events]
//Background and Video events
0,0,"BG.jpg",0,0
//Break Periods
2,53567,56928
2,132034,141261
//Storyboard Layer 0 (Background)
//Storyboard Layer 1 (Fail)
//Storyboard Layer 2 (Pass)
//Storyboard Layer 3 (Foreground)
//Storyboard Sound Samples

[TimingPoints]
35,333.333333333333,4,2,1,20,1,0
35,-100,4,2,1,20,0,0
5368,-100,4,2,1,30,0,0
6701,-100,4,2,1,40,0,0
8034,-100,4,2,1,50,0,0
9368,-100,4,2,1,60,0,0
10701,-100,4,1,1,75,0,0
32034,-100,4,1,1,80,0,0
42034,-100,4,2,2,60,0,0
42701,-100,4,1,1,85,0,0
53368,-100,4,2,1,60,0,0
56034,-100,4,2,1,70,0,0
58034,-100,4,2,1,80,0,0
58701,-100,4,1,1,90,0,0
61368,-100,4,3,1,100,0,0
64034,-100,4,1,1,100,0,1
85368,-100,4,1,0,90,0,0
88034,-100,4,1,1,60,0,0
90701,-100,4,1,1,75,0,0
93368,-100,4,1,1,60,0,0
96034,-100,4,1,1,75,0,0
98701,-100,4,1,1,60,0,0
101368,-100,4,1,1,75,0,0
104034,-100,4,1,1,60,0,0
106701,-100,4,1,1,75,0,0
120034,-100,4,1,1,85,0,0
125368,-100,4,1,1,90,0,0
125868,-100,4,1,1,90,0,0
126201,-100,4,1,1,92,0,0
126701,-100,4,1,1,90,0,0
127201,-100,4,1,1,90,0,0
127534,-100,4,1,1,95,0,0
128034,-100,4,1,1,90,0,0
129201,-100,4,1,1,95,0,0
130701,-100,4,2,1,90,0,0
142701,-100,4,2,1,70,0,0
152034,-100,4,3,1,85,0,0
153368,-100,4,1,1,100,0,1
174701,-100,4,1,1,90,0,0
196034,-100,4,3,1,30,0,0
201118,-100,4,2,1,5,0,0
201201,-100,4,3,1,15,0,0
201701,-100,4,3,1,25,0,0
202701,-100,4,3,1,5,0,0

[Colours]
Combo1 : 150,150,180
Combo2 : 0,100,200
Combo3 : 180,180,200
Combo4 : 0,200,250

[HitObjects]
256,192,5368,12,0,9368,0:0:0:0:
36,108,10701,6,0,B|138:168|138:168|245:106,1,237.499976158142,4|0,0:0|0:0,0:0:0:0:
307,39,11868,2,0,P|374:6|449:33,1,142.499985694885,8|8,0:0|0:0,0:0:0:0:
380,101,12701,2,0,L|360:193,1,94.9999904632568,0|8,0:0|0:0,0:0:0:0:
280,248,13368,6,0,P|212:277|136:244,2,142.499985694885,0|0|8,0:0|0:0|0:0,0:0:0:0:
210,180,14701,2,0,L|167:85,1,94.9999904632568,0|8,0:0|0:0,0:0:0:0:
254,55,15368,2,0,L|348:64,1,94.9999904632568,0|8,0:0|0:0,0:0:0:0:
416,128,16034,6,0,B|349:162|349:162|326:228|326:228|244:271,1,237.499976158142
222,365,17201,2,0,P|165:323|149:255,1,142.499985694885,8|8,0:0|0:0,0:0:0:0:
211,182,18034,2,0,P|160:161|98:170,1,94.9999904632568,0|8,0:0|0:0,0:0:0:0:
27,178,18701,6,0,L|39:62,1,94.9999904632568,0|8,0:0|0:0,0:0:0:0:
128,57,19368,2,0,L|243:38,1,94.9999904632568
315,41,20034,2,0,P|333:83|331:129,1,94.9999904632568,0|8,0:0|0:0,0:0:0:0:
305,221,20701,2,0,P|350:222|408:190,1,94.9999904632568,0|8,0:0|0:0,0:0:0:0:
444,120,21368,6,0,B|530:209|530:209|434:289,1,237.499976158142,4|0,0:0|0:0,0:0:0:0:
336,319,22534,2,0,L|189:322,1,142.499985694885,8|8,0:0|0:0,0:0:0:0:
110,274,23368,2,0,P|91:234|98:180,1,94.9999904632568,0|8,0:0|0:0,0:0:0:0:
117,91,24034,6,0,L|311:87,1,189.999980926514
387,36,25034,1,8,0:0:0:0:
433,119,25368,2,0,P|425:171|443:228,1,94.9999904632568,0|8,0:0|0:0,0:0:0:0:
391,296,26034,2,0,P|339:288|282:306,1,94.9999904632568,0|8,0:0|0:0,0:0:0:0:
220,353,26701,6,0,B|118:291|118:291|56:189,1,237.499976158142
107,109,27868,2,0,L|188:241,1,142.499985694885,8|8,0:0|0:0,0:0:0:0:
269,267,28701,2,0,P|313:253|360:262,1,94.9999904632568,0|8,0:0|0:0,0:0:0:0:
433,324,29368,6,0,P|453:283|449:229,1,94.9999904632568,0|8,0:0|0:0,0:0:0:0:
380,170,30034,2,0,P|377:123|397:80,1,94.9999904632568,0|8,0:0|0:0,0:0:0:0:
326,15,30701,2,0,P|279:22|234:7,1,94.9999904632568,0|8,0:0|0:0,0:0:0:0:
138,25,31368,2,0,P|92:10|30:27,1,94.9999904632568,0|8,0:0|0:0,0:0:0:0:
86,104,32034,6,0,P|69:158|243:216,1,284.99997138977,4|8,0:0|0:0,0:0:0:0:
325,211,33368,2,0,P|454:205|472:334,1,284.99997138977,0|8,0:0|0:0,0:0:0:0:
393,280,34701,6,0,B|358:322|321:326|321:326|219:326,1,189.999980926514,0|0,0:0|0:0,0:0:0:0:
126,301,35701,1,8,0:0:0:0:
34,276,36034,2,0,B|34:216|34:216|66:160|66:160|66:95,1,189.999980926514,0|0,0:0|0:0,0:0:0:0:
154,58,37034,1,8,0:0:0:0:
241,95,37368,6,0,P|306:110|378:95,2,142.499985694885,0|0|8,0:0|0:0|0:0,0:0:0:0:
215,186,38701,2,0,L|212:284,1,94.9999904632568,0|8,0:0|0:0,0:0:0:0:
295,327,39368,2,0,P|346:319|389:327,1,94.9999904632568,0|8,0:0|0:0,0:0:0:0:
454,258,40034,6,0,B|483:168|483:168|454:76,1,189.999980926514,0|0,0:0|0:0,0:0:0:0:
366,41,41034,1,8,0:0:0:0:
277,76,41368,2,0,P|231:89|185:80,1,94.9999904632568,0|8,0:0|0:0,0:0:0:0:
98,45,42034,2,0,P|50:36|7:49,1,94.9999904632568,4|4,0:0|0:0,0:0:0:0:
56,130,42701,6,0,L|56:277,2,142.499985694885,4|0|8,0:0|0:0|0:0,0:0:0:0:
143,167,44034,2,0,P|189:184|244:174,1,94.9999904632568,8|8,0:0|0:0,0:0:0:0:
325,152,44701,2,2,P|371:146|415:163,1,94.9999904632568,8|2,0:0|0:0,0:0:0:0:
500,207,45368,6,0,L|500:354,2,142.499985694885,0|0|8,0:0|0:0|0:0,0:0:0:0:
416,251,46701,2,0,L|333:296,1,94.9999904632568,8|8,0:0|0:0,0:0:0:0:
242,327,47368,2,2,L|159:282,1,94.9999904632568,8|2,0:0|0:0,0:0:0:0:
73,240,48034,6,0,P|145:246|206:188,2,142.499985694885,0|0|8,0:0|0:0|0:0,0:0:0:0:
116,154,49368,2,0,L|153:66,1,94.9999904632568,8|8,0:0|0:0,0:0:0:0:
240,29,50034,2,2,P|281:18|340:39,1,94.9999904632568,8|2,0:0|0:0,0:0:0:0:
418,68,50701,6,0,P|459:135|441:204,2,142.499985694885,0|0|8,0:0|0:0|0:0,0:0:0:0:
365,147,52034,2,0,P|319:156|270:131,1,94.9999904632568,8|8,0:0|0:0,0:0:0:0:
191,93,52701,2,2,L|180:196,2,94.9999904632568,8|2|0,0:0|0:0|0:0,0:0:0:0:
321,291,58368,5,8,0:0:0:0:
233,255,58701,6,0,L|33:264,1,189.999980926514,8|8,0:0|0:0,0:0:0:0:
67,75,60034,2,0,P|163:94|256:65,1,189.999980926514,8|8,0:0|0:0,0:0:0:0:
433,19,61368,2,0,L|442:218,1,189.999980926514,8|8,0:0|0:0,0:0:0:0:
310,346,62701,2,0,P|214:327|121:356,1,189.999980926514,12|2,0:0|0:0,0:0:0:0:
8,205,64034,6,0,P|85:212|135:170,2,142.499985694885,12|8|8,0:0|0:0|0:0,0:0:0:0:
53,120,65368,2,0,L|113:35,1,94.9999904632568,8|8,0:0|0:0,0:0:0:0:
195,6,66034,2,0,L|280:65,1,94.9999904632568,8|8,0:0|0:0,0:0:0:0:
335,132,66701,2,0,P|317:203|351:264,2,142.499985694885,8|8|8,0:0|0:0|0:0,0:0:0:0:
417,188,68034,2,0,L|515:188,1,94.9999904632568,8|8,0:0|0:0,0:0:0:0:
506,283,68701,6,0,B|439:349|439:349|361:274,1,189.999980926514,2|2,0:0|0:0,0:0:0:0:
276,298,69701,1,8,0:0:0:0:
183,313,70034,2,0,B|98:270|98:270|54:185,1,189.999980926514,2|2,0:0|0:0,0:0:0:0:
100,102,71034,1,10,0:0:0:0:
145,18,71368,2,0,P|185:41|230:29,1,94.9999904632568,0|8,0:0|0:0,0:0:0:0:
291,102,72034,6,0,P|364:85|427:134,2,142.499985694885,8|8|8,0:0|0:0|0:0,0:0:0:0:
345,178,73368,2,0,P|404:213|471:195,2,142.499985694885,8|8|8,0:0|0:0|0:0,0:0:0:0:
252,186,74701,6,0,L|200:279,1,94.9999904632568,12|8,0:0|0:0,0:0:0:0:
258,347,75368,2,0,P|326:331|396:346,2,142.499985694885,0|8|8,0:0|0:0|0:0,0:0:0:0:
276,253,76701,2,0,L|276:158,1,94.9999904632568,8|8,0:0|0:0,0:0:0:0:
367,183,77368,2,0,P|434:214|509:176,2,142.499985694885,0|8|8,0:0|0:0|0:0,0:0:0:0:
435,117,78701,2,0,L|487:33,1,94.9999904632568,8|8,0:0|0:0,0:0:0:0:
394,2,79368,6,0,B|333:2|333:2|293:41|293:41|209:40,1,189.999980926514,2|2,0:0|0:0,0:0:0:0:
127,18,80368,1,8,0:0:0:0:
50,73,80701,2,0,P|6:154|69:239,1,189.999980926514,2|2,0:0|0:0,0:0:0:0:
100,151,81701,1,10,0:0:0:0:
145,234,82034,2,0,B|190:250|190:250|236:234,1,94.9999904632568,2|10,0:0|0:0,0:0:0:0:
312,179,82701,6,0,P|282:202|287:342,1,189.999980926514,8|8,0:0|0:0,0:0:0:0:
357,269,83701,1,8,0:0:0:0:
401,352,84034,2,0,P|452:273|410:191,1,189.999980926514,8|8,0:0|0:0,0:0:0:0:
376,106,85034,1,8,0:0:0:0:
256,192,85368,12,8,86701,0:0:0:0:
355,117,88034,5,8,0:0:0:0:
271,165,88368,2,0,P|269:235|289:319,1,142.499985694885,2|2,0:0|0:0,0:0:0:0:
426,306,89368,2,0,P|440:236|439:165,1,142.499985694885,2|10,0:0|0:0,0:0:0:0:
355,50,90368,1,8,0:0:0:0:
262,30,90701,6,0,B|168:16|168:16|61:59,1,189.999980926514,2|8,0:0|0:0,0:0:0:0:
28,131,91701,2,0,P|2:204|33:264,2,142.499985694885,2|8|2,0:0|0:0|0:0,0:0:0:0:
97,195,93034,1,2,0:0:0:0:
166,259,93368,5,0,0:0:0:0:
235,323,93701,2,0,L|193:169,1,142.499985694885,2|2,0:0|0:0,0:0:0:0:
117,67,94701,2,0,L|270:108,1,142.499985694885,2|10,0:0|0:0,0:0:0:0:
391,143,95701,1,8,0:0:0:0:
470,198,96034,6,0,B|470:293|470:293|397:353,1,189.999980926514,8|8,0:0|0:0,0:0:0:0:
313,307,97034,1,2,0:0:0:0:
230,261,97368,2,0,P|137:245|44:261,1,189.999980926514,8|8,0:0|0:0,0:0:0:0:
60,167,98368,1,8,0:0:0:0:
77,73,98701,5,0,0:0:0:0:
164,35,99034,2,0,L|306:73,1,142.499985694885,2|2,0:0|0:0,0:0:0:0:
180,147,100034,2,0,L|322:185,1,142.499985694885,2|10,0:0|0:0,0:0:0:0:
426,91,101034,1,8,0:0:0:0:
465,177,101368,6,0,P|465:255|416:301,2,142.499985694885,2|8|2,0:0|0:0|0:0,0:0:0:0:
380,215,102701,2,0,B|335:206|335:206|300:169,1,94.9999904632568,8|2,0:0|0:0,0:0:0:0:
259,255,103368,2,0,B|224:218|224:218|180:209,1,94.9999904632568,2|2,0:0|0:0,0:0:0:0:
138,295,104034,5,0,0:0:0:0:
85,216,104368,2,0,P|66:156|112:82,1,142.499985694885
227,20,105368,2,0,P|286:55|353:37,1,142.499985694885
472,115,106368,1,0,0:0:0:0:
415,191,106701,6,0,P|325:142|248:198,1,189.999980926514,8|8,0:0|0:0,0:0:0:0:
332,237,107701,1,2,0:0:0:0:
249,283,108034,2,0,B|159:310|159:310|67:282,1,189.999980926514,8|8,0:0|0:0,0:0:0:0:
1,213,109034,1,8,0:0:0:0:
67,144,109368,6,0,L|161:140,1,94.9999904632568,4|8,0:0|0:0,0:0:0:0:
291,80,110201,2,0,P|336:68|384:82,1,94.9999904632568,8|2,0:0|0:0,0:0:0:0:
335,163,110868,1,8,0:0:0:0:
381,304,111368,2,0,P|333:313|286:303,1,94.9999904632568,2|2,0:0|0:0,0:0:0:0:
202,264,112034,6,0,L|131:334,1,94.9999904632568,8|8,0:0|0:0,0:0:0:0:
5,271,112868,2,0,P|-3:220|10:172,1,94.9999904632568,8|2,0:0|0:0,0:0:0:0:
69,107,113534,2,0,P|120:114|168:102,1,94.9999904632568,8|2,0:0|0:0,0:0:0:0:
245,59,114201,1,8,0:0:0:0:
263,200,114701,5,8,0:0:0:0:
273,294,115034,2,0,L|383:297,1,94.9999904632568,8|8,0:0|0:0,0:0:0:0:
428,223,115701,2,0,P|453:151|422:87,1,142.499985694885,8|8,0:0|0:0,0:0:0:0:
339,60,116534,1,2,0:0:0:0:
201,23,117034,2,0,P|153:37|120:70,1,94.9999904632568,2|8,0:0|0:0,0:0:0:0:
33,181,117868,5,8,0:0:0:0:
67,270,118201,2,0,L|179:267,1,94.9999904632568,8|2,0:0|0:0,0:0:0:0:
256,283,118868,1,8,0:0:0:0:
324,216,119201,2,0,P|396:235|460:194,1,142.499985694885,2|10,0:0|0:0,0:0:0:0:
381,141,120034,6,0,P|348:78|153:36,1,284.99997138977,12|8,0:0|0:0,0:0:0:0:
101,116,121368,2,0,B|100:177|100:177|144:220|144:220|144:288,1,189.999980926514,8|8,0:0|0:0,0:0:0:0:
202,360,122368,1,8,0:0:0:0:
264,288,122701,6,0,B|264:219|264:219|307:177|307:177|307:115,1,189.999980926514,8|8,0:0|0:0,0:0:0:0:
240,47,123701,1,8,0:0:0:0:
330,19,124034,2,0,L|432:19,1,94.9999904632568,8|8,0:0|0:0,0:0:0:0:
410,113,124701,2,0,L|410:215,1,94.9999904632568,8|8,0:0|0:0,0:0:0:0:
512,193,125368,5,8,0:0:0:0:
460,325,125868,2,0,P|412:316|364:326,1,94.9999904632568,8|2,0:0|0:0,0:0:0:0:
240,259,126701,5,8,0:0:0:0:
113,193,127201,2,0,P|66:201|20:192,1,94.9999904632568,8|2,0:0|0:0,0:0:0:0:
69,58,128034,5,8,0:0:0:0:
160,30,128368,1,8,0:0:0:0:
251,58,128701,2,0,P|233:111|246:158,1,94.9999904632568,8|2,0:0|0:0,0:0:0:0:
327,112,129368,6,0,L|414:57,1,94.9999904632568,8|8,0:0|0:0,0:0:0:0:
485,114,130034,2,0,L|498:210,1,94.9999904632568,8|2,0:0|0:0,0:0:0:0:
450,290,130701,5,0,0:0:0:0:
94,318,142701,5,6,0:0:0:0:
57,180,143201,2,0,P|128:222|212:180,2,166.249983310699
134,126,144701,2,0,L|215:54,1,94.9999904632568,0|0,0:0|0:0,0:0:0:0:
289,18,145368,2,0,P|349:0|424:44,2,142.499985694885,0|0|0,0:0|0:0|0:0,0:0:0:0:
344,94,146701,2,0,L|398:184,1,94.9999904632568,0|0,0:0|0:0,0:0:0:0:
336,252,147368,6,0,L|226:252,1,94.9999904632568,0|0,0:0|0:0,0:0:0:0:
167,312,148034,1,0,0:0:0:0:
80,142,148701,2,0,L|175:142,1,94.9999904632568,0|0,0:0|0:0,0:0:0:0:
254,89,149368,2,0,P|321:110|388:89,2,142.499985694885,0|0|0,0:0|0:0|0:0,0:0:0:0:
249,183,150701,6,0,L|263:294,1,94.9999904632568,0|0,0:0|0:0,0:0:0:0:
348,314,151368,2,0,P|394:303|441:314,1,94.9999904632568,0|0,0:0|0:0,0:0:0:0:
492,234,152034,2,0,L|503:139,2,94.9999904632568,4|4|8,0:0|0:0|0:0,0:0:0:0:
410,185,153034,1,2,0:0:0:0:
328,136,153368,6,0,P|256:117|197:152,2,142.499985694885,12|8|8,0:0|0:0|0:0,0:0:0:0:
270,211,154701,2,0,L|242:303,1,94.9999904632568,8|8,0:0|0:0,0:0:0:0:
157,343,155368,2,0,L|61:342,1,94.9999904632568,8|8,0:0|0:0,0:0:0:0:
20,257,156034,2,0,P|-1:189|28:126,2,142.499985694885,8|8|8,0:0|0:0|0:0,0:0:0:0:
95,196,157368,2,0,L|201:226,1,94.9999904632568,8|8,0:0|0:0,0:0:0:0:
276,252,158034,6,0,B|276:347|276:347|383:347,1,189.999980926514,2|2,0:0|0:0,0:0:0:0:
370,253,159034,1,8,0:0:0:0:
435,185,159368,2,0,P|461:98|425:40,2,142.499985694885,2|10|0,0:0|0:0|0:0,0:0:0:0:
367,116,160701,2,0,L|266:88,1,94.9999904632568
183,64,161368,6,0,B|115:46|115:46|50:78,2,142.499985694885,8|8|8,0:0|0:0|0:0,0:0:0:0:
124,137,162701,2,0,B|82:194|82:194|90:265,2,142.499985694885,8|8|8,0:0|0:0|0:0,0:0:0:0:
215,110,164034,6,0,P|251:149|266:190,1,94.9999904632568,12|12,0:0|0:0,0:0:0:0:
291,279,164701,2,0,P|361:304|427:273,2,142.499985694885,8|8|8,0:0|0:0|0:0,0:0:0:0:
355,206,166034,2,0,L|402:123,1,94.9999904632568,8|8,0:0|0:0,0:0:0:0:
314,86,166701,2,0,P|239:60|182:87,2,142.499985694885,8|8|8,0:0|0:0|0:0,0:0:0:0:
248,157,168034,2,0,L|249:255,1,94.9999904632568,8|8,0:0|0:0,0:0:0:0:
215,341,168701,6,0,P|123:321|31:341,1,189.999980926514,2|2,0:0|0:0,0:0:0:0:
0,251,169701,1,10,0:0:0:0:
41,165,170034,2,0,P|84:110|153:101,2,142.499985694885,2|10|2,0:0|0:0|0:0,0:0:0:0:
130,193,171368,2,0,L|214:260,1,94.9999904632568,2|10,0:0|0:0,0:0:0:0:
237,163,172034,6,0,B|302:137|302:137|369:163,2,142.499985694885,8|8|8,0:0|0:0|0:0,0:0:0:0:
303,231,173368,2,0,L|303:340,1,94.9999904632568,4|4,0:0|0:0,0:0:0:0:
385,279,174034,2,0,L|494:279,1,94.9999904632568,10|10,0:0|0:0,0:0:0:0:
433,197,174701,6,0,B|433:102|433:102|366:35|366:35|236:35,1,284.99997138977,10|10,0:0|0:0,0:0:0:0:
191,87,176034,2,0,B|95:87|95:87|28:154|28:154|28:249,1,284.99997138977,10|10,0:0|0:0,0:0:0:0:
76,332,177368,6,0,L|171:332,1,94.9999904632568,4|4,0:0|0:0,0:0:0:0:
240,267,178034,2,0,L|335:267,1,94.9999904632568,4|4,0:0|0:0,0:0:0:0:
420,224,178701,2,0,P|406:177|420:124,1,94.9999904632568,8|8,0:0|0:0,0:0:0:0:
326,94,179368,2,0,P|340:47|326:-6,1,94.9999904632568,8|8,0:0|0:0,0:0:0:0:
246,44,180034,6,0,B|154:16|154:16|64:44|64:44|-2:122,1,284.99997138977,8|8,0:0|0:0,0:0:0:0:
35,205,181368,2,0,B|126:177|126:177|217:205|217:205|283:283,1,284.99997138977,8|8,0:0|0:0,0:0:0:0:
205,337,182701,6,0,L|54:337,2,142.499985694885,8|8|8,0:0|0:0|0:0,0:0:0:0:
173,247,184034,2,0,P|159:200|173:147,1,94.9999904632568,8|8,0:0|0:0,0:0:0:0:
75,135,184701,2,0,P|89:88|75:35,1,94.9999904632568,8|8,0:0|0:0,0:0:0:0:
174,49,185368,6,0,B|226:49|226:49|259:16|259:16|328:79|328:79|358:49|358:49|411:49,1,284.99997138977,6|8,0:0|0:0,0:0:0:0:
479,112,186701,2,0,B|479:164|479:164|512:197|512:197|449:266|449:266|479:296|479:296|479:349,1,284.99997138977,6|8,0:0|0:0,0:0:0:0:
385,361,188034,6,0,B|342:346|342:346|293:361,1,94.9999904632568,4|4,0:0|0:0,0:0:0:0:
199,360,188701,2,0,B|151:344|151:344|108:359,1,94.9999904632568,4|4,0:0|0:0,0:0:0:0:
52,286,189368,2,0,P|45:240|59:194,1,94.9999904632568,8|8,0:0|0:0,0:0:0:0:
102,110,190034,2,0,P|115:64|108:18,1,94.9999904632568,8|8,0:0|0:0,0:0:0:0:
203,19,190701,6,0,L|358:20,2,142.499985694885,8|8|8,0:0|0:0|0:0,0:0:0:0:
203,114,192034,2,0,L|202:256,1,142.499985694885,8|8,0:0|0:0,0:0:0:0:
301,358,193034,1,8,0:0:0:0:
364,286,193368,6,0,B|407:269|407:269|455:287,1,94.9999904632568,8|8,0:0|0:0,0:0:0:0:
511,211,194034,2,0,B|494:166|494:166|510:122,1,94.9999904632568,8|8,0:0|0:0,0:0:0:0:
455,44,194701,2,0,B|411:60|411:60|364:42,1,94.9999904632568,4|4,0:0|0:0,0:0:0:0:
313,122,195367,2,0,B|329:166|329:166|313:210,1,94.9999904632568,8|8,0:0|0:0,0:0:0:0:
256,192,196034,12,4,201701,0:0:0:0:
