osu file format v14

[General]
AudioFilename: Sakuzyo,Siilento's Solid - ChaiN DestructioN (Siilento's Solid Remix).mp3
AudioLeadIn: 0
PreviewTime: 82534
Countdown: 0
SampleSet: Normal
StackLeniency: 0.4
Mode: 0
LetterboxInBreaks: 0
WidescreenStoryboard: 0

[Editor]
Bookmarks: 109368
DistanceSpacing: 1.4
BeatDivisor: 4
GridSize: 4
TimelineZoom: 2.999999

[Metadata]
Title:ChaiN De/structioN (siilento's solid remix)
TitleUnicode:ChaiN De/structioN (siilento's solid remix)
Artist:sakuzyo
ArtistUnicode:削除
Creator:Ryuusei Aika
Version:Chalwa's Hyper
Source:
Tags:VOCALOID ボーカロイド 初音ミク Hatsune Miku (∵)キョトンP kyotonP DENSHI ONGAKU HAMO Arutsuki ShogunMoon Chalwa Azulae Beomsan Kujinn
BeatmapID:1208457
BeatmapSetID:531385

[Difficulty]
HPDrainRate:5
CircleSize:4
OverallDifficulty:6
ApproachRate:8
SliderMultiplier:1.29999990463257
SliderTickRate:1

[Events]
//Background and Video events
0,0,"BG.jpg",0,0
//Break Periods
2,53568,57618
2,130901,141951
//Storyboard Layer 0 (Background)
//Storyboard Layer 1 (Fail)
//Storyboard Layer 2 (Pass)
//Storyboard Layer 3 (Foreground)
//Storyboard Sound Samples

[TimingPoints]
35,333.333333333333,4,2,1,20,1,0
35,-100,4,2,1,20,0,0
5368,-100,4,2,1,30,0,0
6701,-100,4,2,1,40,0,0
8034,-100,4,2,1,50,0,0
9368,-100,4,2,1,60,0,0
10368,-100,4,2,1,70,0,0
10534,-100,4,2,1,50,0,0
10701,-100,4,1,1,75,0,0
32034,-100,4,1,1,80,0,0
42034,-100,4,2,2,60,0,0
42701,-100,4,1,1,85,0,0
43534,-100,4,1,1,90,0,0
43868,-100,4,1,1,85,0,0
44284,-100,4,1,1,5,0,0
44368,-100,4,1,1,85,0,0
44618,-100,4,1,1,5,0,0
44701,-100,4,1,1,85,0,0
44951,-100,4,1,1,5,0,0
45034,-100,4,1,1,95,0,0
45284,-100,4,1,1,5,0,0
45368,-100,4,1,1,85,0,0
45701,-100,4,1,1,90,0,0
46034,-100,4,1,1,85,0,0
46201,-100,4,1,1,90,0,0
46534,-100,4,1,1,85,0,0
46951,-100,4,1,1,5,0,0
47034,-100,4,1,1,85,0,0
47284,-100,4,1,1,5,0,0
47368,-100,4,1,1,85,0,0
47618,-100,4,1,1,5,0,0
47701,-100,4,1,1,93,0,0
48034,-100,4,1,1,85,0,0
48868,-100,4,1,1,90,0,0
49368,-100,4,1,1,85,0,0
49618,-100,4,1,1,5,0,0
49701,-100,4,1,1,85,0,0
49951,-100,4,1,1,5,0,0
50034,-100,4,1,1,85,0,0
50284,-100,4,1,1,5,0,0
50368,-100,4,1,1,95,0,0
50701,-100,4,1,1,85,0,0
51034,-100,4,1,1,90,0,0
51368,-100,4,1,1,85,0,0
51534,-100,4,1,1,90,0,0
51784,-100,4,1,1,85,0,0
52034,-100,4,1,1,90,0,0
52701,-100,4,1,1,85,0,0
53034,-100,4,1,1,93,0,0
53284,-100,4,1,1,5,0,0
53368,-100,4,2,1,60,0,0
56034,-100,4,2,1,70,0,0
58034,-100,4,2,1,80,0,0
58534,-100,4,1,1,80,0,0
58701,-100,4,1,1,90,0,0
61368,-100,4,1,1,100,0,0
63368,-100,4,3,1,100,0,0
64034,-83.3333333333333,4,1,1,100,0,1
85368,-200,4,1,0,90,0,0
88034,-100,4,1,1,60,0,0
88284,-100,4,1,1,5,0,0
88368,-100,4,1,1,85,0,0
88451,-100,4,1,1,5,0,0
88534,-100,4,1,1,60,0,0
88784,-100,4,1,1,5,0,0
88868,-100,4,1,1,90,0,0
88951,-100,4,1,1,5,0,0
89034,-100,4,1,1,60,0,0
89284,-100,4,1,1,5,0,0
89368,-100,4,1,1,93,0,0
89451,-100,4,1,1,5,0,0
89534,-100,4,1,1,60,0,0
89784,-100,4,1,1,5,0,0
89868,-100,4,1,1,100,0,0
89951,-100,4,1,1,5,0,0
90034,-100,4,1,1,70,0,0
90701,-100,4,1,1,75,0,0
93368,-100,4,1,1,60,0,0
93618,-100,4,1,1,5,0,0
93701,-100,4,1,1,85,0,0
93784,-100,4,1,1,5,0,0
93868,-100,4,1,1,60,0,0
94118,-100,4,1,1,5,0,0
94201,-100,4,1,1,90,0,0
94284,-100,4,1,1,5,0,0
94368,-100,4,1,1,60,0,0
94618,-100,4,1,1,5,0,0
94701,-100,4,1,1,93,0,0
94784,-100,4,1,1,5,0,0
94868,-100,4,1,1,60,0,0
95118,-100,4,1,1,5,0,0
95201,-100,4,1,1,100,0,0
95284,-100,4,1,1,5,0,0
95368,-100,4,1,1,70,0,0
96034,-100,4,1,1,75,0,0
98034,-100,4,1,1,60,0,0
98326,-100,4,1,1,85,0,0
98659,-100,4,1,1,5,0,0
98701,-100,4,1,1,60,0,0
98951,-100,4,1,1,5,0,0
99034,-100,4,1,1,85,0,0
99118,-100,4,1,1,5,0,0
99201,-100,4,1,1,60,0,0
99451,-100,4,1,1,5,0,0
99534,-100,4,1,1,90,0,0
99618,-100,4,1,1,5,0,0
99701,-100,4,1,1,60,0,0
99951,-100,4,1,1,5,0,0
100034,-100,4,1,1,93,0,0
100118,-100,4,1,1,5,0,0
100201,-100,4,1,1,60,0,0
100451,-100,4,1,1,5,0,0
100534,-100,4,1,1,100,0,0
100618,-100,4,1,1,5,0,0
100701,-100,4,1,1,70,0,0
101368,-100,4,1,1,75,0,0
104034,-100,4,1,1,60,0,0
104284,-100,4,1,1,5,0,0
104368,-100,4,1,1,85,0,0
104451,-100,4,1,1,5,0,0
104534,-100,4,1,1,60,0,0
104784,-100,4,1,1,5,0,0
104868,-100,4,1,1,90,0,0
104951,-100,4,1,1,5,0,0
105034,-100,4,1,1,60,0,0
105284,-100,4,1,1,5,0,0
105368,-100,4,1,1,93,0,0
105451,-100,4,1,1,5,0,0
105534,-100,4,1,1,60,0,0
105784,-100,4,1,1,5,0,0
105868,-100,4,1,1,100,0,0
105951,-100,4,1,1,5,0,0
106034,-100,4,1,1,70,0,0
106701,-100,4,1,1,75,0,0
108701,-100,4,1,1,60,0,0
109034,-100,4,1,1,85,0,0
109368,-100,4,1,1,75,0,0
120034,-100,4,1,1,85,0,0
125368,-100,4,1,1,90,0,0
125868,-100,4,1,1,90,0,0
126201,-100,4,1,1,92,0,0
126701,-100,4,1,1,90,0,0
127201,-100,4,1,1,90,0,0
127534,-100,4,1,1,95,0,0
128034,-100,4,1,1,90,0,0
128868,-100,4,1,1,97,0,0
129201,-100,4,1,1,95,0,0
130201,-100,4,1,1,100,0,0
130701,-100,4,2,1,90,0,0
142701,-133.333333333333,4,2,1,50,0,0
152034,-100,4,3,1,85,0,0
153368,-83.3333333333333,4,1,1,100,0,1
174701,-100,4,1,1,90,0,0
179368,-100,4,1,1,85,0,0
179701,-100,4,1,1,80,0,0
180034,-100,4,1,1,90,0,0
190034,-100,4,1,1,85,0,0
190368,-100,4,1,1,80,0,0
190534,-100,4,1,1,90,0,0
194701,-100,4,3,1,100,0,0
195368,-100,4,3,1,85,0,0
195534,-100,4,2,1,75,0,0
195868,-100,4,3,1,50,0,0
196034,-100,4,3,1,30,0,0
201118,-100,4,2,1,5,0,0
201201,-100,4,3,1,15,0,0
201680,-100,4,3,1,25,0,0
202701,-100,4,3,1,5,0,0

[Colours]
Combo1 : 150,150,180
Combo2 : 0,100,200
Combo3 : 180,180,200
Combo4 : 0,200,250

[HitObjects]
256,192,8034,12,0,10368,0:0:0:0:
268,88,10701,5,12,0:0:0:0:
352,52,10868,1,0,0:0:0:0:
414,117,11034,1,0,0:0:0:0:
387,205,11201,2,0,P|352:270|278:283,1,129.999990463257
211,273,11701,1,8,0:0:0:0:
128,312,11868,2,0,P|122:263|129:234,2,64.9999952316285
200,366,12368,2,0,B|230:372|230:372|273:365,1,64.9999952316285,8|0,0:0|0:0,0:0:0:0:
364,286,12701,2,0,B|334:280|334:280|301:286,1,64.9999952316285
420,358,13034,2,0,B|450:364|450:364|493:357,1,64.9999952316285,8|0,0:0|0:0,0:0:0:0:
495,263,13368,6,0,L|497:132,1,129.999990463257,0|8,0:0|0:0,0:0:0:0:
495,41,13868,2,0,P|431:23|360:50,1,129.999990463257
306,104,14368,1,8,0:0:0:0:
232,50,14534,1,0,0:0:0:0:
172,118,14701,2,0,L|94:128,1,64.9999952316285
97,216,15034,1,0,0:0:0:0:
185,233,15201,2,0,L|306:279,1,129.999990463257
353,357,15701,1,8,0:0:0:0:
430,309,15868,1,0,0:0:0:0:
430,309,16034,6,0,P|443:280|442:231,1,64.9999952316285
392,172,16368,1,8,0:0:0:0:
392,172,16534,2,0,P|379:143|380:94,1,64.9999952316285
421,29,16868,2,0,P|364:65|298:30,1,129.999990463257,0|8,0:0|0:0,0:0:0:0:
232,94,17368,2,0,P|172:74|120:109,1,129.999990463257,0|8,0:0|0:0,0:0:0:0:
98,198,17868,1,0,0:0:0:0:
142,277,18034,2,0,L|213:285,1,64.9999952316285
337,228,18368,2,0,L|273:221,1,64.9999952316285,8|0,0:0|0:0,0:0:0:0:
186,191,18701,6,0,P|223:145|290:130,1,129.999990463257,0|8,0:0|0:0,0:0:0:0:
379,134,19201,2,0,P|425:171|440:238,1,129.999990463257
429,328,19701,1,8,0:0:0:0:
337,325,19868,1,0,0:0:0:0:
247,341,20034,2,0,L|156:354,2,64.9999952316285,0|0|8,0:0|0:0|0:0,0:0:0:0:
273,253,20534,2,0,L|364:240,2,64.9999952316285
238,168,21034,2,0,L|147:181,1,64.9999952316285,8|0,0:0|0:0,0:0:0:0:
107,240,21368,6,0,B|66:177|98:117,2,129.999990463257,12|0|0,0:0|0:0|0:0,0:0:0:0:
142,324,22201,2,0,L|213:334,1,64.9999952316285
296,344,22534,1,8,0:0:0:0:
296,344,22701,2,0,L|382:335,1,64.9999952316285
375,236,23034,2,0,L|311:243,1,64.9999952316285,8|0,0:0|0:0,0:0:0:0:
246,157,23368,2,0,L|311:151,1,64.9999952316285
375,55,23701,2,0,L|310:61,1,64.9999952316285,8|0,0:0|0:0,0:0:0:0:
219,70,24034,6,0,B|120:79|120:79|158:107,1,129.999990463257,0|8,0:0|0:0,0:0:0:0:
206,164,24534,2,0,B|230:182|230:182|131:191,1,129.999990463257
54,239,25034,1,8,0:0:0:0:
96,319,25201,1,0,0:0:0:0:
183,346,25368,2,0,B|213:345|213:345|244:328,1,64.9999952316285
313,269,25701,2,0,B|312:239|312:239|295:208,1,64.9999952316285,8|0,0:0|0:0,0:0:0:0:
250,128,26034,2,0,P|305:114|371:162,1,129.999990463257,0|8,0:0|0:0,0:0:0:0:
405,231,26534,1,0,0:0:0:0:
432,318,26701,6,0,P|462:333|499:345,2,64.9999952316285,0|0|8,0:0|0:0|0:0,0:0:0:0:
340,322,27201,2,0,P|284:301|209:288,1,129.999990463257
125,272,27701,1,0,0:0:0:0:
69,199,27868,1,8,0:0:0:0:
124,127,28034,2,0,B|157:126|157:126|192:131,1,64.9999952316285
259,189,28368,2,0,B|290:193|290:193|323:192,1,64.9999952316285,8|0,0:0|0:0,0:0:0:0:
414,190,28701,1,0,0:0:0:0:
492,236,28868,1,0,0:0:0:0:
445,314,29034,1,8,0:0:0:0:
367,268,29201,1,0,0:0:0:0:
275,266,29368,6,0,P|232:285|232:363,1,129.999990463257,0|8,0:0|0:0,0:0:0:0:
138,356,29868,2,0,P|105:303|43:310,1,129.999990463257
30,219,30368,1,8,0:0:0:0:
61,133,30534,1,0,0:0:0:0:
14,55,30701,2,0,P|75:38|132:67,1,129.999990463257,0|8,0:0|0:0,0:0:0:0:
201,126,31201,1,0,0:0:0:0:
287,94,31368,2,0,P|321:92|361:107,1,64.9999952316285
373,189,31701,1,8,0:0:0:0:
362,280,31867,1,0,0:0:0:0:
377,369,32034,6,0,P|409:357|433:332,1,64.9999952316285
460,248,32368,2,0,P|448:216|423:192,1,64.9999952316285
338,218,32701,2,0,P|344:156|403:109,1,129.999990463257
373,23,33201,1,8,0:0:0:0:
283,12,33368,2,0,P|240:59|177:65,1,129.999990463257,0|8,0:0|0:0,0:0:0:0:
89,43,33868,2,0,P|95:106|142:148,1,129.999990463257
231,172,34368,1,8,0:0:0:0:
213,260,34534,1,0,0:0:0:0:
136,309,34701,6,0,P|195:348|259:335,1,129.999990463257,0|8,0:0|0:0,0:0:0:0:
334,303,35201,2,0,P|371:251|364:188,1,129.999990463257
346,98,35701,2,0,P|324:72|277:62,1,64.9999952316285,8|0,0:0|0:0,0:0:0:0:
204,65,36034,2,0,L|122:63,2,64.9999952316285,0|0|8,0:0|0:0|0:0,0:0:0:0:
193,155,36534,2,0,L|275:153,2,64.9999952316285
122,212,37034,1,8,0:0:0:0:
167,291,37201,1,0,0:0:0:0:
116,367,37368,6,0,P|190:375|248:340,1,129.999990463257,0|8,0:0|0:0,0:0:0:0:
302,286,37868,1,0,0:0:0:0:
391,272,38034,2,0,P|420:280|459:280,2,64.9999952316285
323,211,38534,1,8,0:0:0:0:
373,134,38701,2,0,P|402:126|441:126,2,64.9999952316285,0|0|8,0:0|0:0|0:0,0:0:0:0:
283,116,39201,2,0,P|222:129|138:108,1,129.999990463257
75,74,39701,2,0,P|63:111|67:146,1,64.9999952316285,8|0,0:0|0:0,0:0:0:0:
18,215,40034,6,0,P|68:226|141:181,1,129.999990463257,0|8,0:0|0:0,0:0:0:0:
202,129,40534,1,0,0:0:0:0:
288,157,40701,2,0,L|282:249,2,64.9999952316285,0|0|8,0:0|0:0|0:0,0:0:0:0:
373,126,41201,2,0,L|367:281,2,129.999990463257
408,42,42034,1,0,0:0:0:0:
494,203,42368,1,0,0:0:0:0:
349,320,42701,6,0,L|142:335,1,194.999985694886,4|0,0:0|0:0,0:0:0:0:
76,285,43368,1,0,0:0:0:0:
11,220,43534,1,2,0:0:0:0:
73,153,43701,2,0,L|137:159,1,64.9999952316285
229,156,44034,1,0,0:0:0:0:
243,152,44368,1,0,0:0:0:0:
254,151,44701,1,0,0:0:0:0:
267,151,45034,1,2,0:0:0:0:
279,153,45368,6,0,P|344:189|359:263,1,129.999990463257,0|2,0:0|0:0,0:0:0:0:
375,328,45868,2,0,P|408:320|433:289,2,64.9999952316285,0|0|2,0:0|0:0|0:0,0:0:0:0:
289,340,46368,2,0,L|211:334,1,64.9999952316285
134,320,46701,2,0,P|96:268|94:178,1,129.999990463257
180,47,47368,2,0,L|279:23,2,97.4999928474428
148,132,48034,6,0,L|350:84,1,194.999985694886
424,124,48701,1,0,0:0:0:0:
498,178,48867,1,2,0:0:0:0:
445,252,49034,1,0,0:0:0:0:
354,263,49201,2,0,L|272:285,1,64.9999952316285
279,282,49701,1,0,0:0:0:0:
269,284,50034,1,0,0:0:0:0:
256,286,50367,1,2,0:0:0:0:
245,288,50701,6,0,P|177:279|167:205,1,129.999990463257,0|2,0:0|0:0,0:0:0:0:
158,136,51201,2,0,P|167:68|241:58,1,129.999990463257,0|2,0:0|0:0,0:0:0:0:
304,69,51701,2,0,P|347:74|384:65,1,64.9999952316285
446,23,52034,2,0,P|458:70|418:145,1,129.999990463257
320,291,52701,2,0,L|222:332,2,97.4999928474428
401,248,53368,5,0,0:0:0:0:
261,84,58368,6,0,L|273:167,1,64.9999952316285,8|0,0:0|0:0,0:0:0:0:
288,237,58701,6,0,B|309:344|309:344|329:323,1,129.999990463257,0|8,0:0|0:0,0:0:0:0:
399,279,59201,1,0,0:0:0:0:
478,234,59368,2,0,P|482:196|470:163,1,64.9999952316285
393,128,59701,2,0,P|389:166|401:199,1,64.9999952316285,8|0,0:0|0:0,0:0:0:0:
399,279,60034,2,0,P|387:327|309:315,1,129.999990463257,0|8,0:0|0:0,0:0:0:0:
230,165,60701,2,0,P|242:117|320:129,1,129.999990463257,0|8,0:0|0:0,0:0:0:0:
311,117,61368,5,0,0:0:0:0:
404,154,61534,1,0,0:0:0:0:
368,247,61701,1,0,0:0:0:0:
274,211,61868,1,0,0:0:0:0:
184,195,62034,2,0,L|156:242,3,32.4999976158143
154,267,62368,2,0,L|182:314,3,32.4999976158143
160,339,62701,6,0,P|193:308|287:304,1,129.999990463257
365,299,63201,1,0,0:0:0:0:
374,208,63368,2,0,P|437:207|488:168,1,129.999990463257
495,77,63868,1,8,0:0:0:0:
411,40,64034,6,0,B|362:35|316:76|316:76|256:76,1,155.999983795167,4|8,0:0|0:0,0:0:0:0:
170,131,64534,1,0,0:0:0:0:
247,208,64701,2,0,B|296:213|342:172|342:172|402:172,1,155.999983795167
502,173,65201,2,0,P|464:252|401:275,2,155.999983795167,8|0|0,0:0|0:0|0:0,0:0:0:0:
497,63,66034,2,0,B|461:48|461:48|417:48,1,77.9999918975834
319,87,66368,2,0,B|280:87|280:87|244:72,1,77.9999918975834,8|0,0:0|0:0,0:0:0:0:
150,14,66701,6,0,P|145:94|216:163,1,155.999983795167,0|8,0:0|0:0,0:0:0:0:
282,209,67201,1,0,0:0:0:0:
432,50,67534,1,0,0:0:0:0:
322,40,67701,1,8,0:0:0:0:
213,29,67868,2,0,P|219:83|297:149,2,155.999983795167
103,21,68701,2,0,P|65:48|27:53,1,77.9999918975834,2|2,0:0|0:0,0:0:0:0:
25,162,69034,2,0,P|52:200|57:238,1,77.9999918975834,10|2,0:0|0:0,0:0:0:0:
137,305,69368,6,0,B|264:321|264:321|239:284,1,155.999983795167,2|8,0:0|0:0,0:0:0:0:
286,198,69868,1,0,0:0:0:0:
286,198,70034,2,0,L|369:168,1,77.9999918975834,2|2,0:0|0:0,0:0:0:0:
510,119,70368,2,0,L|437:93,1,77.9999918975834,2|10,0:0|0:0,0:0:0:0:
331,64,70701,2,0,B|204:48|204:48|227:88,1,155.999983795167,2|8,0:0|0:0,0:0:0:0:
262,172,71201,2,0,B|275:196|275:196|148:180,1,155.999983795167
41,160,71701,2,0,P|46:204|72:245,1,77.9999918975834,8|0,0:0|0:0,0:0:0:0:
122,324,72034,6,0,L|184:328,3,38.9999959487917
206,296,72368,2,0,L|268:300,3,38.9999959487917,8|0|0|0,0:0|0:0|0:0|0:0,0:0:0:0:
279,256,72701,2,0,L|341:260,3,38.9999959487917
345,210,73035,2,0,L|407:214,3,38.9999959487917,8|0|0|0,0:0|0:0|0:0|0:0,0:0:0:0:
438,206,73368,6,0,P|461:251|423:329,2,116.999987846375
373,119,74034,1,0,0:0:0:0:
284,183,74201,1,0,0:0:0:0:
385,257,74368,1,8,0:0:0:0:
276,266,74534,1,0,0:0:0:0:
276,266,74701,6,0,B|222:254|186:303|186:303|120:279,1,155.999983795167,4|8,0:0|0:0,0:0:0:0:
91,185,75201,2,0,B|157:207|157:207|196:176|256:174,1,155.999983795167
345,171,75701,1,0,0:0:0:0:
437,229,75868,2,0,B|428:344|428:344|388:306,2,155.999983795167,8|0|0,0:0|0:0|0:0,0:0:0:0:
406,124,76701,1,0,0:0:0:0:
353,29,76868,1,0,0:0:0:0:
258,82,77034,1,8,0:0:0:0:
311,177,77201,1,0,0:0:0:0:
268,277,77368,6,0,P|213:230|208:130,1,155.999983795167,0|8,0:0|0:0,0:0:0:0:
244,50,77868,2,0,P|299:97|304:197,1,155.999983795167
268,277,78368,1,8,0:0:0:0:
372,248,78534,1,0,0:0:0:0:
448,169,78701,2,0,B|454:128|454:128|446:92,1,77.9999918975834
370,171,79034,2,0,B|364:212|364:212|371:247,1,77.9999918975834,8|0,0:0|0:0,0:0:0:0:
410,350,79368,1,2,0:0:0:0:
307,314,79534,1,2,0:0:0:0:
209,363,79701,2,0,P|198:314|210:265,1,77.9999918975834,10|2,0:0|0:0,0:0:0:0:
230,181,80034,6,0,B|228:110|191:55|191:55|172:99,1,155.999983795167,2|8,0:0|0:0,0:0:0:0:
94,139,80534,1,0,0:0:0:0:
110,247,80701,2,0,P|87:278|51:289,1,77.9999918975834,2|2,0:0|0:0,0:0:0:0:
187,324,81034,2,0,P|218:302|228:254,1,77.9999918975834,2|10,0:0|0:0,0:0:0:0:
239,155,81368,2,0,P|307:207|284:359,2,233.99997569275,2|0|8,0:0|0:0|0:0,0:0:0:0:
130,128,82534,1,0,0:0:0:0:
116,236,82701,6,0,P|168:265|245:257,2,116.999987846375
37,159,83368,2,0,P|78:129|121:127,1,77.9999918975834
213,125,83701,2,0,P|250:116|279:91,1,77.9999918975834,8|0,0:0|0:0,0:0:0:0:
368,26,84034,6,0,L|422:206,1,155.999983795167
441,280,84534,1,0,0:0:0:0:
331,281,84701,2,0,L|228:266,1,77.9999918975834
209,169,85034,2,0,L|286:180,1,77.9999918975834
377,189,85368,6,2,B|396:144|464:139|464:139|346:124|311:70|311:70|262:90|200:62|200:62|162:68|145:104,1,454.999966621399
105,270,88034,6,0,P|70:259|38:222,2,64.9999952316285,0|0|10,0:0|0:0|0:0,0:0:0:0:
215,259,88534,2,0,P|250:270|282:307,2,64.9999952316285,0|0|10,0:0|0:0|0:0,0:0:0:0:
129,186,89034,5,0,0:0:0:0:
111,96,89201,1,0,0:0:0:0:
198,122,89368,1,10,0:0:0:0:
300,82,89534,5,0,0:0:0:0:
369,146,89701,1,0,0:0:0:0:
282,172,89868,1,10,0:0:0:0:
220,263,90034,6,0,L|231:350,1,64.9999952316285,8|0,0:0|0:0,0:0:0:0:
290,236,90368,2,0,L|279:149,1,64.9999952316285
190,177,90701,6,0,P|141:212|131:287,1,129.999990463257,0|8,0:0|0:0,0:0:0:0:
158,363,91201,2,0,P|207:328|217:253,1,129.999990463257
190,177,91701,1,0,0:0:0:0:
219,262,92201,6,0,P|278:252|338:298,1,129.999990463257,0|8,0:0|0:0,0:0:0:0:
373,370,92701,2,0,P|313:379|253:333,1,129.999990463257
219,262,93201,1,8,0:0:0:0:
156,329,93368,6,0,P|60:359|15:267,2,194.999985694886
227,273,94534,1,0,0:0:0:0:
290,208,94701,2,0,L|489:149,2,194.999985694886,10|10|8,0:0|0:0|0:0,0:0:0:0:
152,88,96034,6,0,P|89:122|75:182,1,129.999990463257,0|8,0:0|0:0,0:0:0:0:
111,257,96534,1,0,0:0:0:0:
169,189,96701,1,0,0:0:0:0:
219,264,96868,2,0,P|216:306|186:344,2,64.9999952316285,0|8|0,0:0|0:0|0:0,0:0:0:0:
281,197,97368,6,0,P|273:128|327:72,1,129.999990463257,0|8,0:0|0:0,0:0:0:0:
360,155,97868,2,0,P|368:224|314:280,1,129.999990463257
251,309,98368,2,0,L|175:323,1,64.9999952316285
98,300,98701,6,0,B|59:236|59:236|91:184|59:108,2,194.999985694886
162,364,99868,1,0,0:0:0:0:
226,299,100034,2,0,B|265:235|265:235|233:183|260:119,2,194.999985694886,10|10|8,0:0|0:0|0:0,0:0:0:0:
359,175,101368,6,0,P|419:168|496:214,1,129.999990463257,0|8,0:0|0:0,0:0:0:0:
404,247,101868,2,0,P|344:254|267:208,1,129.999990463257
225,153,102368,1,0,0:0:0:0:
137,129,102534,6,0,B|64:156|64:156|33:217,1,129.999990463257,8|0,0:0|0:0,0:0:0:0:
33,293,103034,2,0,B|106:266|106:266|137:205,1,129.999990463257,8|0,0:0|0:0,0:0:0:0:
219,236,103534,2,0,P|227:265|216:311,2,64.9999952316285,0|8|0,0:0|0:0|0:0,0:0:0:0:
194,148,104034,6,0,B|172:78|104:60|104:60|154:47|195:55,2,194.999985694886
261,215,105201,1,0,0:0:0:0:
325,150,105368,2,0,B|347:80|415:62|415:62|365:49|324:57,2,194.999985694886,10|10|8,0:0|0:0|0:0,0:0:0:0:
234,307,106701,6,0,L|140:196,1,129.999990463257,0|8,0:0|0:0,0:0:0:0:
60,191,107201,2,0,P|83:142|181:126,1,129.999990463257
241,128,107701,1,8,0:0:0:0:
250,309,108034,6,0,L|334:209,1,129.999990463257,0|8,0:0|0:0,0:0:0:0:
422,193,108534,2,0,P|391:137|330:119,1,129.999990463257
243,130,109034,1,0,0:0:0:0:
94,236,109368,6,0,P|78:199|107:101,1,129.999990463257,4|8,0:0|0:0,0:0:0:0:
161,50,109868,1,0,0:0:0:0:
239,95,110034,2,0,P|273:99|307:92,1,64.9999952316285
367,27,110368,2,0,P|398:21|431:25,1,64.9999952316285,0|8,0:0|0:0,0:0:0:0:
476,109,110701,6,0,L|491:253,1,129.999990463257,0|8,0:0|0:0,0:0:0:0:
439,314,111201,2,0,B|371:346|371:346|316:325,1,129.999990463257
240,276,111701,1,8,0:0:0:0:
169,333,111868,1,0,0:0:0:0:
80,312,112034,6,0,P|67:261|99:181,1,129.999990463257,0|8,0:0|0:0,0:0:0:0:
146,117,112534,2,0,P|193:95|278:112,1,129.999990463257
346,154,113034,1,8,0:0:0:0:
362,243,113201,1,0,0:0:0:0:
364,334,113368,6,0,L|428:326,1,64.9999952316285
362,243,113701,2,0,L|297:250,1,64.9999952316285,8|0,0:0|0:0,0:0:0:0:
362,151,114034,2,0,L|426:143,1,64.9999952316285
360,60,114367,2,0,L|295:67,1,64.9999952316285,8|0,0:0|0:0,0:0:0:0:
230,2,114701,6,0,P|193:53|208:114,1,129.999990463257,0|8,0:0|0:0,0:0:0:0:
271,180,115201,2,0,P|307:231|292:292,1,129.999990463257
218,344,115701,2,0,L|141:357,1,64.9999952316285,0|8,0:0|0:0,0:0:0:0:
63,362,116034,6,0,P|73:299|126:266,1,129.999990463257,0|8,0:0|0:0,0:0:0:0:
218,265,116534,2,0,P|280:254|313:201,1,129.999990463257
296,112,117034,2,0,L|250:48,1,64.9999952316285,8|0,0:0|0:0,0:0:0:0:
170,85,117368,6,0,L|248:208,1,129.999990463257,0|8,0:0|0:0,0:0:0:0:
320,236,117868,1,0,0:0:0:0:
141,200,118201,1,0,0:0:0:0:
141,200,118368,2,0,L|179:268,1,64.9999952316285,8|0,0:0|0:0,0:0:0:0:
220,334,118701,6,0,P|280:334|328:285,1,129.999990463257,0|8,0:0|0:0,0:0:0:0:
365,204,119201,1,0,0:0:0:0:
273,207,119368,2,0,P|252:247|261:287,1,64.9999952316285
365,204,119701,2,0,P|382:177|385:145,1,64.9999952316285,8|0,0:0|0:0,0:0:0:0:
352,60,120034,5,4,0:0:0:0:
352,60,120201,2,0,L|259:53,1,64.9999952316285,0|8,0:0|0:0,0:0:0:0:
246,136,120534,1,0,0:0:0:0:
246,136,120701,2,0,L|339:129,1,64.9999952316285
399,152,121034,1,0,0:0:0:0:
399,152,121201,6,0,P|415:193|363:272,1,129.999990463257,8|0,0:0|0:0,0:0:0:0:
295,303,121701,2,0,P|258:315|231:336,1,64.9999952316285,8|0,0:0|0:0,0:0:0:0:
220,240,122034,2,0,P|194:259|175:285,1,64.9999952316285
133,203,122368,1,8,0:0:0:0:
133,203,122534,6,0,P|96:246|96:331,1,129.999990463257
161,373,123034,1,8,0:0:0:0:
247,343,123201,1,0,0:0:0:0:
177,283,123368,1,0,0:0:0:0:
258,243,123534,1,0,0:0:0:0:
199,173,123701,1,8,0:0:0:0:
199,173,123868,6,0,B|115:159|115:159|64:189,3,129.999990463257
6,239,125034,1,8,0:0:0:0:
41,322,125201,1,0,0:0:0:0:
124,357,125368,6,0,L|278:348,1,129.999990463257,0|8,0:0|0:0,0:0:0:0:
343,367,125868,2,0,P|327:297|255:261,1,129.999990463257,0|10,0:0|0:0,0:0:0:0:
193,244,126368,1,0,0:0:0:0:
257,180,126534,1,0,0:0:0:0:
281,265,126701,6,0,B|332:288|332:288|410:288,1,129.999990463257,0|8,0:0|0:0,0:0:0:0:
382,203,127201,2,0,B|331:180|331:180|253:180,1,129.999990463257,0|10,0:0|0:0,0:0:0:0:
165,180,127701,1,0,0:0:0:0:
100,244,127868,1,0,0:0:0:0:
164,308,128034,6,0,P|208:318|304:297,1,129.999990463257,0|8,0:0|0:0,0:0:0:0:
374,267,128534,1,0,0:0:0:0:
374,267,128618,1,0,0:0:0:0:
374,267,128701,2,0,P|384:223|363:127,1,129.999990463257,0|8,0:0|0:0,0:0:0:0:
306,67,129201,1,0,0:0:0:0:
306,67,129284,1,0,0:0:0:0:
306,67,129368,1,0,0:0:0:0:
256,192,129451,12,0,130701,0:0:0:0:
262,66,142701,6,0,P|280:114|267:159,1,97.4999965667725
228,224,143201,2,0,P|210:272|223:317,2,97.4999965667725
394,58,144368,2,0,L|345:61,1,48.7499982833862
393,142,144701,2,0,L|345:139,1,48.7499982833862
393,220,145034,2,0,L|344:223,1,48.7499982833862
340,302,145368,6,0,P|284:280|273:191,2,146.249994850159
344,223,146534,1,0,0:0:0:0:
68,75,147201,2,0,L|71:136,1,48.7499982833862
127,177,147534,2,0,L|124:238,2,48.7499982833862
182,121,148034,6,0,P|195:74|300:42,1,146.249994850159
356,39,148701,1,0,0:0:0:0:
345,116,148868,1,0,0:0:0:0:
267,116,149034,1,0,0:0:0:0:
258,197,149201,1,0,0:0:0:0:
258,197,149368,6,0,L|300:298,1,97.4999965667725
373,287,149868,2,0,L|331:186,1,97.4999965667725
307,124,150368,1,0,0:0:0:0:
231,107,150534,1,0,0:0:0:0:
158,77,150701,6,0,P|102:80|60:106,1,97.4999965667725
43,174,151201,2,0,P|36:229|54:275,1,97.4999965667725
256,192,152034,12,0,153034,0:0:0:0:
370,182,153368,6,0,P|379:258|316:304,1,155.999983795167,4|8,0:0|0:0,0:0:0:0:
237,344,153868,2,0,P|228:268|291:222,1,155.999983795167
306,131,154368,1,0,0:0:0:0:
240,65,154534,2,0,L|65:26,1,155.999983795167,8|0,0:0|0:0,0:0:0:0:
87,124,155034,2,0,L|162:143,1,77.9999918975834,8|0,0:0|0:0,0:0:0:0:
86,198,155368,2,0,L|146:247,1,77.9999918975834
54,263,155701,2,0,L|91:340,1,77.9999918975834,8|0,0:0|0:0,0:0:0:0:
180,348,156034,6,0,P|218:319|332:343,1,155.999983795167,0|8,0:0|0:0,0:0:0:0:
408,361,156534,2,0,L|424:181,1,155.999983795167
431,112,157034,1,8,0:0:0:0:
355,167,157201,1,0,0:0:0:0:
261,169,157368,6,0,P|186:196|109:134,1,155.999983795167,0|8,0:0|0:0,0:0:0:0:
77,80,157868,1,0,0:0:0:0:
155,30,158034,2,0,P|180:58|192:95,1,77.9999918975834,2|2,0:0|0:0,0:0:0:0:
160,226,158368,2,0,P|134:198|123:161,1,77.9999918975834,10|2,0:0|0:0,0:0:0:0:
29,153,158701,6,0,P|40:216|94:294,1,155.999983795167,2|8,0:0|0:0,0:0:0:0:
168,343,159201,1,0,0:0:0:0:
257,315,159368,2,0,L|357:300,1,77.9999918975834,2|2,0:0|0:0,0:0:0:0:
400,237,159701,2,0,L|300:222,1,77.9999918975834,2|10,0:0|0:0,0:0:0:0:
247,169,160034,2,0,B|131:143|131:143|178:123,1,155.999983795167,2|8,0:0|0:0,0:0:0:0:
252,94,160534,2,0,P|291:109|307:212,1,155.999983795167
248,283,161034,1,8,0:0:0:0:
156,264,161201,1,0,0:0:0:0:
85,325,161368,6,0,P|63:256|116:179,1,155.999983795167,0|8,0:0|0:0,0:0:0:0:
181,136,161868,2,0,L|330:47,1,155.999983795167
408,56,162368,1,8,0:0:0:0:
473,121,162534,2,0,P|482:200|429:265,2,155.999983795167
408,56,163368,2,0,L|325:62,1,77.9999918975834
263,127,163701,2,0,L|180:121,1,77.9999918975834,8|0,0:0|0:0,0:0:0:0:
118,55,164034,5,4,0:0:0:0:
65,234,164368,1,8,0:0:0:0:
65,234,164534,2,0,P|74:321|156:350,2,155.999983795167,0|0|8,0:0|0:0|0:0,0:0:0:0:
155,259,165368,2,0,L|251:225,1,77.9999918975834
228,326,165701,2,0,L|324:292,1,77.9999918975834,8|0,0:0|0:0,0:0:0:0:
302,206,166034,2,0,L|228:232,1,77.9999918975834
229,139,166367,2,0,L|155:165,1,77.9999918975834,8|0,0:0|0:0,0:0:0:0:
155,259,166701,6,0,P|202:307|290:276,1,155.999983795167,0|8,0:0|0:0,0:0:0:0:
362,240,167201,2,0,P|315:192|227:223,1,155.999983795167
143,195,167701,1,8,0:0:0:0:
76,261,167868,1,0,0:0:0:0:
141,326,168034,2,0,L|230:336,1,77.9999918975834
285,267,168368,2,0,L|374:257,1,77.9999918975834,8|0,0:0|0:0,0:0:0:0:
428,324,168701,1,2,0:0:0:0:
494,257,168868,1,2,0:0:0:0:
428,191,169034,1,10,0:0:0:0:
361,257,169201,1,2,0:0:0:0:
294,323,169368,6,0,L|121:337,1,155.999983795167,2|8,0:0|0:0,0:0:0:0:
72,269,169868,1,0,0:0:0:0:
114,186,170034,2,0,P|142:165|205:165,1,77.9999918975834,2|2,0:0|0:0,0:0:0:0:
254,221,170368,2,0,P|226:242|163:242,1,77.9999918975834,2|10,0:0|0:0,0:0:0:0:
90,256,170701,2,0,P|129:312|228:330,1,155.999983795167,2|8,0:0|0:0,0:0:0:0:
304,333,171201,2,0,P|378:316|424:255,1,155.999983795167
449,164,171701,1,8,0:0:0:0:
360,132,171868,1,0,0:0:0:0:
271,102,172034,5,0,0:0:0:0:
136,232,172368,1,8,0:0:0:0:
136,232,172534,2,0,P|129:168|200:107,1,155.999983795167
218,198,173034,1,8,0:0:0:0:
218,198,173201,2,0,L|382:276,2,155.999983795167
124,198,174034,2,0,L|85:265,1,77.9999918975834
57,131,174368,2,0,L|95:63,1,77.9999918975834
180,28,174701,6,0,P|243:44|317:29,1,129.999990463257,0|8,0:0|0:0,0:0:0:0:
394,56,175201,1,0,0:0:0:0:
457,121,175368,2,0,L|467:216,1,64.9999952316285
384,231,175701,2,0,L|373:136,1,64.9999952316285,0|8,0:0|0:0,0:0:0:0:
316,105,176034,6,0,P|260:71|192:80,2,129.999990463257,0|8|0,0:0|0:0|0:0,0:0:0:0:
393,158,176868,1,0,0:0:0:0:
318,210,177034,1,8,0:0:0:0:
245,154,177201,1,0,0:0:0:0:
167,201,177368,6,0,L|197:330,2,129.999990463257,0|8|0,0:0|0:0|0:0,0:0:0:0:
83,164,178201,1,0,0:0:0:0:
139,92,178368,1,8,0:0:0:0:
217,137,178534,1,0,0:0:0:0:
283,75,178701,6,0,P|311:144|280:203,1,129.999990463257,0|8,0:0|0:0,0:0:0:0:
225,254,179201,2,0,P|197:185|228:126,1,129.999990463257
192,48,179701,1,8,0:0:0:0:
125,110,179868,1,0,0:0:0:0:
125,200,180034,6,0,P|143:270|184:316,1,129.999990463257,0|8,0:0|0:0,0:0:0:0:
265,341,180534,1,0,0:0:0:0:
329,276,180701,2,0,L|414:254,1,64.9999952316285
327,195,181034,2,0,L|264:178,1,64.9999952316285,0|8,0:0|0:0,0:0:0:0:
175,156,181368,6,0,L|33:105,1,129.999990463257,0|8,0:0|0:0,0:0:0:0:
117,47,181868,1,0,0:0:0:0:
117,47,181951,1,0,0:0:0:0:
117,47,182034,2,0,L|239:90,1,129.999990463257,0|8,0:0|0:0,0:0:0:0:
303,155,182534,1,0,0:0:0:0:
367,219,182701,6,0,P|355:279|218:308,2,194.999985694886,0|0|8,0:0|0:0|0:0,0:0:0:0:
363,127,183868,2,0,B|349:40|368:19|368:19|344:53|296:69,1,194.999985694886,0|8,0:0|0:0,0:0:0:0:
213,95,184534,1,0,0:0:0:0:
148,159,184701,2,0,P|137:196|114:227,1,64.9999952316285
161,340,185034,2,0,P|169:309|187:282,1,64.9999952316285,8|0,0:0|0:0,0:0:0:0:
258,223,185368,6,0,L|398:181,1,129.999990463257,4|8,0:0|0:0,0:0:0:0:
446,121,185868,2,0,B|475:61|475:61|415:18,1,129.999990463257
332,18,186368,1,0,0:0:0:0:
252,61,186534,2,0,P|187:71|112:45,1,129.999990463257,8|0,0:0|0:0,0:0:0:0:
63,119,187034,2,0,P|45:181|55:244,1,129.999990463257,8|0,0:0|0:0,0:0:0:0:
100,324,187534,1,0,0:0:0:0:
157,253,187701,1,8,0:0:0:0:
213,324,187868,1,0,0:0:0:0:
307,301,188034,6,0,B|405:264|405:264|364:252,1,129.999990463257,0|8,0:0|0:0,0:0:0:0:
306,204,188534,2,0,B|281:196|281:196|379:159,1,129.999990463257
404,72,189034,1,8,0:0:0:0:
316,98,189201,2,0,B|226:138|226:138|198:188,1,129.999990463257
176,250,189701,2,0,B|141:327|141:327|113:312|78:321,1,129.999990463257,8|0,0:0|0:0,0:0:0:0:
11,360,190201,1,0,0:0:0:0:
41,274,190368,1,8,0:0:0:0:
16,186,190534,1,0,0:0:0:0:
71,113,190701,6,0,P|137:87|121:176,2,194.999985694886
49,201,191868,2,0,P|71:240|176:239,1,129.999990463257
235,226,192368,2,0,P|297:230|335:280,1,129.999990463257,8|0,0:0|0:0,0:0:0:0:
316,369,192868,1,8,0:0:0:0:
264,294,193034,1,0,0:0:0:0:
199,358,193201,1,0,0:0:0:0:
134,293,193368,6,0,P|129:274|132:255,3,32.4999976158143
142,217,193701,2,0,P|142:200|138:185,3,32.4999976158143,8|0|0|0,0:0|0:0|0:0|0:0,0:0:0:0:
135,139,194034,2,0,P|130:120|133:101,3,32.4999976158143
166,76,194368,1,8,0:0:0:0:
187,73,194451,1,0,0:0:0:0:
209,75,194534,1,0,0:0:0:0:
229,81,194618,1,0,0:0:0:0:
249,92,194701,6,0,L|369:163,1,129.999990463257
390,244,195201,1,0,0:0:0:0:
307,283,195368,2,0,P|274:292|232:279,1,64.9999952316285
157,259,195701,1,0,0:0:0:0:
76,301,195868,1,0,0:0:0:0:
256,192,196034,12,0,201701,0:0:0:0:
