osu file format v14

[General]
AudioFilename: Sakuzyo,Siilento's Solid - ChaiN DestructioN (Siilento's Solid Remix).mp3
AudioLeadIn: 0
PreviewTime: 82534
Countdown: 0
SampleSet: Soft
StackLeniency: 0.5
Mode: 0
LetterboxInBreaks: 0
WidescreenStoryboard: 0

[Editor]
Bookmarks: 15368,20701,26034,36701
DistanceSpacing: 1
BeatDivisor: 4
GridSize: 4
TimelineZoom: 2.1

[Metadata]
Title:ChaiN De/structioN (siilento's solid remix)
TitleUnicode:ChaiN De/structioN (siilento's solid remix)
Artist:sakuzyo
ArtistUnicode:削除
Creator:Ryuusei Aika
Version:Azulae's Insane
Source:
Tags:VOCALOID ボーカロイド 初音ミク Hatsune Miku (∵)キョトンP kyotonP DENSHI ONGAKU HAMO Arutsuki ShogunMoon Chalwa Azulae Beomsan Kujinn
BeatmapID:1208455
BeatmapSetID:531385

[Difficulty]
HPDrainRate:5
CircleSize:3
OverallDifficulty:9
ApproachRate:9
SliderMultiplier:1.79999990463257
SliderTickRate:1

[Events]
//Background and Video events
0,0,"BG.jpg",0,0
//Break Periods
2,132234,142101
//Storyboard Layer 0 (Background)
//Storyboard Layer 1 (Fail)
//Storyboard Layer 2 (Pass)
//Storyboard Layer 3 (Foreground)
//Storyboard Sound Samples
Sample,58701,0,"normal-hitwhistle17.wav",75
Sample,59368,0,"normal-hitwhistle17.wav",75
Sample,60034,0,"normal-hitwhistle17.wav",75
Sample,60701,0,"normal-hitwhistle17.wav",75
Sample,61368,0,"normal-hitwhistle17.wav",80
Sample,61868,0,"normal-hitwhistle17.wav",80
Sample,62201,0,"normal-hitwhistle17.wav",80
Sample,62534,0,"normal-hitwhistle17.wav",80
Sample,62868,0,"normal-hitwhistle17.wav",80
Sample,63034,0,"normal-hitwhistle17.wav",80
Sample,63201,0,"normal-hitwhistle17.wav",80
Sample,70868,0,"soft-hitwhistle17.wav",100
Sample,73701,0,"soft-hitclap17.wav",100
Sample,81534,0,"soft-hitwhistle17.wav",100
Sample,109368,0,"normal-hitwhistle17.wav",75
Sample,126201,0,"normal-hitwhistle17.wav",92
Sample,127534,0,"normal-hitwhistle17.wav",95
Sample,128868,0,"normal-hitwhistle17.wav",98
Sample,130201,0,"normal-hitwhistle17.wav",100

[TimingPoints]
35,333.333333333333,4,2,17,20,1,0
5368,-100,4,2,17,30,0,0
6701,-100,4,2,17,40,0,0
8034,-100,4,2,17,50,0,0
9368,-100,4,2,17,60,0,0
10368,-100,4,2,17,70,0,0
10701,-100,4,2,17,75,0,0
32034,-100,4,2,17,80,0,0
42034,-100,4,2,17,60,0,0
42701,-100,4,2,17,85,0,0
43534,-100,4,2,17,90,0,0
43701,-100,4,2,17,85,0,0
45034,-133.333333333333,4,2,17,95,0,0
45284,-100,4,2,17,30,0,0
45368,-100,4,2,17,85,0,0
45701,-100,4,2,17,90,0,0
45868,-100,4,2,17,85,0,0
46201,-100,4,2,17,90,0,0
46368,-100,4,2,17,85,0,0
47701,-133.333333333333,4,2,17,93,0,0
47951,-133.333333333333,4,2,17,30,0,0
48034,-100,4,2,17,85,0,0
48868,-100,4,2,17,90,0,0
49034,-100,4,2,17,85,0,0
50368,-133.333333333333,4,2,17,95,0,0
50618,-133.333333333333,4,2,17,30,0,0
50701,-100,4,2,17,85,0,0
51034,-100,4,2,17,90,0,0
51201,-100,4,2,17,85,0,0
51534,-100,4,2,17,90,0,0
51701,-100,4,2,17,85,0,0
52034,-100,4,2,17,90,0,0
52701,-100,4,2,17,85,0,0
53034,-133.333333333333,4,2,17,93,0,0
53284,-133.333333333333,4,2,17,30,0,0
53368,-100,4,2,27,60,0,0
56034,-100,4,2,27,70,0,0
58368,-100,4,2,17,80,0,0
58701,-100,4,2,17,85,0,0
61368,-100,4,2,17,80,0,0
62701,-100,4,2,17,90,0,0
63368,-100,4,2,17,100,0,0
64034,-100,4,2,17,100,0,1
85368,-200,4,2,17,90,0,0
88034,-100,4,2,17,60,0,0
90701,-100,4,2,27,60,0,0
93368,-100,4,2,17,60,0,0
98034,-133.333333333333,4,2,17,60,0,0
98701,-100,4,2,17,60,0,0
101368,-100,4,2,27,60,0,0
104034,-100,4,2,17,60,0,0
108701,-133.333333333333,4,2,17,60,0,0
109034,-80,4,2,17,85,0,0
109368,-100,4,2,17,75,0,0
120034,-100,4,2,27,85,0,0
125368,-100,4,2,17,90,0,0
126201,-100,4,2,17,92,0,0
126701,-90.9090909090909,4,2,17,90,0,0
127534,-100,4,2,17,95,0,0
128034,-83.3333333333333,4,2,17,90,0,0
129034,-100,4,2,17,97,0,0
129201,-100,4,2,17,95,0,0
130201,-100,4,2,17,100,0,0
130701,-100,4,2,27,90,0,0
142701,-133.333333333333,4,2,17,70,0,0
152034,-100,4,2,17,85,0,0
153368,-100,4,2,17,100,0,1
174701,-100,4,2,17,90,0,0
178701,-100,4,2,27,90,0,0
185368,-100,4,2,17,90,0,0
189368,-100,4,2,27,90,0,0

[Colours]
Combo1 : 150,150,180
Combo2 : 0,100,200
Combo3 : 180,180,200
Combo4 : 0,200,250

[HitObjects]
256,192,7368,12,0,10368,0:0:0:0:
180,120,10701,6,0,P|187:166|189:212,1,89.9999952316285,6|0,0:0|0:0,0:0:0:0:
188,300,11034,1,8,0:0:0:0:
87,185,11201,2,0,P|78:164|73:140,3,44.9999976158143
67,97,11534,1,2,0:0:0:0:
269,110,11701,2,0,P|224:117|180:120,1,89.9999952316285,0|8,0:0|0:0,0:0:0:0:
258,8,12034,5,0,0:0:0:0:
282,213,12201,1,2,0:0:0:0:
180,120,12368,1,8,0:0:0:0:
360,102,12534,2,0,P|390:112|407:122,3,44.9999976158143
437,147,12868,1,2,0:0:0:0:
282,213,13034,1,8,0:0:0:0:
302,45,13201,1,0,0:0:0:0:
302,45,13284,1,0,0:0:0:0:
302,45,13368,6,0,P|216:72|134:42,1,179.999990463257,2|8,0:0|0:0,0:0:0:0:
109,146,13868,2,0,P|136:230|106:313,1,179.999990463257,0|2,0:0|0:0,0:0:0:0:
210,338,14368,2,0,P|260:317|319:323,1,89.9999952316285,8|0,0:0|0:0,0:0:0:0:
377,341,14701,5,0,0:0:0:0:
371,183,14868,1,2,0:0:0:0:
512,256,15034,1,8,0:0:0:0:
280,196,15201,1,0,0:0:0:0:
284,151,15284,1,0,0:0:0:0:
309,114,15367,1,0,0:0:0:0:
348,93,15451,1,0,0:0:0:0:
393,93,15534,1,2,0:0:0:0:
328,274,15701,2,0,P|277:286|224:269,1,89.9999952316285
75,223,16034,6,0,P|133:251|210:168,1,179.999990463257,2|8,0:0|0:0,0:0:0:0:
235,37,16534,2,0,P|206:34|173:35,3,44.9999976158143
145,39,16868,1,2,0:0:0:0:
210,182,17034,2,0,P|255:198|317:197,1,89.9999952316285,0|8,0:0|0:0,0:0:0:0:
386,189,17368,5,0,0:0:0:0:
345,47,17534,1,2,0:0:0:0:
350,271,17701,1,8,0:0:0:0:
503,155,17868,2,0,P|504:132|501:107,3,44.9999976158143
489,67,18201,1,2,0:0:0:0:
386,189,18368,2,0,P|365:228|349:271,1,89.9999952316285,8|0,0:0|0:0,0:0:0:0:
321,369,18701,6,0,P|246:334|160:375,1,179.999990463257,2|8,0:0|0:0,0:0:0:0:
93,254,19201,1,0,0:0:0:0:
160,134,19368,1,0,0:0:0:0:
160,134,19451,1,0,0:0:0:0:
160,134,19534,2,0,P|207:141|269:129,1,89.9999952316285,2|8,0:0|0:0,0:0:0:0:
383,100,19868,1,0,0:0:0:0:
383,100,19951,1,0,0:0:0:0:
383,100,20034,6,0,P|376:147|388:209,1,89.9999952316285,0|2,0:0|0:0,0:0:0:0:
414,274,20368,1,8,0:0:0:0:
456,72,20534,1,0,0:0:0:0:
429,36,20617,1,0,0:0:0:0:
388,20,20700,1,0,0:0:0:0:
345,29,20783,1,0,0:0:0:0:
313,60,20867,1,2,0:0:0:0:
382,189,21034,2,0,P|428:194|474:190,1,89.9999952316285,8|0,0:0|0:0,0:0:0:0:
294,102,21368,6,0,P|261:168|302:282,1,179.999990463257,6|8,0:0|0:0,0:0:0:0:
472,190,21868,2,0,P|468:169|455:139,3,44.9999976158143
436,108,22201,1,2,0:0:0:0:
427,268,22368,2,0,P|485:280|525:263,1,89.9999952316285,0|8,0:0|0:0,0:0:0:0:
382,189,22701,5,0,0:0:0:0:
382,347,22868,1,2,0:0:0:0:
472,190,23034,1,8,0:0:0:0:
292,191,23201,2,0,P|263:193|237:197,3,44.9999976158143
204,208,23534,1,2,0:0:0:0:
303,268,23701,1,8,0:0:0:0:
207,93,23868,1,0,0:0:0:0:
104,264,24034,6,0,P|191:258|235:339,1,179.999990463257,2|8,0:0|0:0,0:0:0:0:
394,287,24534,2,0,P|345:215|393:136,1,179.999990463257,0|2,0:0|0:0,0:0:0:0:
269,24,25034,2,0,P|256:80|227:106,1,89.9999952316285,8|0,0:0|0:0,0:0:0:0:
147,105,25368,5,0,0:0:0:0:
147,105,25451,1,0,0:0:0:0:
147,105,25534,2,0,P|163:158|165:198,1,89.9999952316285,2|8,0:0|0:0,0:0:0:0:
63,99,25868,1,0,0:0:0:0:
78,57,25951,1,0,0:0:0:0:
112,28,26034,1,0,0:0:0:0:
156,21,26117,1,0,0:0:0:0:
197,38,26201,1,2,0:0:0:0:
189,257,26368,1,8,0:0:0:0:
147,105,26534,1,0,0:0:0:0:
248,189,26701,6,0,B|215:213|189:257|189:257|153:235|84:233,1,179.999990463257,2|8,0:0|0:0,0:0:0:0:
147,105,27201,2,0,P|156:87|172:63,3,44.9999976158143
200,33,27534,1,2,0:0:0:0:
248,189,27701,2,0,P|252:229|277:274,1,89.9999952316285,0|8,0:0|0:0,0:0:0:0:
343,341,28034,5,0,0:0:0:0:
383,184,28201,1,2,0:0:0:0:
281,85,28368,1,8,0:0:0:0:
366,263,28534,2,0,P|403:262|441:237,3,44.9999976158143
445,232,28868,1,2,0:0:0:0:
347,52,29034,1,8,0:0:0:0:
288,184,29201,1,0,0:0:0:0:
288,184,29284,1,0,0:0:0:0:
288,184,29368,6,0,P|251:247|140:228,1,179.999990463257,2|8,0:0|0:0,0:0:0:0:
160,50,29868,1,0,0:0:0:0:
206,177,30034,1,0,0:0:0:0:
206,177,30118,1,0,0:0:0:0:
206,177,30201,2,0,P|192:217|147:243,1,89.9999952316285,2|8,0:0|0:0,0:0:0:0:
40,247,30535,1,0,0:0:0:0:
160,50,30702,5,0,0:0:0:0:
160,50,30784,1,0,0:0:0:0:
160,50,30868,2,0,P|205:56|276:33,1,89.9999952316285,2|8,0:0|0:0,0:0:0:0:
150,168,31201,2,0,P|132:190|121:209,3,44.9999976158143
108,247,31534,1,2,0:0:0:0:
249,146,31701,1,8,0:0:0:0:
92,75,31868,1,0,0:0:0:0:
92,75,31951,1,0,0:0:0:0:
92,75,32034,6,0,P|123:167|107:248,1,179.999990463257,6|8,0:0|0:0,0:0:0:0:
189,72,32534,2,0,P|199:99|204:128,3,44.9999976158143
208,160,32868,1,2,0:0:0:0:
207,263,33034,2,0,P|213:307|226:350,1,89.9999952316285,0|8,0:0|0:0,0:0:0:0:
387,317,33368,5,0,0:0:0:0:
387,317,33451,1,0,0:0:0:0:
387,317,33534,2,0,P|361:277|287:245,1,89.9999952316285,2|8,0:0|0:0,0:0:0:0:
177,211,33868,2,0,L|154:212|131:213,3,44.9999976158143
87,213,34201,1,2,0:0:0:0:
249,146,34368,1,8,0:0:0:0:
226,319,34534,1,0,0:0:0:0:
168,120,34701,6,0,P|208:72|331:121,1,179.999990463257,2|8,0:0|0:0,0:0:0:0:
371,289,35201,2,0,P|307:346|226:319,1,179.999990463257,0|2,0:0|0:0,0:0:0:0:
249,146,35701,1,8,0:0:0:0:
290,263,35868,1,0,0:0:0:0:
156,244,36034,5,0,0:0:0:0:
156,244,36118,1,0,0:0:0:0:
156,244,36201,2,0,P|110:253|53:233,1,89.9999952316285,2|8,0:0|0:0,0:0:0:0:
214,160,36534,1,0,0:0:0:0:
243,193,36617,1,0,0:0:0:0:
255,236,36700,1,0,0:0:0:0:
249,280,36784,1,0,0:0:0:0:
225,318,36867,1,2,0:0:0:0:
113,152,37034,1,8,0:0:0:0:
312,138,37201,1,0,0:0:0:0:
156,244,37368,6,0,P|68:242|14:165,1,179.999990463257,2|8,0:0|0:0,0:0:0:0:
144,65,37868,2,0,P|169:62|193:62,3,44.9999976158143
233,64,38201,1,2,0:0:0:0:
221,246,38368,2,0,P|220:299|211:344,1,89.9999952316285,0|8,0:0|0:0,0:0:0:0:
318,161,38701,5,0,0:0:0:0:
136,149,38868,1,2,0:0:0:0:
312,252,39034,1,8,0:0:0:0:
205,89,39201,2,0,P|171:65|154:60,3,44.9999976158143
124,56,39534,1,2,0:0:0:0:
148,242,39701,2,0,P|153:291|161:331,1,89.9999952316285,8|0,0:0|0:0,0:0:0:0:
43,161,40034,6,0,P|106:116|227:137,1,179.999990463257,2|8,0:0|0:0,0:0:0:0:
305,210,40534,2,0,P|393:220|467:172,1,179.999990463257,0|2,0:0|0:0,0:0:0:0:
363,90,41034,1,8,0:0:0:0:
305,210,41201,1,0,0:0:0:0:
379,320,41368,5,0,0:0:0:0:
379,320,41451,1,0,0:0:0:0:
379,320,41534,2,0,P|330:314|282:322,1,89.9999952316285,2|8,0:0|0:0,0:0:0:0:
203,344,41868,1,0,0:0:0:0:
228,196,42034,6,0,P|195:124|144:187,1,179.999990463257,2|2,0:0|0:0,0:0:0:0:
142,175,42701,6,0,B|187:182|229:196|229:196|254:162|295:123,1,179.999990463257,6|2,0:0|0:1,0:0:0:0:
391,21,43201,1,2,0:0:0:0:
245,48,43368,1,0,0:0:0:0:
378,111,43534,2,0,P|425:106|472:63,1,89.9999952316285,2|2,0:1|0:0,0:0:0:0:
322,59,43868,1,0,0:0:0:0:
377,228,44034,5,2,0:0:0:0:
393,236,44368,1,2,0:0:0:0:
408,245,44701,1,2,0:0:0:0:
289,310,44868,1,0,0:0:0:0:
289,310,44951,1,0,0:0:0:0:
289,310,45034,2,2,P|223:284|166:280,1,101.249998497963,0|0,0:0|0:0,0:1:0:0:
103,270,45368,6,0,P|122:221|92:95,1,179.999990463257,2|2,0:0|0:1,0:0:0:0:
178,39,45868,2,0,P|227:58|353:28,1,179.999990463257,2|2,0:0|0:1,0:0:0:0:
409,114,46368,2,0,P|390:163|393:234,1,89.9999952316285,2|0,0:0|0:0,0:0:0:0:
416,283,46701,5,2,0:0:0:0:
432,291,47034,1,2,0:0:0:0:
447,300,47368,1,2,0:0:0:0:
319,339,47534,1,0,0:0:0:0:
319,339,47618,1,0,0:0:0:0:
319,339,47701,2,2,P|289:283|275:248,1,101.249998497963,0|0,0:0|0:0,0:1:0:0:
255,161,48034,6,0,P|178:183|80:132,1,179.999990463257,2|2,0:0|0:1,0:0:0:0:
183,53,48534,1,2,0:0:0:0:
254,160,48701,2,0,P|269:202|275:247,1,89.9999952316285,0|2,0:0|0:1,0:0:0:0:
90,143,49034,2,0,P|74:185|69:229,1,89.9999952316285,2|0,0:0|0:0,0:0:0:0:
66,319,49368,5,2,0:0:0:0:
82,327,49701,1,2,0:0:0:0:
97,336,50035,1,2,0:0:0:0:
222,288,50201,1,0,0:0:0:0:
222,288,50284,1,0,0:0:0:0:
222,288,50368,2,2,P|215:245|222:180,1,101.249998497963,0|0,0:0|0:0,0:1:0:0:
244,100,50701,6,0,P|197:100|116:7,1,179.999990463257,2|2,0:0|0:1,0:0:0:0:
220,188,51201,2,0,P|243:228|203:345,1,179.999990463257,2|2,0:0|0:1,0:0:0:0:
309,165,51701,2,0,P|332:124|402:91,1,89.9999952316285,2|0,0:0|0:0,0:0:0:0:
453,100,52034,6,0,P|471:104|504:107,3,44.9999976158143
438,183,52368,2,0,P|420:186|387:189,3,44.9999976158143
453,265,52701,1,2,0:0:0:0:
346,313,52868,1,2,0:0:0:0:
250,244,53034,2,2,P|203:226|144:218,1,101.249998497963,0|0,0:0|0:0,0:1:0:0:
61,213,53368,5,2,0:0:0:0:
393,75,54034,1,2,0:0:0:0:
187,368,54701,1,2,0:0:0:0:
181,9,55368,1,2,0:0:0:0:
396,295,56034,5,2,0:0:0:0:
83,101,56701,1,2,0:0:0:0:
433,185,57367,1,2,0:0:0:0:
94,301,58034,1,2,0:0:0:0:
219,114,58368,2,0,P|268:138|316:142,1,89.9999952316285,8|2,0:0|0:0,0:0:0:0:
300,7,58701,5,2,0:0:0:0:
62,133,59034,1,8,0:0:0:0:
303,142,59368,1,2,0:0:0:0:
98,29,59701,1,8,0:0:0:0:
188,292,60034,5,2,0:0:0:0:
264,53,60368,1,8,0:0:0:0:
136,198,60701,1,2,0:0:0:0:
325,155,61034,1,8,0:0:0:0:
147,79,61368,5,2,0:0:0:0:
325,155,61534,1,2,0:0:0:0:
136,198,61701,1,2,0:0:0:0:
264,53,61868,1,2,0:0:0:0:
246,245,62034,2,0,P|233:278|221:300,3,44.9999976158143,2|2|2|2,0:0|0:0|0:0|0:0,0:0:0:0:
325,155,62368,2,0,P|338:122|350:100,3,44.9999976158143,2|2|2|2,0:0|0:0|0:0|0:0,0:0:0:0:
330,239,62701,6,0,P|363:252|385:264,3,44.9999976158143
240,160,63035,2,0,P|207:147|185:135,3,44.9999976158143,0|0|0|0,0:0|0:0|0:0|0:0,0:0:0:0:
325,155,63368,1,0,0:0:0:0:
368,144,63451,1,0,0:0:0:0:
405,119,63534,1,0,0:0:0:0:
431,82,63618,1,0,0:0:0:0:
443,39,63701,2,2,P|452:92|464:158,1,89.9999952316285,0|0,0:0|0:0,0:0:0:0:
466,310,64034,6,0,P|417:286|285:321,1,179.999990463257,4|8,0:0|0:0,0:0:0:0:
146,329,64534,2,0,P|150:304|151:274,3,44.9999976158143
152,239,64868,1,2,0:0:0:0:
162,50,65034,2,0,P|157:98|157:145,1,89.9999952316285,0|8,0:0|0:0,0:0:0:0:
344,194,65368,5,0,0:0:0:0:
247,107,65534,1,2,0:0:0:0:
221,235,65701,1,8,0:0:0:0:
329,93,65868,2,0,P|317:63|305:49,3,44.9999976158143
274,27,66201,1,2,0:0:0:0:
141,96,66368,2,0,P|145:147|142:194,1,89.9999952316285,8|0,0:0|0:0,0:0:0:0:
128,296,66701,6,0,P|176:280|324:312,1,179.999990463257,2|8,0:0|0:0,0:0:0:0:
319,369,67201,2,0,B|301:297|301:297|346:182,1,179.999990463257,2|2,0:0|0:0,0:0:0:0:
400,44,67701,1,8,0:0:0:0:
446,151,67868,1,0,0:0:0:0:
292,88,68034,5,0,0:0:0:0:
292,88,68118,1,0,0:0:0:0:
292,88,68201,2,0,P|247:98|196:92,1,89.9999952316285,2|8,0:0|0:0,0:0:0:0:
103,47,68534,1,0,0:0:0:0:
190,204,68701,1,0,0:0:0:0:
28,126,68868,1,2,0:0:0:0:
204,94,69034,1,8,0:0:0:0:
81,224,69201,1,0,0:0:0:0:
103,47,69368,1,2,0:0:0:0:
397,112,69701,5,8,0:0:0:0:
397,112,69868,1,0,0:0:0:0:
219,104,70034,1,0,0:0:0:0:
369,6,70201,1,2,0:0:0:0:
305,172,70367,1,0,0:0:0:0:
258,0,70534,1,0,0:0:0:0:
397,112,70701,6,0,P|414:188|351:273,1,179.999990463257,0|8,0:0|0:0,0:0:0:0:
231,297,71201,2,0,P|207:300|175:302,3,44.9999976158143
141,298,71534,1,2,0:0:0:0:
123,141,71701,1,8,0:0:0:0:
267,203,71868,1,0,0:0:0:0:
131,220,72034,6,0,P|67:197|67:84,1,179.999990463257,2|8,0:0|0:0,0:0:0:0:
192,89,72534,1,2,0:0:0:0:
267,203,72701,1,0,0:0:0:0:
267,203,72784,1,0,0:0:0:0:
267,203,72868,2,0,P|265:248|271:305,1,89.9999952316285,0|8,0:0|0:0,0:0:0:0:
327,81,73201,6,0,P|380:27|487:37,2,179.999990463257,0|2|0,0:0|0:0|0:0,0:0:0:0:
306,258,74034,1,0,0:0:0:0:
428,128,74201,1,2,0:0:0:0:
252,161,74368,1,2,0:0:0:0:
413,237,74534,1,0,0:0:0:0:
327,81,74701,6,0,P|284:56|166:93,1,179.999990463257,6|8,0:0|0:0,0:0:0:0:
135,220,75201,2,0,P|134:245|137:268,3,44.9999976158143
147,308,75534,1,2,0:0:0:0:
299,155,75701,2,0,P|249:148|200:161,1,89.9999952316285,0|8,0:0|0:0,0:0:0:0:
384,302,76034,5,0,0:0:0:0:
258,250,76201,1,2,0:0:0:0:
276,384,76368,1,8,0:0:0:0:
366,227,76534,2,0,P|380:202|390:172,3,44.9999976158143
395,141,76868,1,2,0:0:0:0:
278,42,77034,1,8,0:0:0:0:
133,93,77201,1,0,0:0:0:0:
133,93,77284,1,0,0:0:0:0:
133,93,77368,6,0,P|154:201|111:274,1,179.999990463257,2|8,0:0|0:0,0:0:0:0:
273,183,77868,2,0,P|211:247|124:260,1,179.999990463257,2|2,0:0|0:0,0:0:0:0:
28,170,78368,1,8,0:0:0:0:
154,106,78534,1,0,0:0:0:0:
273,183,78701,5,0,0:0:0:0:
273,183,78784,1,0,0:0:0:0:
273,183,78868,2,0,P|311:217|326:272,1,89.9999952316285,2|8,0:0|0:0,0:0:0:0:
333,360,79201,1,0,0:0:0:0:
426,212,79368,1,0,0:0:0:0:
437,384,79534,1,2,0:0:0:0:
325,253,79701,1,8,0:0:0:0:
495,295,79868,1,0,0:0:0:0:
333,360,80034,1,2,0:0:0:0:
277,78,80368,5,8,0:0:0:0:
277,78,80534,1,0,0:0:0:0:
325,253,80701,1,0,0:0:0:0:
186,142,80868,1,2,0:0:0:0:
365,144,81034,1,0,0:0:0:0:
219,248,81201,1,0,0:0:0:0:
277,78,81368,6,0,P|343:37|458:84,1,179.999990463257,0|8,0:0|0:0,0:0:0:0:
480,189,81868,2,0,P|478:226|474:245,3,44.9999976158143
466,277,82201,1,2,0:0:0:0:
323,205,82368,1,2,0:0:0:0:
332,369,82534,1,0,0:0:0:0:
396,241,82701,6,0,P|401:183|304:126,1,179.999990463257,2|8,0:0|0:0,0:0:0:0:
421,330,83201,1,0,0:0:0:0:
421,330,83284,1,0,0:0:0:0:
421,330,83368,2,0,P|400:245|323:205,1,179.999990463257,2|8,0:0|0:0,0:0:0:0:
181,190,83868,1,0,0:0:0:0:
181,190,83951,1,0,0:0:0:0:
181,190,84034,6,0,P|146:189|113:195,3,44.9999976158143,2|0|0|0,0:0|0:0|0:0|0:0,0:0:0:0:
210,277,84368,2,0,P|245:278|278:272,3,44.9999976158143,2|0|0|0,0:0|0:0|0:0|0:0,0:0:0:0:
181,364,84701,1,2,0:0:0:0:
120,295,84868,1,0,0:0:0:0:
109,203,85034,1,0,0:0:0:0:
152,121,85201,1,0,0:0:0:0:
234,76,85368,5,2,0:0:0:0:
256,192,85451,12,0,87868,0:0:0:0:
288,156,88034,6,0,P|287:241|174:294,1,179.999990463257,2|2,0:0|0:1,0:0:0:0:
208,100,88534,2,0,P|282:58|384:129,1,179.999990463257,2|2,0:0|0:1,0:0:0:0:
202,198,89034,2,0,P|128:154|139:30,1,179.999990463257,2|2,0:0|0:1,0:0:0:0:
288,156,89534,2,0,P|287:241|174:294,1,179.999990463257,2|2,0:0|0:1,0:0:0:0:
110,317,90034,2,0,P|100:268|85:221,1,89.9999952316285
60,143,90368,1,8,0:0:0:0:
121,75,90534,1,0,0:0:0:0:
121,75,90618,1,0,0:0:0:0:
121,75,90701,6,0,P|206:103|311:65,1,179.999990463257,2|0,0:0|0:0,0:0:0:0:
393,38,91201,2,0,P|365:123|403:228,1,179.999990463257,2|0,0:0|0:0,0:0:0:0:
430,310,91701,2,0,P|345:282|240:320,1,179.999990463257,2|0,0:0|0:0,0:0:0:0:
158,347,92201,2,0,P|186:262|148:157,1,179.999990463257,2|0,0:0|0:0,0:0:0:0:
121,75,92701,2,0,P|161:95|212:104,1,89.9999952316285,2|2,0:0|0:0,0:0:0:0:
290,79,93034,1,2,0:0:0:0:
320,208,93201,1,0,0:0:0:0:
320,208,93284,1,0,0:0:0:0:
319,207,93368,6,0,P|241:227|259:306,1,179.999990463257,2|2,0:0|0:1,0:0:0:0:
67,278,93868,2,0,P|89:200|12:176,1,179.999990463257,2|2,0:0|0:1,0:0:0:0:
132,23,94368,2,0,P|188:81|247:25,1,179.999990463257,2|2,0:0|0:1,0:0:0:0:
319,207,94868,2,0,P|241:227|259:306,1,179.999990463257,2|2,0:0|0:1,0:0:0:0:
147,337,95368,2,0,P|131:297|126:235,1,89.9999952316285
104,155,95701,1,8,0:0:0:0:
170,83,95868,1,0,0:0:0:0:
170,83,95951,1,0,0:0:0:0:
170,83,96034,6,0,P|226:93|263:91,1,89.9999952316285,2|0,0:0|0:0,0:0:0:0:
381,78,96368,2,0,P|371:134|373:171,1,89.9999952316285,8|0,0:0|0:0,0:0:0:0:
386,289,96701,1,0,0:0:0:0:
386,289,96784,1,0,0:0:0:0:
386,289,96868,2,0,P|330:279|293:281,1,89.9999952316285,2|8,0:0|0:0,0:0:0:0:
175,294,97201,2,0,P|185:238|182:216,3,44.9999976158143
183,205,97534,1,2,0:0:0:0:
170,83,97701,1,8,0:0:0:0:
71,155,97868,1,0,0:0:0:0:
82,276,98034,6,2,P|92:328|71:378,1,101.249998497963,0|0,0:0|2:0,0:0:0:0:
0,317,98368,2,2,P|-9:265|11:215,1,101.249998497963,0|0,0:0|2:0,0:0:0:0:
71,155,98701,6,0,P|115:179|257:115,1,179.999990463257,2|2,0:0|0:1,0:0:0:0:
390,57,99201,2,0,P|323:114|313:201,1,179.999990463257,2|2,0:0|0:1,0:0:0:0:
315,382,99701,2,0,P|298:295|227:243,1,179.999990463257,2|2,0:0|0:1,0:0:0:0:
71,155,100201,2,0,P|115:179|257:115,1,179.999990463257,2|2,0:0|0:1,0:0:0:0:
335,69,100701,2,0,P|381:63|428:73,1,89.9999952316285,2|0,0:0|0:0,0:0:0:0:
487,142,101034,1,8,0:0:0:0:
456,232,101201,1,0,0:0:0:0:
456,232,101284,1,0,0:0:0:0:
456,232,101368,6,0,P|406:223|330:328,1,179.999990463257,2|0,0:0|0:0,0:0:0:0:
216,384,101868,2,0,P|225:334|120:258,1,179.999990463257,2|0,0:0|0:0,0:0:0:0:
56,152,102368,2,0,P|106:161|182:56,1,179.999990463257,2|0,0:0|0:0,0:0:0:0:
296,0,102868,2,0,P|287:42|392:118,1,179.999990463257,2|0,0:0|0:0,0:0:0:0:
456,232,103368,2,0,P|406:223|343:262,1,89.9999952316285,2|2,0:0|0:0,0:0:0:0:
328,310,103701,1,2,0:0:0:0:
216,236,103868,1,0,0:0:0:0:
216,236,103951,1,0,0:0:0:0:
216,236,104034,6,0,P|185:176|66:172,1,179.999990463257,2|2,0:0|0:1,0:0:0:0:
261,90,104534,2,0,P|328:93|391:-7,1,179.999990463257,2|2,0:0|0:1,0:0:0:0:
364,201,105034,2,0,P|327:257|383:362,1,179.999990463257,2|2,0:0|0:1,0:0:0:0:
216,236,105534,2,0,P|185:176|66:172,1,179.999990463257,2|2,0:0|0:1,0:0:0:0:
174,68,106034,2,0,P|228:63|295:75,1,89.9999952316285,2|0,0:0|0:0,0:0:0:0:
354,80,106368,1,8,0:0:0:0:
387,166,106534,1,0,0:0:0:0:
387,166,106618,1,0,0:0:0:0:
387,166,106701,6,0,P|378:223|386:267,1,89.9999952316285,2|0,0:0|0:0,0:0:0:0:
416,338,107034,2,0,P|359:329|315:337,1,89.9999952316285,8|0,0:0|0:0,0:0:0:0:
244,367,107368,1,0,0:0:0:0:
244,367,107451,1,0,0:0:0:0:
244,367,107534,2,0,P|253:310|245:266,1,89.9999952316285,2|8,0:0|0:0,0:0:0:0:
215,195,107868,2,0,P|258:203|302:200,3,44.9999976158143
303,199,108201,1,2,0:0:0:0:
439,179,108368,1,8,0:0:0:0:
354,72,108534,1,0,0:0:0:0:
218,92,108701,6,0,P|166:96|115:87,1,101.249998497963,2|0,0:0|0:0,0:0:0:0:
104,4,109034,6,0,P|117:99|79:185,1,168.749991059303,2|0,0:1|0:0,0:0:0:0:
47,245,109368,6,0,P|123:241|253:284,1,179.999990463257,6|8,0:0|0:0,0:0:0:0:
339,340,109868,2,0,P|368:347|395:349,3,44.9999976158143
428,348,110201,1,0,0:0:0:0:
393,175,110368,2,0,P|388:229|391:267,1,89.9999952316285,0|8,0:0|0:0,0:0:0:0:
452,90,110701,5,0,0:0:0:0:
290,167,110868,1,2,0:0:0:0:
496,183,111034,1,8,0:0:0:0:
349,82,111201,2,0,P|320:68|281:67,3,44.9999976158143
265,65,111534,1,2,0:0:0:0:
120,92,111701,2,0,P|130:159|120:217,1,89.9999952316285,8|0,0:0|0:0,0:0:0:0:
122,331,112034,6,0,P|186:292|286:345,1,179.999990463257,2|8,0:0|0:0,0:0:0:0:
391,298,112534,1,0,0:0:0:0:
420,183,112701,1,0,0:0:0:0:
420,183,112784,1,0,0:0:0:0:
420,183,112868,2,0,P|420:131|433:83,1,89.9999952316285,2|8,0:0|0:0,0:0:0:0:
331,20,113201,1,0,0:0:0:0:
291,166,113368,5,0,0:0:0:0:
291,166,113451,1,0,0:0:0:0:
291,166,113535,2,0,P|291:218|278:266,1,89.9999952316285,2|8,0:0|0:0,0:0:0:0:
142,206,113868,1,0,0:0:0:0:
182,57,114034,1,0,0:0:0:0:
182,57,114118,1,0,0:0:0:0:
182,57,114201,1,2,0:0:0:0:
291,166,114368,1,8,0:0:0:0:
118,119,114534,1,0,0:0:0:0:
118,119,114618,1,0,0:0:0:0:
118,119,114701,6,0,P|75:142|79:273,1,179.999990463257,2|8,0:0|0:0,0:0:0:0:
237,312,115201,2,0,P|271:316|305:318,3,44.9999976158143
326,317,115534,1,2,0:0:0:0:
354,136,115701,1,0,0:0:0:0:
249,212,115868,1,8,0:0:0:0:
430,240,116034,6,0,P|473:224|523:193,1,89.9999952316285,0|2,0:0|0:0,0:0:0:0:
489,33,116368,1,8,0:0:0:0:
354,136,116534,2,0,P|343:158|330:176,3,44.9999976158143
305,211,116868,1,2,0:0:0:0:
208,342,117034,1,8,0:0:0:0:
229,155,117201,1,0,0:0:0:0:
381,267,117368,6,0,P|419:308|446:347,1,89.9999952316285,2|0,0:0|0:0,0:0:0:0:
434,167,117701,1,8,0:0:0:0:
375,72,117868,1,0,0:0:0:0:
229,155,118034,1,0,0:0:0:0:
229,155,118118,1,0,0:0:0:0:
229,155,118201,2,0,P|291:162|324:161,1,89.9999952316285,2|8,0:0|0:0,0:0:0:0:
189,62,118534,1,0,0:0:0:0:
169,237,118701,5,0,0:0:0:0:
169,237,118784,1,0,0:0:0:0:
169,237,118868,2,0,P|187:298|192:334,1,89.9999952316285,2|8,0:0|0:0,0:0:0:0:
331,252,119201,2,0,P|338:236|356:209,3,44.9999976158143
384,180,119534,1,2,0:0:0:0:
296,86,119701,1,8,0:0:0:0:
170,115,119868,1,0,0:0:0:0:
253,263,120034,5,2,0:0:0:0:
395,186,120201,1,2,0:0:0:0:
181,121,120368,1,2,0:0:0:0:
342,258,120534,1,2,0:0:0:0:
307,92,120701,1,2,0:0:0:0:
176,212,120868,2,0,P|136:233|88:238,1,89.9999952316285,2|0,0:0|0:0,0:0:0:0:
0,237,121201,6,0,P|86:234|127:344,1,179.999990463257,2|2,0:0|0:0,0:0:0:0:
264,269,121701,1,2,0:0:0:0:
192,127,121868,1,2,0:0:0:0:
144,312,122034,1,2,0:0:0:0:
268,177,122201,2,0,P|282:121|268:79,1,89.9999952316285,2|0,0:0|0:0,0:0:0:0:
213,26,122534,6,0,P|256:77|293:102,1,89.9999952316285,2|0,0:0|0:0,0:0:0:0:
368,110,122868,1,2,0:0:0:0:
379,116,123034,1,2,0:0:0:0:
275,275,123201,1,2,0:0:0:0:
443,239,123368,1,2,0:0:0:0:
279,183,123534,2,0,P|232:195|194:232,1,89.9999952316285,2|0,0:0|0:0,0:0:0:0:
182,310,123868,6,0,P|203:241|142:129,1,179.999990463257,2|2,0:0|0:0,0:0:0:0:
91,90,124368,1,2,0:0:0:0:
76,240,124534,1,2,0:0:0:0:
174,151,124701,1,2,0:0:0:0:
0,179,124867,1,2,0:0:0:0:
213,227,125034,1,2,0:0:0:0:
102,96,125201,1,2,0:0:0:0:
15,316,125368,6,0,P|92:336|171:254,1,179.999990463257,2|8,0:0|0:0,0:0:0:0:
227,108,125868,2,0,P|292:50|376:68,1,179.999990463257,2|8,0:0|0:0,0:0:0:0:
331,254,126368,1,2,0:0:0:0:
315,144,126534,1,0,0:0:0:0:
419,290,126701,6,0,P|351:346|256:309,1,197.999995552063,2|8,0:0|0:0,0:0:0:0:
218,115,127201,2,0,P|131:77|55:135,1,197.999995552063,2|8,0:0|0:0,0:0:0:0:
147,291,127701,1,2,0:0:0:0:
143,171,127868,1,0,0:0:0:0:
72,347,128034,6,0,P|158:384|238:307,1,215.999981964112,2|8,0:0|0:0,0:0:0:0:
290,105,128534,1,0,0:0:0:0:
290,105,128618,1,0,0:0:0:0:
290,105,128701,2,0,P|240:209|242:328,1,215.999981964112,2|8,0:0|0:0,0:0:0:0:
396,184,129201,1,0,0:0:0:0:
396,184,129284,1,0,0:0:0:0:
396,184,129368,6,0,P|425:171|451:163,3,44.9999976158143,2|0|0|0,0:0|0:0|0:0|0:0,0:0:0:0:
407,271,129701,2,0,P|378:284|352:292,3,44.9999976158143,2|0|0|0,0:0|0:0|0:0|0:0,0:0:0:0:
461,336,130034,1,2,0:0:0:0:
290,209,130201,1,0,0:0:0:0:
103,301,130368,1,2,0:0:0:0:
103,301,130451,1,2,0:0:0:0:
103,301,130534,1,2,0:0:0:0:
17,117,130701,5,2,0:0:0:0:
256,192,130784,12,0,132034,0:0:0:0:
192,118,142701,6,0,P|195:191|185:261,1,134.999997997284,4|0,0:0|0:0,0:0:0:0:
169,352,143201,2,0,P|240:350|307:356,2,134.999997997284
73,239,144368,2,0,P|82:183|87:97,1,134.999997997284
227,55,145034,1,0,0:0:0:0:
340,150,145368,6,0,B|406:188|475:220|475:220|469:187|469:155,1,202.499996995926
372,273,146201,2,0,P|366:313|362:346,2,67.499998998642
229,50,147201,1,0,0:0:0:0:
229,50,147368,2,0,P|220:98|218:132,1,67.499998998642
260,207,147701,2,0,P|256:240|249:273,1,67.499998998642
181,345,148034,5,0,0:0:0:0:
56,194,148534,1,0,0:0:0:0:
56,194,148701,2,0,P|94:186|122:177,1,67.499998998642
187,100,149034,2,0,P|219:89|252:83,1,67.499998998642
346,117,149368,2,0,P|344:152|348:258,1,134.999997997284
373,350,149868,2,0,P|324:347|233:352,1,134.999997997284
139,329,150368,1,0,0:0:0:0:
109,233,150534,1,0,0:0:0:0:
177,159,150701,6,0,P|241:134|306:100,1,134.999997997284
394,67,151201,2,0,P|383:134|380:208,1,134.999997997284
395,348,151868,1,0,0:0:0:0:
395,348,152034,6,0,P|361:347|337:346,3,44.9999976158143
259,350,152368,2,0,P|236:349|214:348,3,44.9999976158143
122,351,152701,1,0,0:0:0:0:
169,271,152868,1,0,0:0:0:0:
177,178,153034,1,0,0:0:0:0:
144,90,153201,1,0,0:0:0:0:
60,64,153368,6,0,P|109:88|241:53,1,179.999990463257,4|8,0:0|0:0,0:0:0:0:
366,55,153868,2,0,P|362:80|361:110,3,44.9999976158143
360,145,154202,1,2,0:0:0:0:
350,334,154368,2,0,P|355:286|355:239,1,89.9999952316285,0|8,0:0|0:0,0:0:0:0:
168,190,154702,5,0,0:0:0:0:
265,277,154868,1,2,0:0:0:0:
291,149,155035,1,8,0:0:0:0:
183,291,155202,2,0,P|195:321|207:335,3,44.9999976158143
238,357,155535,1,2,0:0:0:0:
371,288,155702,2,0,P|367:237|370:190,1,89.9999952316285,8|0,0:0|0:0,0:0:0:0:
384,88,156035,6,0,P|336:104|188:72,1,179.999990463257,2|8,0:0|0:0,0:0:0:0:
193,15,156535,2,0,B|211:87|211:87|166:202,1,179.999990463257,2|2,0:0|0:0,0:0:0:0:
112,340,157035,1,8,0:0:0:0:
66,233,157202,1,0,0:0:0:0:
220,296,157368,5,0,0:0:0:0:
220,296,157452,1,0,0:0:0:0:
220,296,157535,2,0,P|265:286|316:292,1,89.9999952316285,2|8,0:0|0:0,0:0:0:0:
409,337,157868,1,0,0:0:0:0:
322,180,158035,1,0,0:0:0:0:
484,258,158202,1,2,0:0:0:0:
308,290,158368,1,8,0:0:0:0:
431,160,158535,1,0,0:0:0:0:
409,337,158701,1,2,0:0:0:0:
115,272,159035,5,8,0:0:0:0:
115,272,159202,1,0,0:0:0:0:
293,280,159368,1,0,0:0:0:0:
143,378,159535,1,2,0:0:0:0:
207,212,159701,1,0,0:0:0:0:
254,384,159868,1,0,0:0:0:0:
115,272,160035,6,0,P|98:196|161:111,1,179.999990463257,0|8,0:0|0:0,0:0:0:0:
281,87,160535,2,0,P|305:84|337:82,3,44.9999976158143
371,86,160868,1,2,0:0:0:0:
389,243,161035,1,8,0:0:0:0:
245,181,161202,1,0,0:0:0:0:
381,164,161368,6,0,P|445:187|445:300,1,179.999990463257,2|8,0:0|0:0,0:0:0:0:
320,295,161868,1,2,0:0:0:0:
245,181,162035,1,0,0:0:0:0:
245,181,162118,1,0,0:0:0:0:
245,181,162202,2,0,P|247:136|241:79,1,89.9999952316285,0|8,0:0|0:0,0:0:0:0:
185,303,162535,6,0,P|132:357|25:347,2,179.999990463257,0|2|0,0:0|0:0|0:0,0:0:0:0:
206,126,163368,5,0,0:0:0:0:
84,256,163535,1,2,0:0:0:0:
260,223,163702,1,2,0:0:0:0:
99,147,163868,1,0,0:0:0:0:
185,303,164035,6,0,P|228:328|346:291,1,179.999990463257,6|8,0:0|0:0,0:0:0:0:
377,164,164535,2,0,P|378:139|375:116,3,44.9999976158143
365,76,164868,1,2,0:0:0:0:
213,229,165035,2,0,P|263:236|312:223,1,89.9999952316285,0|8,0:0|0:0,0:0:0:0:
128,82,165368,5,0,0:0:0:0:
254,134,165535,1,2,0:0:0:0:
236,0,165702,1,8,0:0:0:0:
146,157,165868,2,0,P|132:182|122:212,3,44.9999976158143
117,243,166202,1,2,0:0:0:0:
234,342,166368,1,8,0:0:0:0:
379,291,166535,1,0,0:0:0:0:
379,291,166618,1,0,0:0:0:0:
379,291,166702,6,0,P|358:183|401:110,1,179.999990463257,2|8,0:0|0:0,0:0:0:0:
239,201,167202,2,0,P|301:137|388:124,1,179.999990463257,2|2,0:0|0:0,0:0:0:0:
484,214,167702,1,8,0:0:0:0:
358,278,167868,1,0,0:0:0:0:
239,201,168035,5,0,0:0:0:0:
239,201,168118,1,0,0:0:0:0:
239,201,168202,2,0,P|201:167|186:112,1,89.9999952316285,2|8,0:0|0:0,0:0:0:0:
179,24,168535,1,0,0:0:0:0:
86,172,168702,1,0,0:0:0:0:
75,0,168868,1,2,0:0:0:0:
187,131,169035,1,8,0:0:0:0:
17,89,169202,1,0,0:0:0:0:
179,24,169368,1,2,0:0:0:0:
235,306,169702,5,8,0:0:0:0:
235,306,169868,1,0,0:0:0:0:
187,131,170035,1,0,0:0:0:0:
326,242,170202,1,2,0:0:0:0:
147,240,170368,1,0,0:0:0:0:
293,136,170535,1,0,0:0:0:0:
235,306,170702,6,0,P|169:347|54:300,1,179.999990463257,0|8,0:0|0:0,0:0:0:0:
32,195,171202,2,0,P|34:158|38:139,3,44.9999976158143
46,107,171535,1,2,0:0:0:0:
189,179,171702,1,2,0:0:0:0:
180,15,171868,1,0,0:0:0:0:
116,143,172035,6,0,P|111:201|208:258,1,179.999990463257,2|8,0:0|0:0,0:0:0:0:
91,54,172535,1,0,0:0:0:0:
91,54,172618,1,0,0:0:0:0:
91,54,172702,2,0,P|112:139|189:179,1,179.999990463257,2|8,0:0|0:0,0:0:0:0:
331,194,173202,1,0,0:0:0:0:
331,194,173285,1,0,0:0:0:0:
331,194,173368,6,0,P|366:195|399:189,3,44.9999976158143,2|0|0|0,0:0|0:0|0:0|0:0,0:0:0:0:
302,107,173702,2,0,P|267:106|234:112,3,44.9999976158143,2|0|0|0,0:0|0:0|0:0|0:0,0:0:0:0:
331,20,174035,1,2,0:0:0:0:
392,89,174202,5,0,0:0:0:0:
403,181,174368,1,0,0:0:0:0:
360,263,174535,1,0,0:0:0:0:
278,307,174701,6,0,P|231:302|182:308,1,89.9999952316285,6|0,0:0|0:0,0:0:0:0:
29,255,175034,2,8,P|76:260|125:254,1,89.9999952316285
281,196,175368,2,0,P|234:191|185:197,1,89.9999952316285,0|2,0:0|0:0,0:0:0:0:
32,144,175701,2,0,P|79:149|128:143,1,89.9999952316285,0|8,0:0|0:0,0:0:0:0:
329,43,176034,6,0,P|324:90|330:139,1,89.9999952316285,0|2,0:0|0:0,0:0:0:0:
183,341,176368,2,0,P|188:294|182:245,1,89.9999952316285,8|0,0:0|0:0,0:0:0:0:
405,265,176701,2,0,P|358:260|309:266,1,89.9999952316285,0|2,0:0|0:0,0:0:0:0:
107,119,177034,2,0,P|154:124|203:118,1,89.9999952316285,8|0,0:0|0:0,0:0:0:0:
329,43,177368,5,2,0:0:0:0:
325,65,177451,1,0,0:0:0:0:
324,87,177534,1,0,0:0:0:0:
325,110,177618,1,0,0:0:0:0:
328,132,177701,1,8,0:0:0:0:
196,208,177868,5,2,0:0:0:0:
199,186,177951,1,0,0:0:0:0:
200,163,178035,1,0,0:0:0:0:
199,141,178118,1,0,0:0:0:0:
196,119,178201,1,8,0:0:0:0:
65,239,178368,6,0,P|61:256|61:268,6,22.4999988079071,2|0|0|0|0|0|0,0:0|0:0|0:0|0:0|0:0|0:0|0:0,0:0:0:0:
60,307,178701,6,0,P|88:317|116:323,3,44.9999976158143,2|2|2|2,0:0|0:0|0:0|0:0,0:0:0:0:
197,323,179034,2,0,P|221:310|245:290,3,44.9999976158143,2|2|2|2,0:0|0:0|0:0|0:0,0:0:0:0:
297,228,179368,2,0,P|301:204|303:170,3,44.9999976158143,2|2|2|2,0:0|0:0|0:0|0:0,0:0:0:0:
288,90,179701,1,0,0:0:0:0:
205,211,179868,1,0,0:0:0:0:
376,123,180034,6,0,P|373:52|263:-2,1,179.999990463257,2|0,0:0|0:0,0:0:0:0:
205,211,180534,2,0,P|267:193|272:69,1,179.999990463257,2|0,0:0|0:0,0:0:0:0:
129,243,181034,1,2,0:0:0:0:
216,129,181201,1,2,0:0:0:0:
85,117,181368,5,0,0:0:0:0:
140,249,181534,1,0,0:0:0:0:
227,135,181701,1,0,0:0:0:0:
74,201,181868,1,2,0:0:0:0:
74,201,181951,1,2,0:0:0:0:
74,201,182034,1,2,0:0:0:0:
293,186,182201,1,0,0:0:0:0:
162,86,182368,1,2,0:0:0:0:
151,255,182534,1,2,0:0:0:0:
305,104,182701,6,0,P|267:59|160:88,1,179.999990463257,2|0,0:0|0:0,0:0:0:0:
151,255,183201,2,0,P|178:200|156:78,1,179.999990463257,2|0,0:0|0:0,0:0:0:0:
63,293,183701,1,2,0:0:0:0:
253,229,183868,6,0,P|216:173|76:178,1,179.999990463257,2|2,0:0|0:0,0:0:0:0:
235,355,184368,1,2,0:0:0:0:
151,255,184534,1,2,0:0:0:0:
107,378,184701,1,0,0:0:0:0:
253,229,184868,1,0,0:0:0:0:
78,180,185034,2,0,P|51:229|49:273,1,89.9999952316285
234,77,185368,6,0,P|281:82|330:76,1,89.9999952316285,2|0,0:0|0:0,0:0:0:0:
483,129,185701,2,0,P|436:124|387:130,1,89.9999952316285
231,188,186035,2,0,P|278:193|327:187,1,89.9999952316285,0|2,0:0|0:0,0:0:0:0:
480,240,186368,2,0,P|433:235|384:241,1,89.9999952316285,0|8,0:0|0:0,0:0:0:0:
183,341,186701,6,0,P|188:294|182:245,1,89.9999952316285,0|2,0:0|0:0,0:0:0:0:
329,43,187035,2,0,P|324:90|330:139,1,89.9999952316285,8|0,0:0|0:0,0:0:0:0:
107,119,187368,2,0,P|154:124|203:118,1,89.9999952316285,0|2,0:0|0:0,0:0:0:0:
405,265,187701,2,0,P|358:260|309:266,1,89.9999952316285,8|0,0:0|0:0,0:0:0:0:
183,341,188035,5,2,0:0:0:0:
187,319,188118,1,0,0:0:0:0:
188,297,188201,1,0,0:0:0:0:
187,274,188285,1,0,0:0:0:0:
184,252,188368,1,8,0:0:0:0:
316,176,188535,5,2,0:0:0:0:
313,198,188618,1,0,0:0:0:0:
312,221,188702,1,0,0:0:0:0:
313,243,188785,1,0,0:0:0:0:
316,265,188868,1,8,0:0:0:0:
447,145,189034,6,0,P|451:128|451:116,6,22.4999988079071,2|0|0|0|0|0|0,0:0|0:0|0:0|0:0|0:0|0:0|0:0,0:0:0:0:
452,77,189368,6,0,P|424:67|396:61,3,44.9999976158143,2|2|2|2,0:0|0:0|0:0|0:0,0:0:0:0:
315,61,189701,2,0,P|291:74|267:94,3,44.9999976158143,2|2|2|2,0:0|0:0|0:0|0:0,0:0:0:0:
215,156,190035,2,0,P|211:180|209:214,3,44.9999976158143,2|2|2|2,0:0|0:0|0:0|0:0,0:0:0:0:
224,294,190368,1,0,0:0:0:0:
307,173,190535,1,0,0:0:0:0:
136,261,190701,6,0,P|139:332|249:386,1,179.999990463257,2|0,0:0|0:0,0:0:0:0:
307,173,191201,2,0,P|245:191|240:315,1,179.999990463257,2|0,0:0|0:0,0:0:0:0:
383,141,191701,1,2,0:0:0:0:
296,255,191868,1,2,0:0:0:0:
448,280,192034,6,0,P|387:230|288:264,1,179.999990463257
383,141,192535,1,2,0:0:0:0:
383,141,192618,1,2,0:0:0:0:
383,141,192701,1,2,0:0:0:0:
233,201,192868,1,0,0:0:0:0:
364,318,193034,1,2,0:0:0:0:
259,122,193201,1,2,0:0:0:0:
207,280,193368,6,0,P|263:328|368:315,1,179.999990463257,2|0,0:0|0:0,0:0:0:0:
401,160,193868,1,2,0:0:0:0:
401,160,193951,1,0,0:0:0:0:
401,160,194034,2,0,P|348:230|363:317,1,179.999990463257,0|2,0:0|0:0,0:0:0:0:
300,104,194534,1,2,0:0:0:0:
300,104,194618,1,0,0:0:0:0:
300,104,194701,6,0,P|269:103|244:105,3,44.9999976158143,0|0|2|0,0:0|0:0|0:0|0:0,0:0:0:0:
174,144,195034,2,0,P|151:144|129:143,3,44.9999976158143,2|0|2|0,0:0|0:0|0:0|0:0,0:0:0:0:
48,104,195368,1,0,0:0:0:0:
65,214,195534,1,0,0:0:0:0:
168,254,195701,1,0,0:0:0:0:
168,254,195784,1,0,0:0:0:0:
168,254,195868,1,0,0:0:0:0:
256,192,196035,5,0,0:0:0:0:
256,192,196118,12,2,201701,0:0:0:0:
