osu file format v14

[General]
AudioFilename: Sakuzyo,Siilento's Solid - ChaiN DestructioN (Siilento's Solid Remix).mp3
AudioLeadIn: 0
PreviewTime: 82534
Countdown: 0
SampleSet: Soft
StackLeniency: 0.7
Mode: 0
LetterboxInBreaks: 0
WidescreenStoryboard: 0

[Editor]
Bookmarks: 35,2701,4034,5368,6034,6701,7034,7368,7701,8034,8201,8368,8534,8701,8868,9034,9201,9368,9451,9534,9618,9701,9784,9868,9951,10034,109368
DistanceSpacing: 1
BeatDivisor: 4
GridSize: 4
TimelineZoom: 2.999999

[Metadata]
Title:ChaiN De/structioN (siilento's solid remix)
TitleUnicode:ChaiN De/structioN (siilento's solid remix)
Artist:sakuzyo
ArtistUnicode:削除
Creator:Ryuusei Aika
Version:Arutsuki's Normal
Source:
Tags:VOCALOID ボーカロイド 初音ミク Hatsune Miku (∵)キョトンP kyotonP DENSHI ONGAKU HAMO Arutsuki ShogunMoon Chalwa Azulae Beomsan Kujinn
BeatmapID:1208454
BeatmapSetID:531385

[Difficulty]
HPDrainRate:3
CircleSize:3
OverallDifficulty:5
ApproachRate:5
SliderMultiplier:1.19999990463257
SliderTickRate:1

[Events]
//Background and Video events
0,0,"BG.jpg",0,0
//Break Periods
2,132034,146834
//Storyboard Layer 0 (Background)
//Storyboard Layer 1 (Fail)
//Storyboard Layer 2 (Pass)
//Storyboard Layer 3 (Foreground)
//Storyboard Sound Samples

[TimingPoints]
35,333.333333333333,4,2,1,85,1,0
64034,-100,4,2,1,85,0,1
85368,-100,4,2,1,85,0,0
153368,-100,4,2,1,85,0,1
174701,-100,4,2,1,85,0,0

[Colours]
Combo1 : 150,150,180
Combo2 : 0,100,200
Combo3 : 180,180,200
Combo4 : 0,200,250

[HitObjects]
256,192,7368,12,0,10034,0:0:0:0:
434,77,10701,6,0,P|451:136|434:206,1,119.999990463257,4|8,0:0|0:0,0:0:0:0:
411,244,11201,1,0,0:0:0:0:
366,284,11368,2,0,P|302:300|234:282,1,119.999990463257,0|0,0:0|0:0,0:0:0:0:
303,182,12034,2,0,L|303:110,2,59.9999952316285,0|0|8,0:0|0:0|0:0,0:0:0:0:
250,289,12701,1,0,0:0:0:0:
157,212,13034,1,8,0:0:0:0:
56,277,13368,6,0,P|34:211|57:145,1,119.999990463257,0|8,0:0|0:0,0:0:0:0:
76,112,13868,1,0,0:0:0:0:
128,83,14034,2,0,P|172:68|248:85,1,119.999990463257,0|8,0:0|0:0,0:0:0:0:
186,188,14701,2,0,L|117:188,2,59.9999952316285,0|0|8,0:0|0:0|0:0,0:0:0:0:
187,248,15201,1,0,0:0:0:0:
187,248,15368,2,0,L|316:248,1,119.999990463257,0|8,0:0|0:0,0:0:0:0:
424,222,16034,6,0,L|424:85,1,119.999990463257,0|8,0:0|0:0,0:0:0:0:
389,52,16534,1,0,0:0:0:0:
336,82,16701,2,0,L|196:82,1,119.999990463257
183,132,17201,2,0,L|55:132,1,119.999990463257,8|0,0:0|0:0,0:0:0:0:
4,145,17701,2,0,L|3:66,2,59.9999952316285,0|0|0,0:0|0:0|0:0,0:0:0:0:
8,204,18201,2,0,L|136:204,1,119.999990463257,0|0,0:0|0:0,0:0:0:0:
188,207,18701,6,0,B|188:271|188:271|204:335,1,119.999990463257,0|8,0:0|0:0,0:0:0:0:
321,314,19368,2,0,B|385:314|385:314|449:330,1,119.999990463257,0|8,0:0|0:0,0:0:0:0:
448,208,20034,2,0,L|448:144,2,59.9999952316285,0|0|8,0:0|0:0|0:0,0:0:0:0:
387,208,20534,1,0,0:0:0:0:
326,205,20701,2,0,L|254:205,2,59.9999952316285,0|0|8,0:0|0:0|0:0,0:0:0:0:
260,305,21368,6,0,P|196:321|140:305,1,119.999990463257,4|8,0:0|0:0,0:0:0:0:
164,249,21868,1,0,0:0:0:0:
204,209,22034,2,0,P|268:193|324:209,1,119.999990463257,0|0,0:0|0:0,0:0:0:0:
424,148,22701,2,0,L|496:148,2,59.9999952316285,0|0|8,0:0|0:0|0:0,0:0:0:0:
317,88,23368,1,0,0:0:0:0:
215,152,23701,1,8,0:0:0:0:
95,152,24034,6,0,P|87:216|95:272,1,119.999990463257,0|8,0:0|0:0,0:0:0:0:
143,312,24534,1,0,0:0:0:0:
199,328,24701,2,0,P|263:320|319:328,1,119.999990463257,0|8,0:0|0:0,0:0:0:0:
439,328,25368,2,0,L|511:328,2,59.9999952316285,0|0|8,0:0|0:0|0:0,0:0:0:0:
388,296,25868,1,0,0:0:0:0:
364,240,26034,2,0,L|364:160,2,59.9999952316285,0|0|8,0:0|0:0|0:0,0:0:0:0:
476,200,26701,6,0,B|484:136|484:136|476:64,1,119.999990463257,0|8,0:0|0:0,0:0:0:0:
424,56,27201,2,0,B|360:64|360:64|288:56,1,119.999990463257,0|0,0:0|0:0,0:0:0:0:
224,148,27868,2,0,B|232:212|232:212|224:284,1,119.999990463257,8|0,0:0|0:0,0:0:0:0:
273,303,28368,2,0,B|305:299|305:299|337:303,2,59.9999952316285,8|0|0,0:0|0:0|0:0,0:0:0:0:
216,324,28868,2,0,B|152:332|152:332|80:324,1,119.999990463257,0|0,0:0|0:0,0:0:0:0:
64,276,29368,6,0,P|56:212|64:156,1,119.999990463257,0|8,0:0|0:0,0:0:0:0:
184,148,30034,2,0,P|176:212|184:268,1,119.999990463257,0|8,0:0|0:0,0:0:0:0:
304,268,30701,2,0,P|299:228|304:193,1,59.9999952316285,0|0,0:0|0:0,0:0:0:0:
328,156,31034,1,8,0:0:0:0:
424,228,31368,1,0,0:0:0:0:
496,132,31701,1,8,0:0:0:0:
400,60,32034,6,0,B|352:76|312:60|312:60|256:84|208:60,1,179.999985694886,4|0,0:0|0:0,0:0:0:0:
186,243,33034,2,0,P|114:171|130:243,1,239.999980926514,0|8,0:0|0:0,0:0:0:0:
162,331,34034,2,0,L|230:331,2,59.9999952316285,0|0|8,0:0|0:0|0:0,0:0:0:0:
159,270,34534,1,0,0:0:0:0:
159,270,34701,2,0,B|167:222|151:198|151:198|159:166|159:166|143:118|167:70,1,179.999985694886,0|0,0:0|0:0,0:0:0:0:
335,118,35701,2,0,B|287:150|233:129|233:129|247:158|239:190|239:190|247:230|239:270,1,239.999980926514,8|8,0:0|0:0,0:0:0:0:
359,230,36701,6,0,B|367:270|367:270|359:334,2,89.9999928474428
335,174,37368,2,0,P|343:110|455:126,1,179.999985694886,0|0,0:0|0:0,0:0:0:0:
383,278,38368,2,0,B|335:294|263:270|263:270|207:254|143:278,1,239.999980926514,0|8,0:0|0:0,0:0:0:0:
33,318,39368,2,0,L|33:230,2,59.9999952316285,0|0|8,0:0|0:0|0:0,0:0:0:0:
147,276,40034,2,0,B|159:222|140:192|140:192|151:182|151:182|135:142|151:94,1,179.999985694886,0|0,0:0|0:0,0:0:0:0:
327,126,41034,2,0,P|295:182|303:94,1,239.999980926514,8|8,0:0|0:0,0:0:0:0:
399,62,42034,1,4,0:0:0:0:
399,62,42368,1,4,0:0:0:0:
399,62,42701,6,0,B|407:126|407:126|399:206,1,119.999990463257,4|8,0:0|0:0,0:0:0:0:
343,190,43201,2,0,B|335:254|335:254|343:326,1,119.999990463257,0|0,0:0|0:0,0:0:0:0:
376,358,43701,1,0,0:0:0:0:
261,321,44034,1,0,0:0:0:0:
261,321,44368,1,0,0:0:0:0:
261,321,44701,2,0,B|273:291|265:264|265:264|256:232|266:204,1,119.999990463257,8|0,0:0|0:0,0:0:0:0:
157,265,45368,6,0,B|165:201|165:201|157:137,1,119.999990463257,0|0,0:0|0:0,0:0:0:0:
101,129,45868,2,0,B|93:73|93:73|101:9,1,119.999990463257,0|0,0:0|0:0,0:0:0:0:
157,9,46368,1,0,0:0:0:0:
253,73,46701,1,0,0:0:0:0:
253,73,47034,1,0,0:0:0:0:
253,73,47368,2,0,L|253:177,2,89.9999928474428,0|8|0,0:0|0:0|0:0,0:0:0:0:
309,49,48034,6,0,B|373:41|373:41|453:49,1,119.999990463257,0|8,0:0|0:0,0:0:0:0:
453,97,48534,2,0,B|445:161|445:161|453:217,1,119.999990463257,0|0,0:0|0:0,0:0:0:0:
415,260,49034,1,0,0:0:0:0:
344,162,49368,1,0,0:0:0:0:
344,162,49701,1,0,0:0:0:0:
344,162,50034,2,0,B|276:161|276:161|232:126,1,119.999990463257,8|0,0:0|0:0,0:0:0:0:
118,155,50701,6,0,B|126:219|126:219|118:275,1,119.999990463257,0|0,0:0|0:0,0:0:0:0:
158,315,51201,2,0,B|222:307|222:307|278:315,1,119.999990463257,0|0,0:0|0:0,0:0:0:0:
310,267,51701,1,0,0:0:0:0:
222,179,52034,2,0,L|222:115,2,59.9999952316285,0|0|0,0:0|0:0|0:0,0:0:0:0:
278,187,52534,1,0,0:0:0:0:
338,186,52701,2,0,B|386:178|386:178|434:186,2,89.9999928474428
278,187,53368,1,0,0:0:0:0:
256,192,53701,12,0,57368,0:0:0:0:
446,195,58368,6,0,L|446:275,1,59.9999952316285,8|0,0:0|0:0,0:0:0:0:
446,315,58701,2,0,L|310:315,1,119.999990463257,0|8,0:0|0:0,0:0:0:0:
238,235,59368,2,0,L|374:235,1,119.999990463257,0|8,0:0|0:0,0:0:0:0:
446,155,60034,2,0,L|310:155,1,119.999990463257,0|8,0:0|0:0,0:0:0:0:
238,75,60701,2,0,L|374:75,1,119.999990463257,0|8,0:0|0:0,0:0:0:0:
302,179,61368,6,0,L|302:243,1,59.9999952316285,0|0,0:0|0:0,0:0:0:0:
262,283,61701,2,0,L|198:283,1,59.9999952316285,0|0,0:0|0:0,0:0:0:0:
158,243,62034,2,0,L|158:155,2,59.9999952316285,0|0|0,0:0|0:0|0:0,0:0:0:0:
126,291,62534,2,0,P|78:291|46:211,1,119.999990463257,0|4,0:0|0:0,0:0:0:0:
54,179,63034,1,4,0:0:0:0:
110,147,63201,2,0,P|198:163|300:132,1,179.999985694886,4|2,0:0|0:0,0:0:0:0:
390,84,64034,6,0,L|390:216,1,119.999990463257,12|8,0:0|0:0,0:0:0:0:
390,264,64534,1,0,0:0:0:0:
286,203,64868,1,0,0:0:0:0:
185,268,65201,2,0,P|133:268|56:168,1,179.999985694886,8|8,0:0|0:0,0:0:0:0:
100,64,66034,1,0,0:0:0:0:
156,170,66368,1,8,0:0:0:0:
231,76,66701,6,0,P|292:47|404:83,1,179.999985694886,0|0,0:0|0:0,0:0:0:0:
314,163,67534,2,0,L|314:244,2,59.9999952316285,0|8|0,0:0|0:0|0:0,0:0:0:0:
253,162,68034,2,0,P|188:144|122:172,1,119.999990463257,0|8,0:0|0:0,0:0:0:0:
195,265,68701,2,0,L|195:341,2,59.9999952316285,2|2|10,0:0|0:0|0:0,0:0:0:0:
51,186,69368,6,0,L|50:42,1,119.999990463257,0|8,0:0|0:0,0:0:0:0:
170,66,70034,2,0,L|170:126,2,59.9999952316285,2|2|2,0:0|0:0|0:0,0:0:0:0:
290,63,70701,2,0,L|290:188,1,119.999990463257,0|8,0:0|0:0,0:0:0:0:
325,231,71201,1,0,0:0:0:0:
325,231,71534,2,0,L|325:300,2,59.9999952316285,2|10|2,0:0|0:0|0:0,0:0:0:0:
366,187,72034,6,0,P|375:122|359:60,1,119.999990463257,0|8,0:0|0:0,0:0:0:0:
307,54,72534,2,0,P|246:68|182:54,1,119.999990463257,0|0,0:0|0:0,0:0:0:0:
76,20,73201,2,0,L|76:153,1,119.999990463257,0|0,0:0|0:0,0:0:0:0:
105,192,73701,2,0,L|179:180,2,59.9999952316285,8|0|2,0:0|0:0|0:0,0:0:0:0:
66,237,74201,2,0,L|-8:218,2,59.9999952316285,2|10|2,0:0|0:0|0:0,0:0:0:0:
97,288,74701,6,0,P|141:293|217:262,1,119.999990463257,12|8,0:0|0:0,0:0:0:0:
241,215,75201,1,0,0:0:0:0:
267,98,75534,1,0,0:0:0:0:
375,149,75868,2,0,P|387:201|335:335,1,179.999985694886,8|8,0:0|0:0,0:0:0:0:
229,318,76701,1,0,0:0:0:0:
145,233,77034,1,8,0:0:0:0:
70,138,77368,6,0,L|261:138,1,179.999985694886,0|0,0:0|0:0,0:0:0:0:
370,139,78201,2,0,L|436:140,2,59.9999952316285,0|8|0,0:0|0:0|0:0,0:0:0:0:
339,191,78701,2,0,L|339:336,1,119.999990463257,0|8,0:0|0:0,0:0:0:0:
231,257,79368,2,0,L|231:195,2,59.9999952316285,2|2|10,0:0|0:0|0:0,0:0:0:0:
134,328,80034,2,0,P|72:320|15:267,1,119.999990463257,0|8,0:0|0:0,0:0:0:0:
119,208,80701,2,0,L|154:135,2,59.9999952316285,0|0|0,0:0|0:0|0:0,0:0:0:0:
219,141,81368,2,0,P|168:82|117:84,1,119.999990463257,0|8,0:0|0:0,0:0:0:0:
75,101,81868,1,0,0:0:0:0:
75,101,82201,2,0,L|77:13,2,59.9999952316285,2|10|2,0:0|0:0|0:0,0:0:0:0:
34,145,82701,6,0,L|34:290,1,119.999990463257,0|8,0:0|0:0,0:0:0:0:
146,271,83368,2,0,L|146:130,1,119.999990463257,0|8,0:0|0:0,0:0:0:0:
265,138,84034,1,0,0:0:0:0:
310,238,84368,1,0,0:0:0:0:
414,197,84701,2,0,L|414:129,2,59.9999952316285,2|2|2,0:0|0:0|0:0,0:0:0:0:
452,243,85201,1,2,0:0:0:0:
452,243,85368,1,2,0:0:0:0:
256,192,85534,12,2,87368,0:0:0:0:
463,154,88034,6,0,L|463:287,1,119.999990463257,0|2,0:0|0:0,0:0:0:0:
431,325,88534,2,0,L|310:325,1,119.999990463257,0|2,0:0|0:0,0:0:0:0:
268,282,89034,2,0,L|268:149,1,119.999990463257,0|2,0:0|0:0,0:0:0:0:
300,111,89534,2,0,L|421:111,1,119.999990463257,0|2,0:0|0:0,0:0:0:0:
455,159,90034,2,0,L|455:232,2,59.9999952316285,8|0|2,0:0|0:0|0:0,0:0:0:0:
364,236,90701,5,0,0:0:0:0:
184,235,91201,1,0,0:0:0:0:
186,55,91701,1,0,0:0:0:0:
366,56,92201,1,0,0:0:0:0:
372,235,92701,2,0,L|373:307,2,59.9999952316285,0|0|8,0:0|0:0|0:0,0:0:0:0:
295,327,93368,6,0,L|147:327,1,119.999990463257,0|2,0:0|0:0,0:0:0:0:
114,325,93868,2,0,L|114:177,1,119.999990463257,0|2,0:0|0:0,0:0:0:0:
114,144,94368,2,0,L|269:144,1,119.999990463257,0|2,0:0|0:0,0:0:0:0:
294,142,94868,2,0,L|294:266,1,119.999990463257,0|2,0:0|0:0,0:0:0:0:
294,322,95368,2,0,L|217:322,2,59.9999952316285,8|0|2,0:0|0:0|0:0,0:0:0:0:
413,319,96034,6,0,P|421:233|414:187,1,119.999990463257,0|8,0:0|0:0,0:0:0:0:
306,151,96701,2,0,P|300:69|310:20,1,119.999990463257,0|8,0:0|0:0,0:0:0:0:
186,31,97368,2,0,P|193:90|186:149,1,119.999990463257,0|8,0:0|0:0,0:0:0:0:
75,198,98034,1,0,0:0:0:0:
288,88,98701,6,0,P|352:98|421:88,1,119.999990463257,0|2,0:0|0:0,0:0:0:0:
466,88,99201,2,0,P|455:156|466:209,1,119.999990463257,0|2,0:0|0:0,0:0:0:0:
467,265,99701,2,0,P|401:256|334:265,1,119.999990463257,0|2,0:0|0:0,0:0:0:0:
289,272,100201,2,0,P|295:203|289:151,1,119.999990463257,0|2,0:0|0:0,0:0:0:0:
280,93,100701,2,0,L|364:93,2,59.9999952316285,8|0|2,0:0|0:0|0:0,0:0:0:0:
159,96,101368,5,0,0:0:0:0:
226,262,101868,1,0,0:0:0:0:
294,95,102368,1,0,0:0:0:0:
146,196,102868,1,8,0:0:0:0:
325,193,103368,2,0,L|399:193,2,59.9999952316285,0|0|8,0:0|0:0|0:0,0:0:0:0:
218,138,104034,6,0,P|150:129|95:138,1,119.999990463257,0|2,0:0|0:0,0:0:0:0:
64,185,104534,2,0,P|55:253|64:308,1,119.999990463257,0|2,0:0|0:0,0:0:0:0:
103,347,105034,2,0,P|171:356|226:347,1,119.999990463257,0|2,0:0|0:0,0:0:0:0:
257,300,105534,2,0,P|266:232|257:177,1,119.999990463257,0|2,0:0|0:0,0:0:0:0:
208,147,106034,2,0,L|144:147,2,59.9999952316285,8|0|2,0:0|0:0|0:0,0:0:0:0:
325,172,106701,6,0,L|326:306,1,119.999990463257,0|8,0:0|0:0,0:0:0:0:
445,305,107368,2,0,L|444:374,2,59.9999952316285,0|0|8,0:0|0:0|0:0,0:0:0:0:
471,188,108034,2,0,L|398:188,1,59.9999952316285,0|0,0:0|0:0,0:0:0:0:
358,157,108368,2,0,L|285:157,1,59.9999952316285,8|0,0:0|0:0,0:0:0:0:
253,197,108701,2,0,L|126:197,1,119.999990463257,0|0,0:0|0:0,0:0:0:0:
132,76,109368,6,0,B|190:108|246:86|246:86|302:63|379:91,1,239.999980926514,4|0,0:0|0:0,0:0:0:0:
412,122,110201,2,0,P|411:163|415:185,2,59.9999952316285,0|0|8,0:0|0:0|0:0,0:0:0:0:
301,167,110868,2,0,P|305:205|302:230,1,59.9999952316285,0|8,0:0|0:0,0:0:0:0:
244,331,111368,1,0,0:0:0:0:
124,332,111701,1,8,0:0:0:0:
56,232,112034,6,0,P|87:149|172:228,1,239.999980926514,0|0,0:0|0:0,0:0:0:0:
156,279,112868,2,0,P|151:318|161:352,2,59.9999952316285,0|8|0,0:0|0:0|0:0,0:0:0:0:
265,230,113534,2,0,P|270:191|260:157,2,59.9999952316285,0|8|0,0:0|0:0|0:0,0:0:0:0:
363,299,114201,1,0,0:0:0:0:
363,299,114701,6,0,B|377:239|349:185|349:185|380:135|363:52,1,239.999980926514,0|0,0:0|0:0,0:0:0:0:
254,113,115701,1,0,0:0:0:0:
254,113,115868,2,0,B|200:142|139:113|139:113|73:73|11:118|11:118,1,239.999980926514,8|0,0:0|0:0,0:0:0:0:
77,282,117034,2,0,L|77:207,2,59.9999952316285,8|0|0,0:0|0:0|0:0,0:0:0:0:
249,334,117868,1,0,0:0:0:0:
344,261,118201,2,0,L|344:187,1,59.9999952316285,0|8,0:0|0:0,0:0:0:0:
342,140,118534,2,0,L|94:140,1,239.999980926514,0|0,0:0|0:0,0:0:0:0:
106,260,119534,2,0,L|26:260,2,59.9999952316285,0|8|0,0:0|0:0|0:0,0:0:0:0:
148,217,120034,6,0,L|148:136,2,59.9999952316285,12|0|8,0:0|0:0|0:0,0:0:0:0:
193,261,120534,1,0,0:0:0:0:
244,291,120701,2,0,L|327:290,1,59.9999952316285,0|0,0:0|0:0,0:0:0:0:
424,290,121201,6,0,L|425:148,1,119.999990463257,8|0,0:0|0:0,0:0:0:0:
426,109,121701,2,0,L|339:109,1,59.9999952316285,8|0,0:0|0:0,0:0:0:0:
305,109,122034,2,0,L|305:179,1,59.9999952316285,0|0,0:0|0:0,0:0:0:0:
231,264,122534,6,0,P|166:276|106:253,1,119.999990463257,0|0,0:0|0:0,0:0:0:0:
69,221,123034,2,0,L|69:141,1,59.9999952316285,8|0,0:0|0:0,0:0:0:0:
129,161,123368,2,0,L|129:88,1,59.9999952316285,0|0,0:0|0:0,0:0:0:0:
248,110,123868,5,0,0:0:0:0:
248,110,124201,2,0,L|248:39,2,59.9999952316285,0|8|0,0:0|0:0|0:0,0:0:0:0:
306,123,124701,2,0,L|306:186,1,59.9999952316285,0|0,0:0|0:0,0:0:0:0:
363,199,125034,2,0,L|363:262,1,59.9999952316285,8|0,0:0|0:0,0:0:0:0:
357,319,125368,6,0,P|314:337|227:313,1,119.999990463257,0|8,0:0|0:0,0:0:0:0:
194,290,125868,2,0,P|138:269|69:284,1,119.999990463257,0|2,0:0|0:0,0:0:0:0:
25,305,126368,1,0,0:0:0:0:
25,305,126701,6,0,P|7:262|31:175,1,119.999990463257,0|8,0:0|0:0,0:0:0:0:
67,155,127201,2,0,P|126:138|191:158,1,119.999990463257,0|2,0:0|0:0,0:0:0:0:
223,195,127701,1,0,0:0:0:0:
223,195,128034,6,0,P|211:268|233:333,1,119.999990463257,0|8,0:0|0:0,0:0:0:0:
342,311,128701,2,0,P|354:246|340:189,1,119.999990463257,0|0,0:0|0:0,0:0:0:0:
276,93,129368,2,0,L|206:93,1,59.9999952316285,0|0,0:0|0:0,0:0:0:0:
189,147,129701,2,0,L|117:147,1,59.9999952316285,0|0,0:0|0:0,0:0:0:0:
100,200,130034,2,0,L|21:200,2,59.9999952316285,0|2|0,0:0|0:0|0:0,0:0:0:0:
135,248,130534,2,0,L|194:248,1,59.9999952316285,0|0,0:0|0:0,0:0:0:0:
256,192,148034,12,0,151368,0:0:0:0:
421,195,152034,6,0,L|421:264,1,59.9999952316285,4|4,0:0|0:0,0:0:0:0:
386,304,152368,2,0,L|312:304,1,59.9999952316285,4|4,0:0|0:0,0:0:0:0:
266,299,152701,1,2,0:0:0:0:
266,299,153368,6,0,P|283:235|261:166,1,119.999990463257,12|10,0:0|0:0,0:0:0:0:
229,140,153868,1,0,0:0:0:0:
155,235,154201,1,8,0:0:0:0:
66,315,154534,2,0,P|38:219|77:146,1,179.999985694886,10|10,0:0|0:0,0:0:0:0:
155,235,155368,1,0,0:0:0:0:
269,176,155701,1,10,0:0:0:0:
373,117,156034,2,0,L|373:304,1,179.999985694886,8|0,0:0|0:0,0:0:0:0:
252,297,156868,2,0,L|252:222,2,59.9999952316285,8|10|0,0:0|0:0|0:0,0:0:0:0:
209,339,157368,2,0,P|144:353|92:340,1,119.999990463257,0|10,0:0|0:0,0:0:0:0:
151,235,158034,6,0,L|151:165,2,59.9999952316285,2|2|10,0:0|0:0|0:0,0:0:0:0:
248,164,158701,2,0,L|248:32,1,119.999990463257,8|10,0:0|0:0,0:0:0:0:
348,110,159368,2,0,L|348:50,2,59.9999952316285,2|10|2,0:0|0:0|0:0,0:0:0:0:
289,214,160035,2,0,P|345:228|409:213,1,119.999990463257,0|10,0:0|0:0,0:0:0:0:
446,172,160534,1,0,0:0:0:0:
446,172,160868,2,0,L|508:172,2,59.9999952316285,2|2|2,0:0|0:0|0:0,0:0:0:0:
407,125,161368,6,0,P|338:112|282:126,1,119.999990463257,8|8,0:0|0:0,0:0:0:0:
238,153,161868,2,0,P|159:168|106:151,1,119.999990463257,0|8,0:0|0:0,0:0:0:0:
175,51,162534,2,0,L|308:51,1,119.999990463257,0|8,0:0|0:0,0:0:0:0:
339,91,163034,2,0,L|421:91,2,59.9999952316285,8|0|2,0:0|0:0|0:0,0:0:0:0:
294,131,163534,2,0,L|212:131,2,59.9999952316285,2|10|2,0:0|0:0|0:0,0:0:0:0:
343,165,164034,6,0,P|356:220|345:295,1,119.999990463257,12|12,0:0|0:0,0:0:0:0:
313,330,164534,1,0,0:0:0:0:
243,231,164868,1,8,0:0:0:0:
156,313,165201,2,0,P|100:311|134:220,1,179.999985694886,10|10,0:0|0:0,0:0:0:0:
241,239,166034,1,0,0:0:0:0:
327,155,166368,1,10,0:0:0:0:
425,223,166701,2,0,P|443:178|388:52,1,179.999985694886,0|0,0:0|0:0,0:0:0:0:
327,155,167534,2,0,L|242:155,2,59.9999952316285,8|10|0,0:0|0:0|0:0,0:0:0:0:
326,215,168034,2,0,L|325:346,1,119.999990463257,0|10,0:0|0:0,0:0:0:0:
219,277,168701,6,0,L|219:204,2,59.9999952316285,2|2|10,0:0|0:0|0:0,0:0:0:0:
103,309,169368,2,0,L|103:173,1,119.999990463257,8|10,0:0|0:0,0:0:0:0:
168,88,170034,2,0,L|241:88,2,59.9999952316285,2|2|2,0:0|0:0|0:0,0:0:0:0:
222,195,170701,2,0,L|358:195,1,119.999990463257,0|10,0:0|0:0,0:0:0:0:
402,195,171201,1,0,0:0:0:0:
402,195,171534,2,0,L|403:125,2,59.9999952316285,8|2|10,0:0|0:0|0:0,0:0:0:0:
397,254,172034,6,0,P|341:276|274:251,1,119.999990463257,8|8,0:0|0:0,0:0:0:0:
190,186,172701,2,0,P|123:168|69:183,1,119.999990463257,8|8,0:0|0:0,0:0:0:0:
127,287,173368,2,0,L|127:358,1,59.9999952316285,4|4,0:0|0:0,0:0:0:0:
186,352,173701,2,0,L|252:352,1,59.9999952316285,4|4,0:0|0:0,0:0:0:0:
249,292,174034,2,0,L|249:221,1,59.9999952316285,10|10,0:0|0:0,0:0:0:0:
304,209,174367,2,0,L|304:122,1,59.9999952316285,10|10,0:0|0:0,0:0:0:0:
348,107,174701,6,0,P|426:98|353:250,1,359.999971389771,6|0,0:0|0:0,0:0:0:0:
244,201,176034,2,0,P|175:176|110:193,1,119.999990463257,0|8,0:0|0:0,0:0:0:0:
173,295,176701,2,0,P|242:320|307:303,1,119.999990463257,0|8,0:0|0:0,0:0:0:0:
350,210,177368,2,0,L|350:138,2,59.9999952316285,4|4|4,0:0|0:0|0:0,0:0:0:0:
397,246,177868,2,0,L|397:306,2,59.9999952316285,4|4|4,0:0|0:0|0:0,0:0:0:0:
438,202,178368,1,2,0:0:0:0:
438,202,178701,6,0,L|438:129,1,59.9999952316285,8|0,0:0|0:0,0:0:0:0:
396,98,179034,2,0,L|332:98,1,59.9999952316285,8|8,0:0|0:0,0:0:0:0:
286,133,179368,2,0,L|286:238,2,89.9999928474428,8|8|0,0:0|0:0|0:0,0:0:0:0:
237,97,180034,2,0,B|143:78|143:78|48:108,2,179.999985694886,0|0|0,0:0|0:0|0:0,0:0:0:0:
293,118,181201,1,8,0:0:0:0:
293,118,181701,2,0,L|358:117,2,59.9999952316285,0|0|8,0:0|0:0|0:0,0:0:0:0:
198,192,182368,1,8,0:0:0:0:
281,277,182701,6,0,B|372:295|372:295|467:270,2,179.999985694886,0|0|8,0:0|0:0|0:0,0:0:0:0:
224,254,183868,2,0,P|157:237|94:252,1,119.999990463257,0|0,0:0|0:0,0:0:0:0:
54,274,184368,2,0,L|21:221,1,59.9999952316285,8|0,0:0|0:0,0:0:0:0:
17,163,184701,2,0,L|70:109,1,59.9999952316285,0|0,0:0|0:0,0:0:0:0:
116,101,185034,2,0,L|185:101,1,59.9999952316285,8|0,0:0|0:0,0:0:0:0:
236,104,185368,6,0,P|310:120|369:94,1,119.999990463257,6|8,0:0|0:0,0:0:0:0:
355,226,186034,2,0,P|297:211|240:228,1,119.999990463257,0|8,0:0|0:0,0:0:0:0:
138,293,186701,2,0,P|81:309|23:295,1,119.999990463257,0|8,0:0|0:0,0:0:0:0:
23,175,187367,2,0,P|80:160|137:177,1,119.999990463257,0|8,0:0|0:0,0:0:0:0:
222,262,188034,6,0,L|222:326,2,59.9999952316285,4|4|4,0:0|0:0|0:0,0:0:0:0:
261,216,188534,2,0,L|321:216,2,59.9999952316285,4|4|4,0:0|0:0|0:0,0:0:0:0:
221,170,189034,1,2,0:0:0:0:
221,170,189368,2,0,L|221:92,1,59.9999952316285,8|0,0:0|0:0,0:0:0:0:
221,49,189701,2,0,L|297:49,1,59.9999952316285,8|8,0:0|0:0,0:0:0:0:
324,90,190034,2,0,L|432:90,2,89.9999928474428,8|8|0,0:0|0:0|0:0,0:0:0:0:
306,147,190701,6,0,P|320:217|310:274,1,119.999990463257,0|8,0:0|0:0,0:0:0:0:
267,304,191201,2,0,P|197:318|140:308,1,119.999990463257,0|8,0:0|0:0,0:0:0:0:
103,272,191701,1,0,0:0:0:0:
103,272,192034,6,0,P|89:202|99:145,1,119.999990463257,0|8,0:0|0:0,0:0:0:0:
142,115,192534,2,0,P|212:101|269:111,1,119.999990463257,0|8,0:0|0:0,0:0:0:0:
306,147,193034,1,0,0:0:0:0:
306,147,193368,6,0,L|307:288,1,119.999990463257,0|8,0:0|0:0,0:0:0:0:
412,323,194034,2,0,L|411:182,1,119.999990463257,0|8,0:0|0:0,0:0:0:0:
412,142,194534,6,0,P|375:89|307:71,1,119.999990463257,0|4,0:0|0:0,0:0:0:0:
264,65,195034,1,4,0:0:0:0:
204,72,195201,2,0,P|149:93|116:143,1,119.999990463257,4|0,0:0|0:0,0:0:0:0:
256,192,196034,12,0,201701,0:0:0:0:
