osu file format v12

[General]
AudioFilename: Black Lair.mp3
AudioLeadIn: 0
PreviewTime: 104040
Countdown: 0
SampleSet: Soft
StackLeniency: 0.7
Mode: 0
LetterboxInBreaks: 0
WidescreenStoryboard: 0

[Editor]
Bookmarks: 12040,12440,21640,58740,102440,144840
DistanceSpacing: 1
BeatDivisor: 4
GridSize: 4
TimelineZoom: 1

[Metadata]
Title:Black Lair
TitleUnicode:Black Lair
Artist:sakuzyo
ArtistUnicode:削除
Creator:-kevincela-
Version:Standard
Source:BMS
Tags:BOF 2012 Selentia C82 void xi Divine System Lieselotte Nemis Cytus Loom
BeatmapID:257916
BeatmapSetID:93287

[Difficulty]
HPDrainRate:3
CircleSize:4
OverallDifficulty:4
ApproachRate:5
SliderMultiplier:1.4
SliderTickRate:2

[Events]
//Background and Video events
Video,0,"MV_BGA_Black_Lair_BMS.avi"
0,0,"Black Lair.png",0,0
//Break Periods
2,27440,29240
2,70640,75640
//Storyboard Layer 0 (Background)
//Storyboard Layer 1 (Fail)
//Storyboard Layer 2 (Pass)
//Storyboard Layer 3 (Foreground)
//Storyboard Sound Samples
//Background Colour Transformations
3,100,163,162,255

[TimingPoints]
40,400,4,2,0,80,1,0
1540,-100,4,1,0,80,0,0
1740,-100,4,2,0,80,0,0
7840,-100,4,1,0,80,0,0
12940,-100,4,2,0,80,0,0
14540,-100,4,1,0,80,0,0
14840,-100,4,1,1,80,0,0
14940,-100,4,1,0,80,0,0
15640,-100,4,1,1,80,0,0
15740,-100,4,1,0,80,0,0
18040,-100,4,1,1,80,0,0
18140,-100,4,1,0,80,0,0
20440,-100,4,1,1,80,0,0
20540,-100,4,1,0,80,0,0
21640,-100,4,1,0,80,0,0
22140,-100,4,2,0,80,0,0
22440,-100,4,1,0,80,0,0
27340,-100,4,2,0,80,0,0
30440,-133.333333333333,4,2,0,80,0,0
40140,-100,4,1,0,80,0,0
40640,-100,4,2,0,80,0,0
40940,-100,4,1,0,80,0,0
41240,-100,4,2,0,80,0,0
41540,-100,4,1,0,40,0,0
43240,-100,4,1,0,80,0,1
56040,-100,4,1,0,80,0,0
57240,-100,4,1,1,80,0,0
57340,-100,4,1,0,80,0,0
58840,-100,4,1,1,80,0,0
58940,-100,4,1,0,80,0,0
60040,-100,4,1,0,30,0,0
60340,-100,4,1,0,80,0,0
63240,-100,4,1,0,40,0,0
64040,-100,4,1,0,80,0,0
64940,-100,4,2,0,80,0,0
65540,-100,4,1,0,80,0,0
66840,-100,4,1,1,80,0,0
66940,-100,4,1,0,80,0,0
68440,-100,4,1,1,80,0,0
68540,-100,4,1,0,80,0,0
75140,-100,4,1,0,80,0,0
76940,-100,4,1,0,60,0,0
89640,-100,4,1,0,80,0,0
89740,-100,4,1,0,70,0,0
96040,-100,4,1,0,80,0,0
96140,-100,4,1,0,50,0,0
97640,-100,4,1,0,60,0,0
99240,-100,4,1,0,70,0,0
100840,-100,4,1,0,80,0,0
104040,-100,4,1,0,80,0,1
113640,-100,4,1,0,80,0,0
116740,-100,4,1,0,80,0,0
116840,-100,4,1,0,80,0,1
129640,-100,4,1,0,80,0,0
136740,-100,4,2,0,5,0,0
136840,-100,4,1,0,80,0,0
137340,-100,4,2,0,80,0,0
137640,-100,4,1,0,80,0,0

[Colours]
Combo1 : 128,128,255
Combo2 : 192,192,192
Combo3 : 128,128,128
Combo4 : 0,99,198

[HitObjects]
144,224,1440,5,0,0:0:0:0:
192,276,1640,2,0,P|256:300|320:276,1,140,4|0,0:0|0:0,0:0:0:0:
368,224,2240,1,2,0:0:0:0:
324,92,2640,2,0,P|352:80|400:88,2,70,0|0|2,0:0|0:0|0:0,0:0:0:0:
256,216,3440,6,0,L|256:292,2,70,0|0|2,0:0|0:0|0:0,0:0:0:0:
188,92,4240,2,0,P|160:80|112:88,2,70,0|0|2,0:0|0:0|0:0,0:0:0:0:
256,216,5040,5,2,0:0:0:0:
316,340,5440,2,0,P|280:368|196:340,1,140,2|0,0:0|0:0,0:0:0:0:
168,280,6040,1,2,0:0:0:0:
196,144,6440,6,0,P|232:116|316:144,1,140,2|0,0:0|0:0,0:0:0:0:
360,196,7040,2,0,P|444:224|480:196,2,140,2|2|0,0:0|0:0|0:0,0:0:0:0:
420,156,8040,5,4,0:0:0:0:
504,276,8440,1,0,0:0:0:0:
376,352,8840,2,0,P|320:372|252:336,1,140,0|0,0:0|0:0,0:0:0:0:
200,208,9640,6,0,P|256:188|324:224,2,140,4|0|0,0:0|0:0|0:0,0:0:0:0:
116,320,10840,1,0,0:0:0:0:
12,228,11240,5,4,0:0:0:0:
28,88,11640,1,0,0:0:0:0:
168,100,12040,1,0,0:0:0:0:
156,240,12440,2,0,P|192:240|224:224,2,70,0|0|4,0:0|0:0|0:0,0:0:0:0:
256,192,13040,12,0,14040,0:0:0:0:
224,208,14440,6,0,P|180:208|128:160,2,105,4|0|0,0:0|0:0|0:0,0:0:0:0:
284,168,15240,2,0,P|328:168|380:216,2,105,0|0|0,0:0|0:0|0:0,0:0:0:0:
224,208,16040,5,0,0:0:0:0:
116,300,16440,1,8,0:0:0:0:
60,172,16840,2,0,P|68:140|96:108,2,70,0|0|8,0:0|0:0|0:0,0:0:0:0:
116,300,17640,6,0,P|72:320|12:300,2,105,0|0|0,0:0|0:0|0:0,0:0:0:0:
196,188,18640,2,0,L|200:112,2,70,0|8|0,0:0|0:0|0:0,0:0:0:0:
312,264,19440,2,0,L|308:340,2,70,0|8|0,0:0|0:0|0:0,0:0:0:0:
340,200,20040,2,0,B|344:160|344:160|360:140|360:140|364:84,2,105,0|0|0,0:0|0:0|0:0,0:0:0:0:
312,264,20840,6,0,P|260:296|184:276,1,140,2|2,0:0|0:0,0:0:0:0:
104,168,21640,6,0,P|156:136|232:156,1,140,2|2,0:0|0:0,0:0:0:0:
312,264,22440,5,2,0:0:0:0:
420,176,22840,2,0,L|408:72,1,105,2|2,0:0|0:0,0:0:0:0:
300,160,23540,2,0,L|312:272,1,105,2|0,0:0|0:0,0:0:0:0:
268,320,24040,5,4,0:0:0:0:
136,364,24440,1,8,0:0:0:0:
44,260,24840,2,0,P|32:200|76:128,1,140,0|8,0:0|0:0,0:0:0:0:
196,80,25640,6,0,L|312:76,1,105,4|4,0:2|0:2,0:0:0:0:
264,176,26240,2,0,L|159:172,1,105,4|4,0:2|0:2,0:0:0:0:
116,268,26840,2,0,L|185:264,2,70,0|0|4,0:2|0:2|0:2,0:0:0:0:
96,152,30440,6,0,P|128:128|200:128,1,105.000004005432,0|2,0:0|0:0,0:0:0:0:
168,228,31240,2,0,L|164:308,2,78.7500030040742,2|2|0,0:0|0:0|0:0,0:0:0:0:
416,152,33440,1,0,0:0:0:0:
416,152,33640,6,0,P|384:128|312:128,1,105.000004005432,2|2,0:0|0:0,0:0:0:0:
344,228,34440,2,0,L|348:308,2,78.7500030040742,2|2|0,0:0|0:0|0:0,0:0:0:0:
256,168,35440,5,0,0:0:0:0:
256,168,35640,1,2,0:0:0:0:
168,228,36040,2,0,L|164:308,2,78.7500030040742,2|2|2,0:0|0:0|0:0,0:0:0:0:
148,180,36840,6,0,P|152:132|192:84,1,105.000004005432,2|2,0:0|0:0,0:0:0:0:
288,60,37640,2,0,L|368:56,2,78.7500030040742,2|2|0,0:0|0:0|0:0,0:0:0:0:
144,120,38840,5,2,0:0:0:0:
88,208,39240,2,0,P|52:184|40:148,2,78.7500030040742,2|2|0,0:0|0:0|0:0,0:0:0:0:
140,212,40040,5,4,0:0:0:0:
404,304,40840,2,0,P|436:244|376:128,1,210,4|4,0:0|0:0,0:0:0:0:
256,192,41640,12,0,42840,0:0:0:0:
316,116,43240,6,0,P|276:88|196:116,1,140,6|10,0:0|0:0,0:0:0:0:
208,256,44040,2,0,P|256:276|304:256,2,105,2|2|10,0:0|0:0|0:0,0:0:0:0:
164,196,44840,5,0,0:0:0:0:
48,272,45240,2,0,P|56:320|36:376,2,105,8|0|0,0:0|0:0|0:0,0:0:0:0:
16,208,46040,2,0,P|4:144|40:76,1,140,8|2,0:0|0:0,0:0:0:0:
164,24,46840,5,10,0:0:0:0:
256,128,47240,2,0,P|312:132|360:96,2,105,2|2|10,0:0|0:0|0:0,0:0:0:0:
188,108,48040,5,0,0:0:0:0:
244,236,48440,1,10,0:0:0:0:
104,220,48840,2,0,P|48:216|0:252,2,105,2|2|2,0:0|0:0|0:0,0:0:0:0:
160,264,49640,6,0,P|200:312|280:316,1,140,2|10,0:0|0:0,0:0:0:0:
400,260,50440,2,0,P|415:308|400:372,2,105,2|2|10,0:0|0:0|0:0,0:0:0:0:
352,208,51240,5,0,0:0:0:0:
396,76,51640,1,10,0:0:0:0:
256,100,52040,2,0,P|196:99|123:30,1,140,2|10,0:0|0:0,0:0:0:0:
32,148,52840,6,0,P|132:236|280:236,1,280,6|4,0:2|0:2,0:0:0:0:
424,92,54240,1,4,0:2:0:0:
256,192,54440,12,0,55640,0:0:0:0:
256,328,56040,5,0,0:0:0:0:
184,208,56440,1,8,0:0:0:0:
328,208,56840,1,0,0:0:0:0:
328,208,57040,2,0,P|380:240|400:288,2,105,0|0|0,0:0|0:0|0:0,0:0:0:0:
256,328,58040,1,8,0:0:0:0:
184,208,58440,5,0,0:0:0:0:
184,208,58640,2,0,P|132:240|113:278,2,105,0|0|0,0:0|0:0|0:0,0:0:0:0:
256,328,59640,5,8,0:0:0:0:
396,308,60040,2,0,P|436:276|448:188,1,140,0|8,0:0|0:0,0:0:0:0:
372,76,60840,6,0,P|332:108|320:196,1,140,0|8,0:0|0:0,0:0:0:0:
320,264,61440,2,0,P|284:288|160:196,1,210,0|8,0:0|0:0,0:0:0:0:
200,76,62440,6,0,P|140:64|96:84,1,105,2|2,0:0|0:0,0:0:0:0:
52,128,62940,2,0,L|44:216,1,70,2|2,0:0|0:0,0:0:0:0:
156,336,63640,1,2,0:0:0:0:
276,260,64040,6,0,P|236:208|160:192,1,140,2|2,0:0|0:0,0:0:0:0:
48,268,64840,2,0,P|88:320|164:336,1,140,0|8,0:0|0:0,0:0:0:0:
228,320,65440,1,8,0:0:0:0:
276,260,65640,6,0,L|264:112,1,140,4|8,0:0|0:0,0:0:0:0:
404,100,66440,2,0,P|440:96|488:40,2,105,0|0|0,0:0|0:0|0:0,0:0:0:0:
344,68,67240,6,0,P|304:32|216:40,1,140,0|8,0:0|0:0,0:0:0:0:
124,136,68040,2,0,P|80:100|72:44,2,105,0|0|0,0:0|0:0|0:0,0:0:0:0:
196,132,68840,5,4,0:0:0:0:
256,260,69240,1,0,0:0:0:0:
316,132,69640,2,0,P|372:152|396:232,1,140,0|0,0:0|0:0,0:0:0:0:
368,288,70240,2,0,L|376:372,1,70,0|0,0:0|0:0,0:0:0:0:
296,256,76840,6,0,P|348:272|420:228,1,140,4|2,0:0|0:0,0:0:0:0:
324,128,77640,2,0,P|272:112|200:156,1,140,0|0,0:0|0:0,0:0:0:0:
160,288,78440,2,0,P|96:272|52:144,2,210,2|2|2,0:0|0:0|0:0,0:0:0:0:
284,224,80040,6,0,L|428:232,1,140,0|2,0:0|0:0,0:0:0:0:
368,360,80840,2,0,L|224:352,1,140,0|0,0:0|0:0,0:0:0:0:
200,216,81640,2,0,P|232:156|364:192,2,210,2|2|2,0:0|0:0|0:0,0:0:0:0:
336,252,83240,6,0,P|404:236|432:164,1,140,0|2,0:0|0:0,0:0:0:0:
352,60,84040,2,0,P|284:76|256:148,1,140,0|0,0:0|0:0,0:0:0:0:
248,276,84840,2,0,P|164:312|76:232,2,210,2|2|2,0:0|0:0|0:0,0:0:0:0:
300,144,86440,6,0,P|272:128|172:168,1,140,0|2,0:0|0:0,0:0:0:0:
248,276,87240,2,0,P|276:292|376:252,1,140,0|0,0:0|0:0,0:0:0:0:
380,120,88040,2,0,P|304:60|220:120,2,210,2|2|2,0:0|0:0|0:0,0:0:0:0:
260,184,89640,6,0,P|204:192|144:120,1,140,4|2,0:0|0:0,0:0:0:0:
252,44,90440,1,0,0:0:0:0:
252,44,90640,2,0,P|308:36|368:108,1,140,2|2,0:0|0:0,0:0:0:0:
364,160,91240,6,0,P|280:178|198:78,1,210,2|2,0:0|0:0,0:0:0:0:
76,28,92240,2,0,L|88:172,1,140,2|2,0:0|0:0,0:0:0:0:
116,232,92840,5,0,0:0:0:0:
200,344,93240,1,2,0:0:0:0:
308,256,93640,1,0,0:0:0:0:
308,256,93840,2,0,P|380:248|436:304,1,140,2|2,0:0|0:0,0:0:0:0:
464,348,94440,6,0,P|428:284|476:148,1,210,2|2,0:0|0:0,0:0:0:0:
512,28,95440,2,0,L|368:40,1,140,2|2,0:0|0:0,0:0:0:0:
320,84,96040,5,0,0:0:0:0:
212,172,96440,1,2,0:0:0:0:
84,116,96840,1,0,0:0:0:0:
84,116,97040,2,0,P|64:176|112:260,1,140,2|2,0:0|0:0,0:0:0:0:
152,284,97640,6,0,P|248:296|328:212,1,210,2|2,0:0|0:0,0:0:0:0:
256,100,98640,2,0,P|176:96|132:148,1,140,2|2,0:0|0:0,0:0:0:0:
116,200,99240,5,0,0:0:0:0:
236,276,99640,1,2,0:0:0:0:
312,156,100040,1,0,0:0:0:0:
312,156,100240,2,0,P|332:120|296:32,1,140,2|2,0:0|0:0,0:0:0:0:
228,20,100840,6,0,P|180:72|246:183,1,210,2|2,0:0|0:0,0:0:0:0:
388,176,101840,2,0,P|444:192|480:264,1,140,2|2,0:0|0:0,0:0:0:0:
456,328,102440,5,0,0:0:0:0:
256,192,102640,12,0,103640,0:0:0:0:
80,252,104040,6,0,P|132:316|200:304,1,140,6|10,0:0|0:0,0:0:0:0:
316,252,104840,2,0,P|372:252|424:284,2,105,2|2|10,0:0|0:0|0:0,0:0:0:0:
252,284,105640,5,0,0:0:0:0:
192,160,106040,2,0,P|205:112|192:56,2,105,8|0|0,0:0|0:0|0:0,0:0:0:0:
124,180,106840,2,0,P|144:212|244:208,1,140,8|2,0:0|0:0,0:0:0:0:
344,124,107640,5,10,0:0:0:0:
416,252,108040,2,0,P|417:300|385:356,2,105,2|2|10,0:0|0:0|0:0,0:0:0:0:
384,188,108840,5,0,0:0:0:0:
256,248,109240,1,10,0:0:0:0:
128,188,109640,2,0,P|140:148|208:116,2,105,2|2|2,0:0|0:0|0:0,0:0:0:0:
152,256,110440,6,0,P|104:256|56:184,1,140,2|10,0:0|0:0,0:0:0:0:
116,60,111240,2,0,P|79:38|13:51,2,105,2|2|10,0:0|0:0|0:0,0:0:0:0:
168,108,112040,6,0,P|217:130|299:99,1,140,0|10,0:0|0:0,0:0:0:0:
388,0,112840,1,2,0:0:0:0:
500,84,113240,1,10,0:0:0:0:
412,192,113640,5,4,0:2:0:0:
168,52,114440,1,4,0:2:0:0:
40,220,115040,5,4,0:2:0:0:
40,220,115240,1,0,0:0:0:0:
116,340,115640,1,0,0:0:0:0:
256,364,116040,1,0,0:0:0:0:
396,340,116440,1,0,0:0:0:0:
472,220,116840,6,0,P|456:152|396:112,1,140,6|10,0:0|0:0,0:0:0:0:
264,132,117640,2,0,P|208:144|160:128,2,105,2|2|10,0:0|0:0|0:0,0:0:0:0:
328,100,118440,5,2,0:0:0:0:
428,200,118840,2,0,P|444:248|420:308,2,105,8|0|0,0:0|0:0|0:0,0:0:0:0:
372,248,119640,2,0,P|316:248|260:188,1,140,10|2,0:0|0:0,0:0:0:0:
280,52,120440,5,8,0:0:0:0:
140,32,120840,2,0,P|80:36|32:104,1,140,2|10,0:0|0:0,0:0:0:0:
72,156,121440,6,0,L|64:308,1,140,2|0,0:0|0:0,0:0:0:0:
100,356,122040,1,8,0:0:0:0:
196,252,122440,2,0,P|256:220|316:252,1,140,2|10,0:0|0:0,0:0:0:0:
372,292,123040,2,0,L|460:284,1,70,0|2,0:0|0:0,0:0:0:0:
484,152,123640,5,8,0:0:0:0:
372,64,124040,2,0,P|404:24|464:12,2,105,2|2|2,0:0|0:0|0:0,0:0:0:0:
360,204,125040,2,0,L|372:272,1,70,0|10,0:0|0:0,0:0:0:0:
256,352,125640,5,2,0:0:0:0:
116,336,126040,1,10,0:0:0:0:
200,224,126440,1,4,0:2:0:0:
476,172,127240,6,0,P|464:96|356:32,1,210,4|4,0:2|0:2,0:0:0:0:
256,192,128040,12,0,129240,0:0:0:0:
144,72,129640,5,4,0:0:0:0:
256,156,130040,1,8,0:0:0:0:
368,72,130440,2,0,P|416:68|464:104,2,105,2|2|2,0:0|0:0|0:0,0:0:0:0:
400,140,131240,6,0,L|412:296,1,140,0|8,0:0|0:0,0:0:0:0:
296,360,132040,1,2,0:0:0:0:
168,304,132440,1,8,0:0:0:0:
172,164,132840,6,0,P|104:168|52:228,1,140,2|8,0:0|0:0,0:0:0:0:
60,288,133440,2,0,B|56:216|56:216|16:192|8:132|40:96,1,210,2|8,0:0|0:0,0:0:0:0:
172,48,134440,5,0,0:0:0:0:
256,160,134840,1,8,0:0:0:0:
340,48,135240,1,0,0:0:0:0:
424,160,135640,2,0,L|444:236,1,70,8|0,0:0|0:0,0:0:0:0:
496,272,136040,6,0,P|460:296|376:252,1,140,2|2,0:0|0:0,0:0:0:0:
300,144,136840,6,0,P|264:120|183:156,1,140,2|2,0:0|0:0,0:0:0:0:
148,292,137640,5,2,0:0:0:0:
260,372,138040,2,0,P|320:372|360:336,1,105,2|2,0:0|0:0,0:0:0:0:
292,208,138740,2,0,P|232:208|192:244,1,105,2|0,0:0|0:0,0:0:0:0:
148,292,139240,5,0,0:0:0:0:
36,208,139640,1,8,0:0:0:0:
100,84,140040,2,0,P|154:59|228:88,1,140,0|8,0:0|0:0,0:0:0:0:
292,208,140840,6,0,L|412:200,1,105,4|4,0:2|0:2,0:0:0:0:
332,284,141440,2,0,L|227:277,1,105,4|4,0:2|0:2,0:0:0:0:
160,356,142040,2,0,L|240:352,1,70,4|4,0:2|0:2,0:0:0:0:
