osu file format v14

[General]
AudioFilename: AXION.mp3
AudioLeadIn: 0
PreviewTime: 57400
Countdown: 0
SampleSet: Soft
StackLeniency: 0.7
Mode: 3
LetterboxInBreaks: 0
SpecialStyle: 0
WidescreenStoryboard: 0

[Editor]
DistanceSpacing: 2
BeatDivisor: 4
GridSize: 8
TimelineZoom: 2.699999

[Metadata]
Title:AXION
TitleUnicode:AXION
Artist:sakuzyo
ArtistUnicode:sakuzyo
Creator:zZ_Natsu_Zz
Version:Insane
Source:BMS
Tags:cytus
BeatmapID:732761
BeatmapSetID:330690

[Difficulty]
HPDrainRate:8
CircleSize:4
OverallDifficulty:7
ApproachRate:5
SliderMultiplier:1.4
SliderTickRate:1

[Events]
//Background and Video events
0,0,"Background.jpg",0,0
//Break Periods
//Storyboard Layer 0 (Background)
//Storyboard Layer 1 (Fail)
//Storyboard Layer 2 (Pass)
//Storyboard Layer 3 (Foreground)
//Storyboard Sound Samples

[TimingPoints]
1900,375,4,2,1,30,1,0
27400,-100,4,2,1,30,0,0
39400,-100,4,2,1,30,0,0
57400,-100,4,2,1,30,0,1
75400,-100,4,2,1,30,0,1
99400,-100,4,2,1,30,0,0

[HitObjects]
448,192,1712,128,0,1900:0:0:0:0:
64,192,1900,1,0,0:0:0:0:
192,192,1900,1,0,0:0:0:0:
320,192,2087,1,0,0:0:0:0:
448,192,2275,1,0,0:0:0:0:
320,192,2462,1,0,0:0:0:0:
64,192,2837,1,0,0:0:0:0:
192,192,3025,1,0,0:0:0:0:
320,192,3212,1,0,0:0:0:0:
448,192,3587,1,0,0:0:0:0:
64,192,3775,1,0,0:0:0:0:
192,192,3962,1,0,0:0:0:0:
448,192,4337,1,0,0:0:0:0:
320,192,4525,1,0,0:0:0:0:
192,192,4712,1,0,0:0:0:0:
320,192,4900,1,0,0:0:0:0:
64,192,5087,1,0,0:0:0:0:
448,192,5275,1,0,0:0:0:0:
320,192,5462,1,0,0:0:0:0:
448,192,5837,1,0,0:0:0:0:
192,192,6025,1,0,0:0:0:0:
320,192,6212,1,0,0:0:0:0:
64,192,6212,1,0,0:0:0:0:
448,192,6400,1,0,0:0:0:0:
192,192,6587,1,0,0:0:0:0:
320,192,6775,1,0,0:0:0:0:
192,192,6962,1,0,0:0:0:0:
64,192,6962,128,0,7900:0:0:0:0:
448,192,7525,128,0,7900:0:0:0:0:
320,192,7525,128,0,7900:0:0:0:0:
192,192,7900,1,0,0:0:0:0:
320,192,8087,1,0,0:0:0:0:
448,192,8275,1,0,0:0:0:0:
64,192,8462,1,0,0:0:0:0:
320,192,8462,1,0,0:0:0:0:
448,192,8837,1,0,0:0:0:0:
320,192,9025,1,0,0:0:0:0:
192,192,9212,1,0,0:0:0:0:
448,192,9587,1,0,0:0:0:0:
192,192,9775,1,0,0:0:0:0:
320,192,9962,1,0,0:0:0:0:
64,192,10337,128,0,10900:0:0:0:0:
448,192,10337,1,0,0:0:0:0:
320,192,10525,1,0,0:0:0:0:
192,192,10712,1,0,0:0:0:0:
320,192,10900,1,0,0:0:0:0:
448,192,11087,1,0,0:0:0:0:
320,192,11275,1,0,0:0:0:0:
64,192,11462,1,0,0:0:0:0:
192,192,11462,1,0,0:0:0:0:
448,192,11837,1,0,0:0:0:0:
64,192,11837,128,0,12400:0:0:0:0:
320,192,12025,1,0,0:0:0:0:
448,192,12212,1,0,0:0:0:0:
192,192,12212,128,0,12400:0:0:0:0:
320,192,12400,1,0,0:0:0:0:
448,192,12587,1,0,0:0:0:0:
320,192,12775,1,0,0:0:0:0:
192,192,12962,1,0,0:0:0:0:
64,192,12962,128,0,13900:0:0:0:0:
320,192,13525,128,0,13900:0:0:0:0:
448,192,13525,128,0,13900:0:0:0:0:
192,192,13900,1,0,0:0:0:0:
320,192,14087,1,0,0:0:0:0:
448,192,14275,1,0,0:0:0:0:
64,192,14275,1,0,0:0:0:0:
320,192,14837,1,0,0:0:0:0:
192,192,15025,1,0,0:0:0:0:
64,192,15212,1,0,0:0:0:0:
320,192,15212,1,0,0:0:0:0:
448,192,15587,1,0,0:0:0:0:
320,192,15775,1,0,0:0:0:0:
64,192,15962,1,0,0:0:0:0:
192,192,16056,1,0,0:0:0:0:
320,192,16150,1,0,0:0:0:0:
448,192,16337,1,0,0:0:0:0:
192,192,16525,1,0,0:0:0:0:
64,192,16618,1,0,0:0:0:0:
192,192,16712,1,0,0:0:0:0:
320,192,16806,1,0,0:0:0:0:
448,192,16900,1,0,0:0:0:0:
64,192,16900,1,0,0:0:0:0:
320,192,16993,1,0,0:0:0:0:
192,192,17087,1,0,0:0:0:0:
64,192,17181,1,0,0:0:0:0:
448,192,17275,1,0,0:0:0:0:
192,192,17275,1,0,0:0:0:0:
320,192,17462,1,0,0:0:0:0:
192,192,17556,1,0,0:0:0:0:
64,192,17650,1,0,0:0:0:0:
320,192,17837,1,0,0:0:0:0:
448,192,18025,1,0,0:0:0:0:
64,192,18118,1,0,0:0:0:0:
320,192,18212,1,0,0:0:0:0:
192,192,18212,1,0,0:0:0:0:
448,192,18306,1,0,0:0:0:0:
192,192,18400,1,0,0:0:0:0:
320,192,18493,1,0,0:0:0:0:
64,192,18587,1,0,0:0:0:0:
448,192,18587,1,0,0:0:0:0:
192,192,18775,1,0,0:0:0:0:
320,192,18775,1,0,0:0:0:0:
448,192,18962,128,0,19900:0:0:0:0:
64,192,18962,1,0,0:0:0:0:
320,192,19056,1,0,0:0:0:0:
192,192,19150,1,0,0:0:0:0:
320,192,19243,1,0,0:0:0:0:
64,192,19337,1,0,0:0:0:0:
192,192,19431,1,0,0:0:0:0:
64,192,19525,1,0,0:0:0:0:
192,192,19618,1,0,0:0:0:0:
320,192,19712,1,0,0:0:0:0:
192,192,19806,1,0,0:0:0:0:
320,192,19900,1,0,0:0:0:0:
64,192,19900,1,0,0:0:0:0:
192,192,19993,1,0,0:0:0:0:
448,192,20087,1,0,0:0:0:0:
64,192,20087,1,0,0:0:0:0:
192,192,20181,1,0,0:0:0:0:
320,192,20275,1,0,0:0:0:0:
448,192,20368,1,0,0:0:0:0:
192,192,20462,1,0,0:0:0:0:
320,192,20556,1,0,0:0:0:0:
192,192,20650,1,0,0:0:0:0:
320,192,20743,1,0,0:0:0:0:
64,192,20837,1,0,0:0:0:0:
448,192,20837,1,0,0:0:0:0:
192,192,20931,1,0,0:0:0:0:
448,192,21025,1,0,0:0:0:0:
320,192,21118,1,0,0:0:0:0:
192,192,21212,1,0,0:0:0:0:
320,192,21306,1,0,0:0:0:0:
448,192,21400,1,0,0:0:0:0:
320,192,21493,1,0,0:0:0:0:
64,192,21587,1,0,0:0:0:0:
192,192,21775,1,0,0:0:0:0:
448,192,21962,1,0,0:0:0:0:
320,192,22056,1,0,0:0:0:0:
448,192,22150,1,0,0:0:0:0:
192,192,22337,1,0,0:0:0:0:
320,192,22525,1,0,0:0:0:0:
192,192,22712,1,0,0:0:0:0:
64,192,22900,1,0,0:0:0:0:
448,192,22900,1,0,0:0:0:0:
320,192,23087,1,0,0:0:0:0:
192,192,23275,1,0,0:0:0:0:
448,192,23462,1,0,0:0:0:0:
192,192,23556,1,0,0:0:0:0:
320,192,23650,1,0,0:0:0:0:
64,192,23837,1,0,0:0:0:0:
448,192,24025,1,0,0:0:0:0:
320,192,24118,1,0,0:0:0:0:
192,192,24212,1,0,0:0:0:0:
320,192,24306,1,0,0:0:0:0:
64,192,24400,128,0,25900:0:0:0:0:
448,192,24400,1,0,0:0:0:0:
320,192,24493,1,0,0:0:0:0:
192,192,24587,1,0,0:0:0:0:
448,192,24775,1,0,0:0:0:0:
192,192,24962,1,0,0:0:0:0:
320,192,25056,1,0,0:0:0:0:
192,192,25150,1,0,0:0:0:0:
448,192,25150,128,0,25525:0:0:0:0:
192,192,25337,1,0,0:0:0:0:
320,192,25431,1,0,0:0:0:0:
192,192,25525,1,0,0:0:0:0:
320,192,25618,1,0,0:0:0:0:
448,192,25712,1,0,0:0:0:0:
192,192,25712,128,0,25900:0:0:0:0:
320,192,25806,1,0,0:0:0:0:
448,192,25900,1,0,0:0:0:0:
320,192,26087,1,0,0:0:0:0:
64,192,26181,1,0,0:0:0:0:
192,192,26275,1,0,0:0:0:0:
448,192,26462,1,0,0:0:0:0:
320,192,26650,1,0,0:0:0:0:
192,192,26650,1,0,0:0:0:0:
64,192,26650,1,0,0:0:0:0:
64,192,27025,128,0,27400:0:0:0:0:
448,192,27025,1,0,0:0:0:0:
192,192,27400,1,0,0:0:0:0:
448,192,27400,1,0,0:0:0:0:
320,192,27493,1,0,0:0:0:0:
448,192,27587,1,0,0:0:0:0:
192,192,27681,1,0,0:0:0:0:
320,192,27775,1,0,0:0:0:0:
448,192,27775,1,0,0:0:0:0:
64,192,27775,1,0,0:0:0:0:
192,192,27868,1,0,0:0:0:0:
64,192,27962,1,0,0:0:0:0:
320,192,27962,1,0,0:0:0:0:
448,192,28056,1,0,0:0:0:0:
192,192,28056,1,0,0:0:0:0:
320,192,28150,1,0,0:0:0:0:
192,192,28243,1,0,0:0:0:0:
320,192,28337,1,0,0:0:0:0:
448,192,28337,1,0,0:0:0:0:
64,192,28431,1,0,0:0:0:0:
192,192,28525,1,0,0:0:0:0:
448,192,28525,1,0,0:0:0:0:
320,192,28618,1,0,0:0:0:0:
192,192,28712,1,0,0:0:0:0:
64,192,28806,1,0,0:0:0:0:
320,192,28900,1,0,0:0:0:0:
192,192,28900,1,0,0:0:0:0:
448,192,28993,1,0,0:0:0:0:
64,192,29087,1,0,0:0:0:0:
320,192,29181,1,0,0:0:0:0:
448,192,29275,1,0,0:0:0:0:
64,192,29275,1,0,0:0:0:0:
320,192,29275,1,0,0:0:0:0:
192,192,29368,1,0,0:0:0:0:
320,192,29462,1,0,0:0:0:0:
192,192,29556,1,0,0:0:0:0:
448,192,29556,1,0,0:0:0:0:
320,192,29650,1,0,0:0:0:0:
192,192,29743,1,0,0:0:0:0:
64,192,29837,1,0,0:0:0:0:
448,192,29837,1,0,0:0:0:0:
192,192,29931,1,0,0:0:0:0:
320,192,30025,1,0,0:0:0:0:
448,192,30025,1,0,0:0:0:0:
64,192,30025,1,0,0:0:0:0:
192,192,30118,1,0,0:0:0:0:
320,192,30212,1,0,0:0:0:0:
192,192,30306,1,0,0:0:0:0:
64,192,30400,1,0,0:0:0:0:
320,192,30400,1,0,0:0:0:0:
192,192,30493,1,0,0:0:0:0:
320,192,30587,1,0,0:0:0:0:
448,192,30681,1,0,0:0:0:0:
320,192,30775,1,0,0:0:0:0:
192,192,30775,1,0,0:0:0:0:
64,192,30868,1,0,0:0:0:0:
192,192,30962,1,0,0:0:0:0:
448,192,31056,1,0,0:0:0:0:
320,192,31056,1,0,0:0:0:0:
192,192,31150,1,0,0:0:0:0:
64,192,31243,1,0,0:0:0:0:
192,192,31337,1,0,0:0:0:0:
448,192,31337,1,0,0:0:0:0:
320,192,31431,1,0,0:0:0:0:
192,192,31525,1,0,0:0:0:0:
64,192,31525,1,0,0:0:0:0:
448,192,31525,1,0,0:0:0:0:
320,192,31618,1,0,0:0:0:0:
192,192,31712,1,0,0:0:0:0:
448,192,31806,1,0,0:0:0:0:
320,192,31900,1,0,0:0:0:0:
64,192,31900,1,0,0:0:0:0:
192,192,31993,1,0,0:0:0:0:
448,192,32087,1,0,0:0:0:0:
192,192,32181,1,0,0:0:0:0:
192,192,32275,1,0,0:0:0:0:
320,192,32275,1,0,0:0:0:0:
64,192,32275,1,0,0:0:0:0:
448,192,32368,1,0,0:0:0:0:
320,192,32462,1,0,0:0:0:0:
192,192,32556,1,0,0:0:0:0:
64,192,32556,1,0,0:0:0:0:
320,192,32650,1,0,0:0:0:0:
192,192,32743,1,0,0:0:0:0:
64,192,32837,1,0,0:0:0:0:
448,192,32837,1,0,0:0:0:0:
320,192,32931,1,0,0:0:0:0:
64,192,33025,1,0,0:0:0:0:
192,192,33025,1,0,0:0:0:0:
448,192,33025,1,0,0:0:0:0:
320,192,33118,1,0,0:0:0:0:
64,192,33212,1,0,0:0:0:0:
192,192,33306,1,0,0:0:0:0:
320,192,33400,1,0,0:0:0:0:
448,192,33400,1,0,0:0:0:0:
192,192,33493,1,0,0:0:0:0:
448,192,33587,1,0,0:0:0:0:
320,192,33681,1,0,0:0:0:0:
192,192,33775,1,0,0:0:0:0:
448,192,33775,1,0,0:0:0:0:
64,192,33775,1,0,0:0:0:0:
320,192,33868,1,0,0:0:0:0:
192,192,33962,1,0,0:0:0:0:
448,192,34056,1,0,0:0:0:0:
64,192,34056,1,0,0:0:0:0:
192,192,34150,1,0,0:0:0:0:
448,192,34243,1,0,0:0:0:0:
320,192,34337,1,0,0:0:0:0:
192,192,34337,1,0,0:0:0:0:
448,192,34431,1,0,0:0:0:0:
64,192,34525,1,0,0:0:0:0:
192,192,34525,1,0,0:0:0:0:
320,192,34525,1,0,0:0:0:0:
448,192,34618,1,0,0:0:0:0:
320,192,34712,1,0,0:0:0:0:
64,192,34806,1,0,0:0:0:0:
320,192,34900,1,0,0:0:0:0:
192,192,34900,1,0,0:0:0:0:
448,192,34993,1,0,0:0:0:0:
192,192,35087,1,0,0:0:0:0:
320,192,35181,1,0,0:0:0:0:
320,192,35275,1,0,0:0:0:0:
448,192,35275,1,0,0:0:0:0:
64,192,35275,1,0,0:0:0:0:
192,192,35368,1,0,0:0:0:0:
320,192,35462,1,0,0:0:0:0:
448,192,35556,1,0,0:0:0:0:
64,192,35556,1,0,0:0:0:0:
320,192,35650,1,0,0:0:0:0:
192,192,35743,1,0,0:0:0:0:
64,192,35837,1,0,0:0:0:0:
320,192,35837,1,0,0:0:0:0:
192,192,35931,1,0,0:0:0:0:
64,192,36025,1,0,0:0:0:0:
320,192,36025,1,0,0:0:0:0:
448,192,36025,1,0,0:0:0:0:
192,192,36118,1,0,0:0:0:0:
448,192,36212,1,0,0:0:0:0:
192,192,36306,1,0,0:0:0:0:
64,192,36400,1,0,0:0:0:0:
320,192,36400,1,0,0:0:0:0:
192,192,36493,1,0,0:0:0:0:
448,192,36587,1,0,0:0:0:0:
320,192,36681,1,0,0:0:0:0:
64,192,36775,1,0,0:0:0:0:
192,192,36775,1,0,0:0:0:0:
448,192,36775,1,0,0:0:0:0:
320,192,36868,1,0,0:0:0:0:
192,192,36962,1,0,0:0:0:0:
64,192,37056,1,0,0:0:0:0:
320,192,37056,1,0,0:0:0:0:
192,192,37150,1,0,0:0:0:0:
320,192,37243,1,0,0:0:0:0:
64,192,37337,1,0,0:0:0:0:
448,192,37337,1,0,0:0:0:0:
320,192,37431,1,0,0:0:0:0:
448,192,37525,1,0,0:0:0:0:
192,192,37525,1,0,0:0:0:0:
64,192,37525,1,0,0:0:0:0:
320,192,37618,1,0,0:0:0:0:
64,192,37712,128,0,37900:0:0:0:0:
192,192,37712,1,0,0:0:0:0:
320,192,37806,1,0,0:0:0:0:
192,192,37900,1,0,0:0:0:0:
448,192,37900,1,0,0:0:0:0:
320,192,37993,1,0,0:0:0:0:
448,192,38087,1,0,0:0:0:0:
192,192,38181,1,0,0:0:0:0:
192,192,38275,1,0,0:0:0:0:
448,192,38275,1,0,0:0:0:0:
64,192,38275,1,0,0:0:0:0:
320,192,38368,1,0,0:0:0:0:
448,192,38462,1,0,0:0:0:0:
320,192,38556,1,0,0:0:0:0:
64,192,38556,1,0,0:0:0:0:
192,192,38650,1,0,0:0:0:0:
64,192,38743,1,0,0:0:0:0:
448,192,38837,1,0,0:0:0:0:
192,192,38837,1,0,0:0:0:0:
320,192,38931,1,0,0:0:0:0:
192,192,39025,1,0,0:0:0:0:
448,192,39025,1,0,0:0:0:0:
64,192,39025,1,0,0:0:0:0:
320,192,39118,1,0,0:0:0:0:
448,192,39212,1,0,0:0:0:0:
192,192,39306,1,0,0:0:0:0:
64,192,39400,1,0,0:0:0:0:
320,192,39400,1,0,0:0:0:0:
448,192,39400,128,0,40150:0:0:0:0:
64,192,39775,1,0,0:0:0:0:
192,192,39775,1,0,0:0:0:0:
320,192,39962,1,0,0:0:0:0:
192,192,40056,1,0,0:0:0:0:
320,192,40150,128,0,40900:0:0:0:0:
64,192,40150,1,0,0:0:0:0:
192,192,40337,1,0,0:0:0:0:
64,192,40525,1,0,0:0:0:0:
448,192,40525,1,0,0:0:0:0:
192,192,40900,128,0,41650:0:0:0:0:
448,192,40900,1,0,0:0:0:0:
64,192,41181,1,0,0:0:0:0:
448,192,41275,1,0,0:0:0:0:
320,192,41275,1,0,0:0:0:0:
64,192,41462,1,0,0:0:0:0:
448,192,41556,1,0,0:0:0:0:
64,192,41650,128,0,42400:0:0:0:0:
320,192,41650,1,0,0:0:0:0:
192,192,41837,1,0,0:0:0:0:
320,192,42025,1,0,0:0:0:0:
448,192,42025,1,0,0:0:0:0:
192,192,42400,128,0,43150:0:0:0:0:
448,192,42400,1,0,0:0:0:0:
320,192,42775,1,0,0:0:0:0:
448,192,42775,1,0,0:0:0:0:
64,192,42962,1,0,0:0:0:0:
448,192,43056,1,0,0:0:0:0:
320,192,43150,128,0,43900:0:0:0:0:
64,192,43150,1,0,0:0:0:0:
192,192,43337,1,0,0:0:0:0:
64,192,43525,1,0,0:0:0:0:
448,192,43525,1,0,0:0:0:0:
448,192,43900,128,0,44650:0:0:0:0:
192,192,43900,1,0,0:0:0:0:
192,192,44181,1,0,0:0:0:0:
64,192,44275,1,0,0:0:0:0:
320,192,44275,1,0,0:0:0:0:
192,192,44462,1,0,0:0:0:0:
64,192,44556,1,0,0:0:0:0:
320,192,44650,128,0,45400:0:0:0:0:
192,192,44650,1,0,0:0:0:0:
448,192,44837,1,0,0:0:0:0:
192,192,45025,1,0,0:0:0:0:
64,192,45025,1,0,0:0:0:0:
64,192,45400,128,0,46150:0:0:0:0:
448,192,45400,1,0,0:0:0:0:
192,192,45775,1,0,0:0:0:0:
448,192,45775,1,0,0:0:0:0:
448,192,45962,1,0,0:0:0:0:
320,192,46056,1,0,0:0:0:0:
320,192,46150,128,0,46900:0:0:0:0:
192,192,46150,1,0,0:0:0:0:
64,192,46337,1,0,0:0:0:0:
192,192,46525,1,0,0:0:0:0:
448,192,46525,1,0,0:0:0:0:
192,192,46900,128,0,47650:0:0:0:0:
448,192,46900,1,0,0:0:0:0:
64,192,47181,1,0,0:0:0:0:
448,192,47275,1,0,0:0:0:0:
320,192,47275,1,0,0:0:0:0:
448,192,47462,1,0,0:0:0:0:
320,192,47556,1,0,0:0:0:0:
448,192,47650,128,0,48400:0:0:0:0:
64,192,47650,1,0,0:0:0:0:
320,192,47837,1,0,0:0:0:0:
192,192,48025,1,0,0:0:0:0:
64,192,48025,1,0,0:0:0:0:
192,192,48400,1,0,0:0:0:0:
64,192,48400,128,0,49150:0:0:0:0:
320,192,48587,1,0,0:0:0:0:
192,192,48775,1,0,0:0:0:0:
448,192,48775,1,0,0:0:0:0:
192,192,48962,1,0,0:0:0:0:
320,192,49056,1,0,0:0:0:0:
448,192,49150,128,0,49525:0:0:0:0:
192,192,49150,1,0,0:0:0:0:
320,192,49337,1,0,0:0:0:0:
64,192,49525,128,0,49900:0:0:0:0:
192,192,49525,1,0,0:0:0:0:
320,192,49618,1,0,0:0:0:0:
448,192,49712,1,0,0:0:0:0:
320,192,49806,1,0,0:0:0:0:
448,192,49900,128,0,50650:0:0:0:0:
192,192,49900,1,0,0:0:0:0:
320,192,49993,1,0,0:0:0:0:
64,192,49993,1,0,0:0:0:0:
64,192,50181,1,0,0:0:0:0:
320,192,50275,1,0,0:0:0:0:
192,192,50275,1,0,0:0:0:0:
64,192,50368,1,0,0:0:0:0:
192,192,50556,1,0,0:0:0:0:
64,192,50650,128,0,51400:0:0:0:0:
320,192,50650,1,0,0:0:0:0:
192,192,50931,1,0,0:0:0:0:
448,192,51025,1,0,0:0:0:0:
320,192,51025,128,0,51400:0:0:0:0:
192,192,51400,1,0,0:0:0:0:
448,192,51400,128,0,51775:0:0:0:0:
64,192,51775,1,0,0:0:0:0:
192,192,51775,128,0,51962:0:0:0:0:
320,192,51962,128,0,54025:0:0:0:0:
64,192,51962,1,0,0:0:0:0:
448,192,52056,1,0,0:0:0:0:
64,192,52150,1,0,0:0:0:0:
192,192,52337,1,0,0:0:0:0:
448,192,52337,1,0,0:0:0:0:
448,192,52525,1,0,0:0:0:0:
64,192,52525,1,0,0:0:0:0:
448,192,52618,1,0,0:0:0:0:
64,192,52900,1,0,0:0:0:0:
192,192,52900,1,0,0:0:0:0:
448,192,53087,1,0,0:0:0:0:
192,192,53181,1,0,0:0:0:0:
64,192,53275,1,0,0:0:0:0:
448,192,53275,1,0,0:0:0:0:
64,192,53462,1,0,0:0:0:0:
192,192,53556,1,0,0:0:0:0:
448,192,53650,1,0,0:0:0:0:
64,192,53650,1,0,0:0:0:0:
192,192,53743,1,0,0:0:0:0:
64,192,53837,1,0,0:0:0:0:
448,192,53931,1,0,0:0:0:0:
192,192,54025,1,0,0:0:0:0:
64,192,54025,128,0,54400:0:0:0:0:
320,192,54118,1,0,0:0:0:0:
448,192,54212,1,0,0:0:0:0:
192,192,54400,128,0,55900:0:0:0:0:
320,192,54400,1,0,0:0:0:0:
64,192,54775,1,0,0:0:0:0:
448,192,54775,1,0,0:0:0:0:
320,192,54962,1,0,0:0:0:0:
64,192,55056,1,0,0:0:0:0:
320,192,55150,1,0,0:0:0:0:
448,192,55337,1,0,0:0:0:0:
64,192,55525,1,0,0:0:0:0:
320,192,55525,1,0,0:0:0:0:
448,192,55900,128,0,56087:0:0:0:0:
320,192,55900,128,0,56087:0:0:0:0:
64,192,56087,1,0,0:0:0:0:
192,192,56181,1,0,0:0:0:0:
64,192,56275,1,0,0:0:0:0:
320,192,56275,1,0,0:0:0:0:
448,192,56275,1,0,0:0:0:0:
192,192,56368,1,0,0:0:0:0:
320,192,56462,1,0,0:0:0:0:
192,192,56556,1,0,0:0:0:0:
448,192,56556,1,0,0:0:0:0:
64,192,56650,1,0,0:0:0:0:
320,192,56650,1,0,0:0:0:0:
448,192,56837,1,0,0:0:0:0:
192,192,56931,1,0,0:0:0:0:
320,192,57025,1,0,0:0:0:0:
448,192,57025,1,0,0:0:0:0:
64,192,57025,1,0,0:0:0:0:
192,192,57118,1,0,0:0:0:0:
448,192,57212,1,0,0:0:0:0:
320,192,57306,1,0,0:0:0:0:
448,192,57400,1,0,0:0:0:0:
64,192,57400,1,0,0:0:0:0:
192,192,57587,1,0,0:0:0:0:
448,192,57775,1,0,0:0:0:0:
320,192,57775,1,0,0:0:0:0:
192,192,57775,1,0,0:0:0:0:
64,192,57868,1,0,0:0:0:0:
320,192,57868,1,0,0:0:0:0:
320,192,58056,1,0,0:0:0:0:
448,192,58056,1,0,0:0:0:0:
192,192,58243,1,0,0:0:0:0:
64,192,58431,1,0,0:0:0:0:
320,192,58431,1,0,0:0:0:0:
192,192,58525,1,0,0:0:0:0:
448,192,58525,1,0,0:0:0:0:
320,192,58525,1,0,0:0:0:0:
448,192,58806,1,0,0:0:0:0:
192,192,58806,1,0,0:0:0:0:
64,192,58993,1,0,0:0:0:0:
448,192,59181,1,0,0:0:0:0:
320,192,59181,1,0,0:0:0:0:
192,192,59275,1,0,0:0:0:0:
64,192,59275,1,0,0:0:0:0:
320,192,59275,1,0,0:0:0:0:
448,192,59556,1,0,0:0:0:0:
192,192,59556,1,0,0:0:0:0:
320,192,59650,1,0,0:0:0:0:
64,192,59837,1,0,0:0:0:0:
192,192,59931,1,0,0:0:0:0:
320,192,60025,1,0,0:0:0:0:
64,192,60025,1,0,0:0:0:0:
448,192,60025,1,0,0:0:0:0:
192,192,60118,1,0,0:0:0:0:
320,192,60212,1,0,0:0:0:0:
192,192,60306,1,0,0:0:0:0:
320,192,60400,1,0,0:0:0:0:
448,192,60400,128,0,61900:0:0:0:0:
192,192,60587,1,0,0:0:0:0:
64,192,60775,1,0,0:0:0:0:
320,192,60775,1,0,0:0:0:0:
192,192,60962,1,0,0:0:0:0:
64,192,61056,1,0,0:0:0:0:
320,192,61150,1,0,0:0:0:0:
64,192,61337,1,0,0:0:0:0:
192,192,61525,1,0,0:0:0:0:
320,192,61525,1,0,0:0:0:0:
64,192,61712,1,0,0:0:0:0:
192,192,61806,1,0,0:0:0:0:
320,192,61900,1,0,0:0:0:0:
64,192,61900,128,0,62462:0:0:0:0:
192,192,61993,1,0,0:0:0:0:
448,192,62087,1,0,0:0:0:0:
192,192,62181,1,0,0:0:0:0:
320,192,62275,1,0,0:0:0:0:
448,192,62275,1,0,0:0:0:0:
448,192,62462,1,0,0:0:0:0:
320,192,62556,1,0,0:0:0:0:
448,192,62650,128,0,63400:0:0:0:0:
64,192,62650,1,0,0:0:0:0:
320,192,62837,1,0,0:0:0:0:
192,192,62931,1,0,0:0:0:0:
64,192,63025,1,0,0:0:0:0:
320,192,63025,1,0,0:0:0:0:
192,192,63118,1,0,0:0:0:0:
64,192,63212,1,0,0:0:0:0:
192,192,63306,1,0,0:0:0:0:
64,192,63400,1,0,0:0:0:0:
320,192,63400,1,0,0:0:0:0:
192,192,63775,1,0,0:0:0:0:
192,192,63868,1,0,0:0:0:0:
448,192,64150,1,0,0:0:0:0:
448,192,64243,1,0,0:0:0:0:
192,192,64525,1,0,0:0:0:0:
192,192,64618,1,0,0:0:0:0:
64,192,64900,1,0,0:0:0:0:
320,192,64900,1,0,0:0:0:0:
448,192,64900,1,0,0:0:0:0:
192,192,65275,1,0,0:0:0:0:
192,192,65368,1,0,0:0:0:0:
320,192,65650,1,0,0:0:0:0:
448,192,65650,1,0,0:0:0:0:
448,192,65743,1,0,0:0:0:0:
64,192,66025,1,0,0:0:0:0:
64,192,66118,1,0,0:0:0:0:
64,192,66400,1,0,0:0:0:0:
192,192,66400,1,0,0:0:0:0:
448,192,66400,1,0,0:0:0:0:
320,192,66775,1,0,0:0:0:0:
320,192,66868,1,0,0:0:0:0:
192,192,67150,1,0,0:0:0:0:
192,192,67243,1,0,0:0:0:0:
448,192,67525,1,0,0:0:0:0:
448,192,67618,1,0,0:0:0:0:
64,192,67900,1,0,0:0:0:0:
192,192,67900,1,0,0:0:0:0:
64,192,67993,1,0,0:0:0:0:
320,192,68275,1,0,0:0:0:0:
320,192,68368,1,0,0:0:0:0:
64,192,68650,1,0,0:0:0:0:
320,192,68650,1,0,0:0:0:0:
192,192,68743,1,0,0:0:0:0:
320,192,68837,1,0,0:0:0:0:
448,192,68931,1,0,0:0:0:0:
64,192,69025,1,0,0:0:0:0:
192,192,69025,1,0,0:0:0:0:
320,192,69118,1,0,0:0:0:0:
192,192,69212,1,0,0:0:0:0:
64,192,69306,1,0,0:0:0:0:
320,192,69400,1,0,0:0:0:0:
448,192,69400,1,0,0:0:0:0:
192,192,69775,1,0,0:0:0:0:
192,192,69868,1,0,0:0:0:0:
448,192,70150,1,0,0:0:0:0:
320,192,70150,1,0,0:0:0:0:
448,192,70243,1,0,0:0:0:0:
64,192,70525,1,0,0:0:0:0:
64,192,70618,128,0,70900:0:0:0:0:
320,192,70900,1,0,0:0:0:0:
448,192,71275,1,0,0:0:0:0:
448,192,71368,128,0,71650:0:0:0:0:
192,192,71650,1,0,0:0:0:0:
64,192,71650,1,0,0:0:0:0:
192,192,71743,128,0,72118:0:0:0:0:
448,192,72025,1,0,0:0:0:0:
448,192,72118,128,0,72400:0:0:0:0:
320,192,72212,128,0,72400:0:0:0:0:
64,192,72400,1,0,0:0:0:0:
320,192,72775,1,0,0:0:0:0:
320,192,72868,128,0,73150:0:0:0:0:
64,192,73150,1,0,0:0:0:0:
64,192,73243,128,0,73525:0:0:0:0:
192,192,73525,1,0,0:0:0:0:
192,192,73618,128,0,73900:0:0:0:0:
448,192,73712,128,0,73900:0:0:0:0:
64,192,73900,1,0,0:0:0:0:
320,192,73900,1,0,0:0:0:0:
320,192,74087,1,0,0:0:0:0:
192,192,74181,1,0,0:0:0:0:
448,192,74368,1,0,0:0:0:0:
64,192,74556,1,0,0:0:0:0:
64,192,74650,1,0,0:0:0:0:
448,192,74650,1,0,0:0:0:0:
320,192,74743,1,0,0:0:0:0:
192,192,74837,1,0,0:0:0:0:
64,192,74931,1,0,0:0:0:0:
448,192,75025,1,0,0:0:0:0:
192,192,75025,1,0,0:0:0:0:
320,192,75118,1,0,0:0:0:0:
64,192,75212,1,0,0:0:0:0:
192,192,75306,1,0,0:0:0:0:
320,192,75400,1,0,0:0:0:0:
448,192,75400,128,0,75681:0:0:0:0:
320,192,75681,128,0,75962:0:0:0:0:
192,192,75681,1,0,0:0:0:0:
64,192,75775,1,0,0:0:0:0:
448,192,75775,1,0,0:0:0:0:
64,192,75962,128,0,76150:0:0:0:0:
448,192,75962,1,0,0:0:0:0:
320,192,76056,1,0,0:0:0:0:
448,192,76150,128,0,76712:0:0:0:0:
192,192,76150,1,0,0:0:0:0:
320,192,76337,1,0,0:0:0:0:
192,192,76525,1,0,0:0:0:0:
64,192,76525,1,0,0:0:0:0:
320,192,76712,128,0,76900:0:0:0:0:
64,192,76900,1,0,0:0:0:0:
448,192,76900,128,0,77181:0:0:0:0:
192,192,76993,1,0,0:0:0:0:
320,192,77087,1,0,0:0:0:0:
64,192,77181,128,0,77462:0:0:0:0:
192,192,77181,1,0,0:0:0:0:
320,192,77275,1,0,0:0:0:0:
448,192,77275,1,0,0:0:0:0:
192,192,77368,1,0,0:0:0:0:
192,192,77462,128,0,77837:0:0:0:0:
448,192,77462,1,0,0:0:0:0:
320,192,77556,1,0,0:0:0:0:
64,192,77650,1,0,0:0:0:0:
320,192,77837,128,0,78118:0:0:0:0:
448,192,77837,1,0,0:0:0:0:
64,192,78025,1,0,0:0:0:0:
448,192,78025,1,0,0:0:0:0:
192,192,78118,128,0,78400:0:0:0:0:
448,192,78400,128,0,78587:0:0:0:0:
64,192,78400,1,0,0:0:0:0:
320,192,78587,128,0,78962:0:0:0:0:
192,192,78681,1,0,0:0:0:0:
64,192,78775,1,0,0:0:0:0:
448,192,78775,1,0,0:0:0:0:
192,192,78962,128,0,79150:0:0:0:0:
448,192,78962,1,0,0:0:0:0:
320,192,79056,1,0,0:0:0:0:
64,192,79150,128,0,79525:0:0:0:0:
448,192,79150,1,0,0:0:0:0:
320,192,79337,1,0,0:0:0:0:
192,192,79525,128,0,79900:0:0:0:0:
448,192,79525,1,0,0:0:0:0:
448,192,79900,128,0,80462:0:0:0:0:
64,192,79900,1,0,0:0:0:0:
320,192,80181,1,0,0:0:0:0:
192,192,80275,1,0,0:0:0:0:
64,192,80275,1,0,0:0:0:0:
320,192,80462,128,0,81025:0:0:0:0:
64,192,80462,1,0,0:0:0:0:
192,192,80556,1,0,0:0:0:0:
448,192,80650,1,0,0:0:0:0:
192,192,80837,1,0,0:0:0:0:
64,192,81025,128,0,81400:0:0:0:0:
448,192,81025,1,0,0:0:0:0:
192,192,81400,1,0,0:0:0:0:
448,192,81400,1,0,0:0:0:0:
320,192,81493,1,0,0:0:0:0:
192,192,81587,1,0,0:0:0:0:
64,192,81681,1,0,0:0:0:0:
192,192,81775,1,0,0:0:0:0:
320,192,81775,1,0,0:0:0:0:
448,192,81775,1,0,0:0:0:0:
192,192,81868,1,0,0:0:0:0:
448,192,81962,1,0,0:0:0:0:
320,192,82056,1,0,0:0:0:0:
64,192,82150,1,0,0:0:0:0:
448,192,82150,1,0,0:0:0:0:
192,192,82243,1,0,0:0:0:0:
320,192,82337,1,0,0:0:0:0:
448,192,82431,1,0,0:0:0:0:
320,192,82525,1,0,0:0:0:0:
64,192,82525,1,0,0:0:0:0:
192,192,82525,1,0,0:0:0:0:
320,192,82618,1,0,0:0:0:0:
448,192,82900,1,0,0:0:0:0:
192,192,82900,1,0,0:0:0:0:
320,192,82993,1,0,0:0:0:0:
64,192,83087,1,0,0:0:0:0:
192,192,83181,1,0,0:0:0:0:
320,192,83275,1,0,0:0:0:0:
64,192,83275,1,0,0:0:0:0:
448,192,83275,1,0,0:0:0:0:
320,192,83368,1,0,0:0:0:0:
64,192,83462,1,0,0:0:0:0:
320,192,83556,1,0,0:0:0:0:
448,192,83650,1,0,0:0:0:0:
192,192,83650,1,0,0:0:0:0:
320,192,83743,1,0,0:0:0:0:
64,192,83837,1,0,0:0:0:0:
320,192,83931,1,0,0:0:0:0:
448,192,84025,1,0,0:0:0:0:
64,192,84025,1,0,0:0:0:0:
192,192,84025,1,0,0:0:0:0:
320,192,84118,1,0,0:0:0:0:
64,192,84212,1,0,0:0:0:0:
192,192,84306,1,0,0:0:0:0:
64,192,84400,1,0,0:0:0:0:
320,192,84400,1,0,0:0:0:0:
448,192,84493,1,0,0:0:0:0:
320,192,84587,1,0,0:0:0:0:
192,192,84681,1,0,0:0:0:0:
320,192,84775,1,0,0:0:0:0:
448,192,84775,1,0,0:0:0:0:
64,192,84775,1,0,0:0:0:0:
192,192,84868,1,0,0:0:0:0:
320,192,84962,1,0,0:0:0:0:
64,192,84962,1,0,0:0:0:0:
192,192,85056,1,0,0:0:0:0:
320,192,85150,1,0,0:0:0:0:
64,192,85150,1,0,0:0:0:0:
448,192,85243,1,0,0:0:0:0:
192,192,85337,1,0,0:0:0:0:
320,192,85337,1,0,0:0:0:0:
64,192,85431,1,0,0:0:0:0:
320,192,85525,1,0,0:0:0:0:
448,192,85525,1,0,0:0:0:0:
192,192,85525,1,0,0:0:0:0:
64,192,85618,1,0,0:0:0:0:
192,192,85712,1,0,0:0:0:0:
320,192,85806,1,0,0:0:0:0:
64,192,85900,1,0,0:0:0:0:
192,192,85900,1,0,0:0:0:0:
448,192,85993,1,0,0:0:0:0:
320,192,86087,1,0,0:0:0:0:
64,192,86181,1,0,0:0:0:0:
320,192,86275,1,0,0:0:0:0:
448,192,86275,1,0,0:0:0:0:
192,192,86275,1,0,0:0:0:0:
64,192,86368,1,0,0:0:0:0:
192,192,86462,1,0,0:0:0:0:
448,192,86556,1,0,0:0:0:0:
192,192,86650,1,0,0:0:0:0:
64,192,86650,1,0,0:0:0:0:
448,192,86743,1,0,0:0:0:0:
320,192,86837,1,0,0:0:0:0:
64,192,86837,1,0,0:0:0:0:
192,192,86931,1,0,0:0:0:0:
64,192,87025,1,0,0:0:0:0:
448,192,87025,1,0,0:0:0:0:
320,192,87025,1,0,0:0:0:0:
192,192,87118,1,0,0:0:0:0:
320,192,87212,1,0,0:0:0:0:
192,192,87306,1,0,0:0:0:0:
64,192,87400,1,0,0:0:0:0:
320,192,87400,1,0,0:0:0:0:
448,192,87400,128,0,87775:0:0:0:0:
192,192,87587,1,0,0:0:0:0:
192,192,87775,128,0,87962:0:0:0:0:
320,192,87775,1,0,0:0:0:0:
64,192,87962,128,0,88150:0:0:0:0:
448,192,87962,1,0,0:0:0:0:
320,192,88056,1,0,0:0:0:0:
192,192,88150,1,0,0:0:0:0:
320,192,88150,128,0,88712:0:0:0:0:
448,192,88337,1,0,0:0:0:0:
192,192,88525,1,0,0:0:0:0:
64,192,88525,1,0,0:0:0:0:
64,192,88712,128,0,88900:0:0:0:0:
448,192,88900,128,0,89087:0:0:0:0:
192,192,88900,1,0,0:0:0:0:
320,192,88993,1,0,0:0:0:0:
64,192,89087,128,0,89462:0:0:0:0:
192,192,89087,1,0,0:0:0:0:
320,192,89181,1,0,0:0:0:0:
192,192,89275,1,0,0:0:0:0:
448,192,89275,1,0,0:0:0:0:
320,192,89368,1,0,0:0:0:0:
192,192,89462,1,0,0:0:0:0:
320,192,89462,128,0,89931:0:0:0:0:
448,192,89556,1,0,0:0:0:0:
64,192,89650,1,0,0:0:0:0:
448,192,89837,1,0,0:0:0:0:
192,192,89931,128,0,90212:0:0:0:0:
448,192,90025,1,0,0:0:0:0:
64,192,90025,1,0,0:0:0:0:
320,192,90212,128,0,90400:0:0:0:0:
64,192,90400,1,0,0:0:0:0:
448,192,90400,1,0,0:0:0:0:
192,192,90446,1,0,0:0:0:0:
320,192,90493,1,0,0:0:0:0:
64,192,90493,1,0,0:0:0:0:
448,192,90493,1,0,0:0:0:0:
192,192,90540,1,0,0:0:0:0:
320,192,90587,1,0,0:0:0:0:
192,192,90634,1,0,0:0:0:0:
320,192,90681,1,0,0:0:0:0:
64,192,90681,1,0,0:0:0:0:
448,192,90728,1,0,0:0:0:0:
64,192,90775,1,0,0:0:0:0:
192,192,90775,1,0,0:0:0:0:
320,192,90775,1,0,0:0:0:0:
320,192,91150,1,0,0:0:0:0:
448,192,91150,1,0,0:0:0:0:
64,192,91150,1,0,0:0:0:0:
320,192,91431,1,0,0:0:0:0:
192,192,91431,1,0,0:0:0:0:
448,192,91431,1,0,0:0:0:0:
192,192,91712,1,0,0:0:0:0:
64,192,91712,1,0,0:0:0:0:
320,192,91712,1,0,0:0:0:0:
192,192,91993,1,0,0:0:0:0:
448,192,91993,1,0,0:0:0:0:
64,192,91993,1,0,0:0:0:0:
192,192,92275,1,0,0:0:0:0:
320,192,92275,1,0,0:0:0:0:
448,192,92275,1,0,0:0:0:0:
448,192,92556,1,0,0:0:0:0:
64,192,92556,1,0,0:0:0:0:
320,192,92556,1,0,0:0:0:0:
192,192,92837,1,0,0:0:0:0:
448,192,92837,1,0,0:0:0:0:
64,192,93025,1,0,0:0:0:0:
320,192,93025,1,0,0:0:0:0:
192,192,93150,1,0,0:0:0:0:
448,192,93150,1,0,0:0:0:0:
320,192,93275,1,0,0:0:0:0:
64,192,93275,1,0,0:0:0:0:
64,192,93400,1,0,0:0:0:0:
192,192,93400,1,0,0:0:0:0:
320,192,93400,1,0,0:0:0:0:
448,192,93400,1,0,0:0:0:0:
448,192,93493,1,0,0:0:0:0:
320,192,93587,1,0,0:0:0:0:
192,192,93681,1,0,0:0:0:0:
64,192,93775,1,0,0:0:0:0:
448,192,93868,1,0,0:0:0:0:
320,192,93962,1,0,0:0:0:0:
448,192,94056,1,0,0:0:0:0:
64,192,94150,1,0,0:0:0:0:
192,192,94243,1,0,0:0:0:0:
448,192,94337,1,0,0:0:0:0:
192,192,94431,1,0,0:0:0:0:
448,192,94525,1,0,0:0:0:0:
320,192,94525,1,0,0:0:0:0:
64,192,94525,1,0,0:0:0:0:
192,192,94618,1,0,0:0:0:0:
448,192,94712,1,0,0:0:0:0:
320,192,94806,1,0,0:0:0:0:
448,192,94900,128,0,95275:0:0:0:0:
64,192,94900,1,0,0:0:0:0:
192,192,94993,1,0,0:0:0:0:
320,192,95087,1,0,0:0:0:0:
192,192,95181,1,0,0:0:0:0:
320,192,95275,128,0,95650:0:0:0:0:
64,192,95275,1,0,0:0:0:0:
192,192,95368,1,0,0:0:0:0:
64,192,95462,1,0,0:0:0:0:
192,192,95556,1,0,0:0:0:0:
64,192,95650,128,0,96025:0:0:0:0:
448,192,95650,1,0,0:0:0:0:
320,192,95743,1,0,0:0:0:0:
192,192,95837,1,0,0:0:0:0:
448,192,95931,1,0,0:0:0:0:
448,192,96025,128,0,96400:0:0:0:0:
192,192,96025,1,0,0:0:0:0:
64,192,96118,1,0,0:0:0:0:
192,192,96212,1,0,0:0:0:0:
320,192,96306,1,0,0:0:0:0:
192,192,96400,128,0,96775:0:0:0:0:
64,192,96400,1,0,0:0:0:0:
320,192,96493,1,0,0:0:0:0:
448,192,96587,1,0,0:0:0:0:
64,192,96681,1,0,0:0:0:0:
64,192,96775,128,0,97150:0:0:0:0:
320,192,96775,1,0,0:0:0:0:
448,192,96868,1,0,0:0:0:0:
320,192,96962,1,0,0:0:0:0:
448,192,97056,1,0,0:0:0:0:
448,192,97150,128,0,97525:0:0:0:0:
320,192,97150,1,0,0:0:0:0:
192,192,97243,1,0,0:0:0:0:
64,192,97337,1,0,0:0:0:0:
320,192,97431,1,0,0:0:0:0:
320,192,97525,128,0,97900:0:0:0:0:
64,192,97525,1,0,0:0:0:0:
448,192,97618,1,0,0:0:0:0:
192,192,97712,1,0,0:0:0:0:
64,192,97806,1,0,0:0:0:0:
192,192,97900,1,0,0:0:0:0:
64,192,97900,128,0,98275:0:0:0:0:
320,192,97993,1,0,0:0:0:0:
448,192,98087,1,0,0:0:0:0:
448,192,98275,1,0,0:0:0:0:
320,192,98321,1,0,0:0:0:0:
192,192,98368,1,0,0:0:0:0:
448,192,98415,1,0,0:0:0:0:
64,192,98415,1,0,0:0:0:0:
320,192,98462,1,0,0:0:0:0:
192,192,98509,1,0,0:0:0:0:
64,192,98556,1,0,0:0:0:0:
192,192,98650,1,0,0:0:0:0:
320,192,98743,1,0,0:0:0:0:
448,192,98837,1,0,0:0:0:0:
320,192,98931,1,0,0:0:0:0:
64,192,99025,1,0,0:0:0:0:
448,192,99025,1,0,0:0:0:0:
320,192,99118,1,0,0:0:0:0:
192,192,99118,1,0,0:0:0:0:
64,192,99212,1,0,0:0:0:0:
448,192,99212,1,0,0:0:0:0:
192,192,99306,1,0,0:0:0:0:
320,192,99306,1,0,0:0:0:0:
320,192,99400,1,0,0:0:0:0:
448,192,99400,1,0,0:0:0:0:
64,192,99400,1,0,0:0:0:0:
448,192,101462,1,0,0:0:0:0:
320,192,101556,1,0,0:0:0:0:
192,192,101650,1,0,0:0:0:0:
320,192,101837,1,0,0:0:0:0:
192,192,102025,1,0,0:0:0:0:
320,192,102212,1,0,0:0:0:0:
64,192,102400,1,0,0:0:0:0:
448,192,102400,1,0,0:0:0:0:
320,192,103150,1,0,0:0:0:0:
320,192,103712,1,0,0:0:0:0:
192,192,103712,1,0,0:0:0:0:
64,192,103900,1,0,0:0:0:0:
320,192,103900,1,0,0:0:0:0:
448,192,103900,1,0,0:0:0:0:
448,192,104650,1,0,0:0:0:0:
320,192,104743,1,0,0:0:0:0:
192,192,104837,1,0,0:0:0:0:
64,192,104931,1,0,0:0:0:0:
192,192,105025,1,0,0:0:0:0:
320,192,105118,1,0,0:0:0:0:
192,192,105212,1,0,0:0:0:0:
320,192,105306,1,0,0:0:0:0:
192,192,105400,1,0,0:0:0:0:
448,192,105400,1,0,0:0:0:0:
64,192,105400,1,0,0:0:0:0:
320,192,105681,1,0,0:0:0:0:
192,192,105775,1,0,0:0:0:0:
320,192,105962,1,0,0:0:0:0:
64,192,106150,1,0,0:0:0:0:
448,192,106150,1,0,0:0:0:0:
64,192,106525,1,0,0:0:0:0:
192,192,106618,1,0,0:0:0:0:
320,192,106712,1,0,0:0:0:0:
448,192,106806,1,0,0:0:0:0:
320,192,106900,1,0,0:0:0:0:
192,192,106900,1,0,0:0:0:0:
192,192,107181,1,0,0:0:0:0:
320,192,107275,1,0,0:0:0:0:
448,192,107462,1,0,0:0:0:0:
64,192,107650,1,0,0:0:0:0:
192,192,107650,1,0,0:0:0:0:
320,192,108025,1,0,0:0:0:0:
64,192,108400,1,0,0:0:0:0:
448,192,108400,1,0,0:0:0:0:
448,192,108962,1,0,0:0:0:0:
64,192,109150,1,0,0:0:0:0:
320,192,109150,1,0,0:0:0:0:
448,192,109337,1,0,0:0:0:0:
192,192,109712,1,0,0:0:0:0:
448,192,109712,1,0,0:0:0:0:
64,192,109900,1,0,0:0:0:0:
320,192,109900,1,0,0:0:0:0:
448,192,109900,1,0,0:0:0:0:
192,192,110462,128,0,110650:0:0:0:0:
448,192,110650,1,0,0:0:0:0:
64,192,110650,1,0,0:0:0:0:
320,192,110837,1,0,0:0:0:0:
64,192,111025,1,0,0:0:0:0:
64,192,111118,1,0,0:0:0:0:
192,192,111212,128,0,111400:0:0:0:0:
64,192,111400,1,0,0:0:0:0:
320,192,111400,1,0,0:0:0:0:
448,192,111962,128,0,112150:0:0:0:0:
64,192,112150,1,0,0:0:0:0:
320,192,112150,1,0,0:0:0:0:
64,192,112900,1,0,0:0:0:0:
320,192,112900,1,0,0:0:0:0:
448,192,112900,1,0,0:0:0:0:
192,192,113462,128,0,113650:0:0:0:0:
320,192,113650,1,0,0:0:0:0:
448,192,113650,1,0,0:0:0:0:
192,192,114400,1,0,0:0:0:0:
448,192,114400,1,0,0:0:0:0:
320,192,114493,1,0,0:0:0:0:
192,192,114587,1,0,0:0:0:0:
64,192,114681,1,0,0:0:0:0:
448,192,114775,1,0,0:0:0:0:
320,192,114868,1,0,0:0:0:0:
192,192,114962,1,0,0:0:0:0:
64,192,115056,1,0,0:0:0:0:
448,192,115150,1,0,0:0:0:0:
320,192,115243,1,0,0:0:0:0:
192,192,115337,1,0,0:0:0:0:
64,192,115431,1,0,0:0:0:0:
448,192,115525,1,0,0:0:0:0:
320,192,115618,1,0,0:0:0:0:
64,192,115712,1,0,0:0:0:0:
448,192,115712,128,0,115900:0:0:0:0:
192,192,115806,1,0,0:0:0:0:
320,192,115900,1,0,0:0:0:0:
64,192,115900,1,0,0:0:0:0:
448,192,115993,1,0,0:0:0:0:
192,192,116087,1,0,0:0:0:0:
64,192,116181,1,0,0:0:0:0:
320,192,116275,1,0,0:0:0:0:
448,192,116462,1,0,0:0:0:0:
64,192,116556,128,0,116931:0:0:0:0:
192,192,116556,1,0,0:0:0:0:
320,192,116650,1,0,0:0:0:0:
448,192,116650,1,0,0:0:0:0:
192,192,116931,1,0,0:0:0:0:
320,192,117025,1,0,0:0:0:0:
448,192,117025,128,0,117400:0:0:0:0:
64,192,117212,128,0,117400:0:0:0:0:
192,192,117400,1,0,0:0:0:0:
320,192,117400,1,0,0:0:0:0:
