osu file format v9

[General]
AudioFilename: axion.mp3
AudioLeadIn: 1511
PreviewTime: 51351
Countdown: 0
SampleSet: Normal
StackLeniency: 0.7
Mode: 0
LetterboxInBreaks: 1

[Editor]
Bookmarks: 39351,51351,117351
DistanceSpacing: 0.9
BeatDivisor: 4
GridSize: 4

[Metadata]
Title:AXION
Artist:sakuzyo
Creator:taka1235
Version:Another
Source:BMS
Tags:

[Difficulty]
HPDrainRate:7
CircleSize:5
OverallDifficulty:7
ApproachRate:8
SliderMultiplier:1.9
SliderTickRate:1

[Events]
//Background and Video events
Video,0,"BGA.flv"
0,0,"97022.jpg"
//Break Periods
//Storyboard Layer 0 (Background)
//Storyboard Layer 1 (Fail)
//Storyboard Layer 2 (Pass)
//Storyboard Layer 3 (Foreground)
//Storyboard Sound Samples
//Background Colour Transformations
3,100,163,162,255

[TimingPoints]
400,375,4,1,0,40,1,0
1337,-100,4,2,0,30,0,0
1712,-100,4,2,0,45,0,0
1900,-100,4,1,0,65,0,0
2087,-100,4,2,0,40,0,0
6400,-100,4,1,0,25,0,0
8087,-100,4,2,0,40,0,0
12400,-100,4,1,0,30,0,0
13337,-100,4,1,0,40,0,0
13712,-100,4,1,0,50,0,0
14087,-100,4,2,0,50,0,0
14837,-100,4,2,0,40,0,0
15025,-100,4,1,0,35,0,0
15400,-100,4,1,0,50,0,0
15587,-100,4,2,0,50,0,0
16337,-100,4,2,0,40,0,0
16525,-100,4,1,0,35,0,0
20087,-100,4,2,0,35,0,0
20368,-100,4,1,0,35,0,0
21025,-100,4,2,0,35,0,0
21118,-100,4,1,0,35,0,0
23275,-100,4,2,0,35,0,0
25900,-100,4,1,0,35,0,0
26650,-133.333333333333,4,1,0,35,0,0
27400,-100,4,1,0,35,0,0
31900,-100,4,2,0,35,0,0
39400,-100,4,1,0,35,0,0
43900,-100,4,2,0,40,0,0
45400,-100,4,1,0,40,0,0
49900,-100,4,2,0,50,0,0
51400,-100,4,1,0,60,0,0
53650,-100,4,2,0,60,0,0
57400,-100,4,1,0,60,0,0
58525,-100,4,2,0,60,0,0
58900,-100,4,1,0,60,0,0
60025,-100,4,2,0,60,0,0
61525,-100,4,1,0,40,0,0
61900,-100,4,2,0,60,0,0
63400,-100,4,1,0,60,0,0
63775,-133.333333333333,4,2,0,60,0,0
63775,-133.333333333333,4,1,0,60,0,0
64900,-133.333333333333,4,1,0,60,0,0
65275,-133.333333333333,4,2,0,60,0,0
66400,-133.333333333333,4,1,0,60,0,0
66775,-133.333333333333,4,2,0,60,0,0
69400,-133.333333333333,4,1,0,60,0,0
73900,-83.3333333333333,4,1,0,60,0,1
75400,-100,4,2,0,60,0,0
91150,-100,4,1,0,60,0,0
93400,-133.333333333333,4,1,0,60,0,0
96400,-133.333333333333,4,2,0,60,0,0
98650,-133.333333333333,4,1,0,40,0,0
99400,-200,4,2,0,40,0,0
105400,-133.333333333333,4,2,0,40,0,0
110650,-133.333333333333,4,1,0,40,0,0

[Colours]
Combo1 : 255,128,192
Combo2 : 255,85,85
Combo3 : 121,165,255
Combo4 : 34,206,78
Combo5 : 226,243,18
Combo6 : 128,0,255

[HitObjects]
80,348,1337,2,2,B|72:296,6,47.5,2|2|2|2|2|2|4
184,376,2087,5,2
168,284,2275,1,2
152,192,2462,1,2
456,344,2838,5,2
468,252,3025,1,2
480,156,3213,1,2
128,36,3587,5,2
220,52,3774,1,2
312,68,3962,1,2
456,344,4337,2,2,B|356:328,2,95
472,248,4900,5,0
380,228,5087,1,2
472,248,5275,1,0
380,228,5462,1,2
152,296,5837,5,2
240,336,6025,1,2
152,296,6212,1,2
80,360,6400,5,0
32,88,6775,1,0
32,88,6962,2,2,B|128:112|224:136,2,190,0|0|0
100,24,7900,5,4
192,44,8087,2,0,B|288:28,2,95,2|0|2
112,288,8837,6,2,B|4:272,2,95,2|0|2
172,360,9400,2,0,B|284:344,1,95
360,332,9775,1,0
452,312,9962,1,2
328,40,10337,2,2,B|224:68,2,95
400,104,10900,5,0
312,136,11087,1,2
388,196,11275,1,0
476,160,11462,1,2
220,348,11837,2,0,B|196:240,2,95,0|0|2
316,364,12400,5,4
92,72,12775,1,0
28,144,12962,2,2,B|48:248|68:336,2,190,0|0|0
92,72,13900,5,0
176,88,14087,1,2
120,152,14275,1,2
120,152,14368,1,2
196,192,14556,2,0,B|280:188|360:184,1,142.5,2|4
412,340,15025,2,0,B|408:288,3,47.5
448,304,15400,5,4
476,224,15587,1,2
512,144,15775,1,2
512,144,15868,1,2
444,92,16056,2,0,B|376:100|288:108,1,142.5,2|4
248,232,16525,2,0,B|240:184,3,47.5
208,180,16900,6,0,B|196:120,3,47.5
196,116,17275,1,0
192,96,17368,1,0
188,76,17462,1,0
184,56,17556,1,0
168,48,17650,2,0,B|120:32,2,47.5
184,36,17931,1,0
200,24,18025,1,0
216,16,18118,1,0
232,8,18212,1,0
252,4,18306,6,0,B|296:16,16,47.5
252,24,19900,6,0,B|260:80|268:132,1,95,4|2
212,184,20275,1,2
212,184,20368,1,0
212,184,20462,1,0
328,312,20650,6,0,B|340:256|348:208,1,95
408,160,21025,1,2
408,160,21118,1,0
408,160,21212,1,0
340,48,21400,6,0,B|280:52|220:56,1,95
112,136,21775,2,0,B|164:128|220:120,2,95
408,160,22337,6,0,B|420:108,5,47.5
404,92,22900,5,4
256,40,23087,1,0
52,88,23275,5,2
100,116,23368,1,2
152,144,23462,1,2
204,172,23556,1,2
204,172,23650,5,4
340,152,23837,1,4
496,252,24025,5,2
444,276,24118,1,2
392,300,24212,1,2
340,324,24306,1,2
340,324,24400,5,4
196,348,24587,1,4
60,272,24775,5,4
100,68,24962,1,4
280,128,25150,5,0
324,132,25243,1,0
368,132,25337,2,0,B|416:120|496:100,1,95,4|0
512,200,25618,2,0,B|468:212|400:228,1,95,4|0
400,260,25900,5,0
376,296,25993,1,0
356,336,26087,2,0,B|304:328,1,47.5,2|0
208,324,26275,5,0
248,308,26368,1,0
288,292,26462,2,0,B|264:240,1,47.5,2|0
176,192,26650,6,0,B|320:216,1,142.499995753169,2|4
488,64,27399,5,0
488,64,27493,1,0
488,64,27587,2,0,B|444:80,1,47.5,2|0
416,76,27775,1,0
388,68,27868,1,0
360,60,27962,1,2
332,52,28056,1,0
308,64,28150,6,0,B|320:120,3,47.5
324,140,28525,1,8
332,168,28618,1,0
340,196,28712,1,2
348,224,28806,1,0
356,252,28900,6,0,B|400:280,3,47.5
420,292,29275,1,2
368,372,29462,1,0
352,364,29556,1,8
280,300,29743,1,0
252,296,29837,1,2
224,300,29931,1,0
200,316,30025,1,0
184,340,30118,2,0,B|184:364|216:376,2,47.5
160,328,30400,5,0
132,324,30493,1,0
104,320,30587,1,0
76,316,30681,1,0
48,312,30775,1,2
8,224,30962,1,0
24,216,31056,1,8
120,224,31243,1,0
132,196,31337,1,0
132,168,31431,1,0
124,140,31525,1,0
108,116,31618,1,0
80,104,31712,2,0,B|56:96|32:120,1,47.5
12,92,31900,5,2
4,64,31993,1,2
0,36,32087,2,2,B|52:52,1,47.5
72,28,32275,5,2
100,20,32368,1,2
128,16,32462,2,2,B|112:68,1,47.5
140,72,32650,5,2
164,88,32743,1,2
188,100,32837,2,2,B|248:84,1,47.5
260,80,33025,1,2
288,72,33118,1,2
316,64,33212,1,2
344,56,33306,1,2
372,48,33400,6,2,B|428:64,1,47.5
436,88,33587,2,2,B|452:84|468:44,1,47.5
384,136,33775,6,2,B|332:144,1,47.5
308,148,33962,2,2,B|300:176|328:204,1,47.5
336,216,34150,1,0
408,280,34337,1,0
500,260,34525,1,2
504,280,34618,1,2
456,360,34806,1,2
348,360,34900,6,0,B|304:372,3,47.5
264,348,35275,2,2,B|196:332|112:320,1,142.5
108,332,35650,1,0
28,352,35837,1,0
8,272,36025,1,2
16,256,36118,1,2
108,228,36306,1,2
100,212,36400,5,2
104,192,36493,1,2
88,180,36587,1,2
96,164,36681,1,2
80,152,36775,1,2
88,136,36868,1,2
72,128,36962,1,2
76,108,37056,1,2
60,96,37150,5,2
76,104,37243,1,2
92,112,37337,1,2
108,120,37431,1,2
124,128,37525,1,2
140,136,37618,1,2
156,144,37712,1,2
172,152,37806,1,2
188,160,37900,5,0
224,144,37993,1,0
260,128,38087,2,0,B|244:184,1,47.5,4|0
224,280,38275,5,0
260,292,38368,1,0
296,304,38462,2,0,B|356:284,1,47.5,4|0
444,348,38650,5,0
456,312,38743,1,0
472,276,38837,2,0,B|460:224,1,47.5,4|0
360,192,39025,2,0,B|372:108,1,47.5,4|0
468,72,39212,2,0,B|412:44,1,47.5,4|0
388,36,39400,5,4
256,56,39587,1,4
176,148,39775,2,8,B|112:160|20:180,1,142.5
20,156,40150,1,0
28,136,40243,1,8
36,116,40337,1,0
168,48,40525,2,8,B|248:76|312:104,1,142.5
312,120,40900,5,0
460,72,41087,1,0
472,224,41275,2,8,B|464:296|456:372,1,142.5
432,372,41650,1,0
408,376,41743,1,8
384,380,41837,1,0
248,256,42025,2,8,B|320:260|392:288,1,142.5
404,268,42400,5,0
480,144,42587,1,0
384,32,42775,1,8
368,48,42868,2,8,B|324:56|256:68,1,95
256,80,43150,1,0
232,76,43243,1,8
96,104,43431,1,0
120,112,43525,1,8
212,200,43712,1,0
164,308,43900,5,4
296,284,44087,1,8
40,220,44275,5,4
164,308,44462,1,8
108,72,44650,5,4
132,76,44743,1,0
156,80,44837,1,4
180,84,44931,1,0
204,88,45025,2,0,B|264:76|352:56,1,142.5,4|4
364,44,45400,5,0
484,96,45587,1,0
448,232,45775,2,8,B|376:220|272:208,1,142.5
292,224,46150,1,0
276,236,46243,1,8
260,248,46337,1,0
204,88,46525,2,8,B|184:152|172:240,1,142.5
164,244,46900,5,0
56,340,47087,1,0
0,216,47275,2,8,B|8:144|32:60,1,142.5
44,68,47650,1,0
60,60,47743,1,8
76,52,47837,1,0
188,136,48025,2,8,B|264:124|348:104,1,142.5
344,96,48400,5,8
488,124,48587,1,8
440,256,48774,1,0
460,276,48868,2,8,B|456:324|448:396,1,95
432,372,49150,5,0
384,372,49243,1,8
340,352,49337,1,8
308,316,49431,1,8
304,268,49525,1,8
404,160,49712,1,8
312,96,49900,5,4
268,108,49993,1,0
220,120,50087,2,4,B|228:60,1,47.5
280,40,50275,5,4
328,32,50368,1,0
376,24,50462,2,0,B|364:96,1,47.5,4|0
360,136,50650,5,2
352,172,50743,1,2
316,168,50837,1,2
320,208,50931,1,2
284,200,51025,1,2
284,236,51118,1,2
248,232,51212,1,2
248,272,51306,1,2
200,268,51400,6,2,B|116:284|40:308,2,142.5
300,324,52150,1,8
300,324,52243,1,0
412,340,52431,1,0
432,352,52525,2,0,B|476:332|528:316,1,95,8|0
432,220,52900,6,8,B|364:208|264:196,2,142.5
108,264,53650,5,2
120,268,53743,1,2
132,272,53837,1,2
144,276,53931,1,2
156,280,54025,2,4,B|176:272|176:272|144:148,1,142.5
132,148,54400,6,0,B|88:136|20:116,1,95,8|0
60,28,54775,1,8
88,36,54868,1,8
180,16,55056,1,8
200,40,55150,5,2
220,68,55243,1,2
240,96,55337,1,2
260,120,55431,1,2
280,148,55525,2,4,B|268:220|252:312,1,142.5
252,312,55900,5,8
356,352,56087,1,8
456,316,56275,1,8
460,292,56368,1,8
432,208,56556,1,8
416,188,56650,5,2
392,184,56743,1,2
368,180,56837,1,2
344,176,56931,1,2
320,172,57025,2,4,B|256:160|164:152,1,142.5
156,144,57400,6,0,B|160:96|180:28,1,95,4|2
200,256,57775,2,2,B|276:268|376:280,2,142.5
124,336,58525,1,4
100,332,58618,1,0
76,328,58712,1,0
32,240,58900,6,0,B|96:248|160:256,1,95,0|2
200,80,59275,2,2,B|224:152|244:248,2,142.5
64,32,60025,1,4
56,56,60118,1,0
48,80,60212,1,4
40,104,60306,1,0
32,128,60400,5,2
36,164,60493,1,2
56,196,60587,1,2
92,212,60681,1,2
128,220,60775,1,2
164,224,60868,1,2
200,220,60962,1,2
232,200,61056,1,2
256,168,61150,1,2
292,156,61243,1,2
332,156,61337,1,2
360,180,61431,1,2
376,216,61525,2,0,B|380:240|364:272,3,47.5
364,304,61900,6,0,B|424:328,1,47.5,4|0
484,360,62087,2,0,B|432:340,1,47.5,4|0
416,276,62275,2,0,B|464:296,1,47.5,4|0
512,332,62462,2,0,B|468:312,1,47.5,4|0
464,288,62650,1,2
460,264,62743,1,2
456,240,62837,1,2
452,216,62931,1,2
448,192,63025,1,2
444,168,63118,1,2
440,144,63212,1,2
436,120,63306,1,2
432,96,63400,5,4
284,280,63775,2,0,B|308:352,1,71.2499978765846,4|0
236,364,64150,2,8,B|168:360|84:352,1,142.499995753169,4|4
36,48,64900,5,4
348,96,65275,2,0,B|424:84,1,71.2499978765846,4|0
472,132,65650,2,4,B|464:192|448:288,1,142.499995753169
240,360,66400,5,4
44,136,66775,1,4
48,124,66868,1,0
160,152,67150,1,4
164,176,67243,1,0
284,140,67525,1,4
292,116,67618,1,0
192,40,67900,5,4
192,40,67993,1,0
312,340,68275,1,4
312,340,68368,1,0
492,176,68650,5,2
468,184,68743,1,2
444,192,68837,1,2
420,200,68931,1,2
396,192,69025,5,2
372,196,69118,1,2
348,200,69212,1,2
324,204,69306,1,2
300,196,69400,5,4
36,348,69775,2,0,B|32:316|28:272,1,71.2499978765846,2|0
152,84,70150,2,2,B|160:168|168:256,2,142.499995753169,2|2|4
376,328,71275,6,0,B|412:320|448:312,1,71.2499978765846,2|0
348,128,71650,2,0,B|268:140|196:152,2,142.499995753169,2|2|4
80,104,72774,5,2
80,104,72868,1,0
80,104,72962,1,0
80,104,73055,1,0
80,104,73149,1,2
80,104,73243,1,0
80,104,73337,1,0
80,104,73430,1,0
80,104,73524,1,2
80,104,73618,1,0
80,104,73712,1,0
80,104,73806,1,0
80,104,73900,6,0,B|120:88|120:88|128:68|128:68|176:48|176:48|144:140|200:152|200:152|184:176|184:176|192:200|192:200|168:236|212:252|212:252|232:240|232:240|256:248|256:248|372:144|440:256|412:368|412:368|384:380,1,684.000016307831,6|6
484,48,75400,6,0,B|440:36|360:20,1,95,4|0
304,68,75775,1,8
220,112,75962,1,0
212,140,76056,1,8
336,272,76243,1,0
360,256,76337,1,8
444,296,76525,2,2,B|436:240,2,47.5
296,364,76900,6,0,B|244:356|188:348,1,95,4|0
144,276,77275,1,8
132,244,77368,1,0
120,212,77462,1,8
108,180,77556,1,0
16,140,77743,2,0,B|24:88,1,47.5,0|8
152,40,78025,1,2
152,40,78118,1,2
152,40,78212,1,2
276,96,78400,6,4,B|324:84|324:84|356:48,1,95
448,32,78775,2,4,B|404:88|356:172,2,142.5
486,223,79525,1,8
494,247,79618,1,8
502,271,79712,1,8
384,348,79900,5,2
384,348,79993,1,2
384,348,80087,1,2
352,240,80275,1,8
320,132,80462,1,8
320,132,80556,1,8
216,84,80743,1,8
216,84,80837,1,8
108,44,81025,5,4
32,192,81212,1,4
124,316,81400,5,2
188,324,81493,1,2
256,332,81587,1,2
324,340,81681,1,2
392,348,81775,1,2
512,208,82150,5,2
448,200,82243,1,2
380,192,82337,1,2
312,184,82431,1,2
244,176,82525,1,2
32,4,82900,5,2
96,12,82993,1,2
164,20,83087,1,2
232,28,83181,1,2
300,36,83275,1,2
448,200,83650,6,2,B|456:144,3,47.5
472,216,84025,2,2,B|464:272,3,47.5
492,204,84400,5,2
500,176,84493,1,2
496,148,84587,1,2
476,128,84681,1,2
448,128,84775,1,2
424,140,84868,1,2
408,164,84962,1,2
396,188,85056,1,2
388,216,85150,1,2
364,232,85243,1,2
336,236,85337,1,2
308,228,85431,1,2
292,204,85525,1,2
292,176,85618,1,2
280,152,85712,1,2
252,144,85806,1,2
224,152,85900,6,0,B|196:156|184:188,3,47.5,4|0|0|0
188,212,86275,1,4
200,244,86368,1,0
200,276,86462,1,0
184,304,86556,1,0
164,328,86650,1,4
132,336,86743,1,0
100,328,86837,1,4
76,308,86931,1,0
76,276,87025,1,4
88,244,87118,1,0
80,212,87212,1,4
52,196,87306,1,0
20,204,87400,6,4,B|16:140|12:56,2,142.5
108,168,88150,1,8
144,180,88243,1,0
232,156,88431,1,0
256,124,88525,2,8,B|304:132|352:144,1,95
436,256,88900,6,0,B|368:268|292:280,1,142.5,4|0
264,268,89275,1,4
348,112,89462,2,4,B|424:128|536:156,2,190
124,40,90400,6,4,B|136:108|152:184,1,142.5
72,324,90775,1,4
372,352,91150,6,0,B|432:364|512:376,2,142.5,0|2|2
428,236,91993,2,2,B|360:248|272:272,2,142.5
456,216,92650,1,0
484,124,92837,1,0
416,36,93025,1,0
368,56,93150,1,2
328,32,93275,1,2
376,8,93400,6,0,B|368:84|360:184,1,142.5,4|0
452,332,94150,2,0,B|460:248|464:168,1,142.499995753169,4|0
156,152,94900,5,4
200,288,95275,1,4
360,252,95650,1,4
316,116,96025,1,4
196,32,96400,5,4
292,360,96775,1,4
52,244,97150,5,4
456,160,97525,1,4
256,24,97900,6,2,B|244:76,7,35.6249989382923
260,80,98650,1,0
256,104,98743,1,0
260,128,98837,1,0
256,152,98931,1,0
264,176,99025,1,0
256,200,99118,1,0
264,224,99212,1,0
256,248,99306,1,0
256,248,99400,5,0
204,296,99775,2,2,B|180:344|224:384,2,95
188,224,101275,2,2,B|152:192|96:208,1,95
84,212,101837,2,2,B|92:268,2,47.5
68,216,102400,6,0,B|56:160|44:108,2,95,4|2|0
124,216,103900,2,0,B|112:264|100:316,2,95
140,216,104837,2,0,B|184:224,5,23.75,0|2|0|2|0|0
168,212,105400,6,0,B|160:144|144:64,1,142.499995753169,4|8
196,20,105962,1,0
216,88,106150,1,8
216,88,106337,6,0,B|212:136,5,35.6249989382923,2|0|2|0|0|0
248,112,106900,6,0,B|260:188|272:268,1,142.499995753169,0|8
316,308,107462,1,0
344,244,107650,1,8
388,300,107837,1,0
388,300,107931,1,8
388,300,108118,1,0
388,300,108212,1,8
440,352,108400,6,0,B|480:340|516:328,1,71.2499978765846,8|0
472,268,108775,1,8
408,236,108962,2,0,B|360:228|328:220,1,71.2499978765846,8|0
280,164,109337,2,8,B|336:148|428:128,1,142.499995753169
476,88,109900,6,0,B|484:48,2,35.6249989382923,8|0|0
412,60,110275,2,0,B|408:16,2,35.6249989382923,8|0|0
344,80,110650,5,0
344,80,110743,1,0
344,80,110837,1,0
168,144,111025,1,0
168,144,111118,1,0
168,144,111212,1,0
232,24,111400,6,0,B|320:120|172:248|288:308,1,284.999991506338,4|8
36,356,112900,1,0
60,272,113275,1,0
84,192,113650,1,8
256,192,114400,12,0,117400
