osu file format v9

[General]
AudioFilename: axion.mp3
AudioLeadIn: 1511
PreviewTime: 51351
Countdown: 0
SampleSet: Normal
StackLeniency: 0.7
Mode: 1
LetterboxInBreaks: 0

[Editor]
Bookmarks: 27400
DistanceSpacing: 0.8
BeatDivisor: 4
GridSize: 32

[Metadata]
Title:AXION
Artist:sakuzyo
Creator:rrtyui
Version:TAIKO
Source:BMS
Tags:Wire Puller 2 wp2 MagicMashMan Magic Mash Man New Genuine Magicial Girl deadblue238 Chaos fantasia SoundCloud Deleted room Rein0527 Rein inaba-tan inaba9510

[Difficulty]
HPDrainRate:5
CircleSize:5
OverallDifficulty:5
ApproachRate:5
SliderMultiplier:1.6
SliderTickRate:1

[Events]
//Background and Video events
Video,0,"BGA.flv"
0,0,"taikoBG.jpg"
//Storyboard Layer 0 (Background)
//Storyboard Layer 1 (Fail)
//Storyboard Layer 2 (Pass)
//Storyboard Layer 3 (Foreground)
//Storyboard Sound Samples
//Background Colour Transformations
3,100,163,162,255

[TimingPoints]
400,375,4,1,0,100,1,0
51400,-100,4,1,0,100,0,1
63400,-100,4,1,0,100,0,0
87400,-100,4,1,0,100,0,1
93400,-100,4,1,0,100,0,0

[Colours]
Combo1 : 112,196,193
Combo2 : 243,89,34

[HitObjects]
256,192,1900,5,4
256,192,2087,1,0
256,192,2275,1,0
256,192,2462,5,8
256,192,2837,5,0
256,192,3025,1,0
256,192,3212,5,8
256,192,3587,5,0
256,192,3775,1,0
256,192,3962,5,8
256,192,4150,5,0
256,192,4337,1,0
256,192,4525,5,8
256,192,4712,1,8
256,192,4900,5,0
256,192,5087,1,0
256,192,5275,1,0
256,192,5462,5,8
256,192,5837,5,0
256,192,6025,1,0
256,192,6212,5,8
256,192,6587,5,0
256,192,6775,1,0
256,192,6962,5,8
256,192,7712,5,0
256,192,7900,1,0
256,192,8087,1,0
256,192,8275,1,0
256,192,8462,5,8
256,192,8837,5,0
256,192,9025,1,0
256,192,9212,5,8
256,192,9400,5,0
256,192,9587,1,0
256,192,9775,1,0
256,192,9962,5,8
256,192,10337,5,0
256,192,10525,5,8
256,192,10712,1,8
256,192,10900,5,0
256,192,11087,1,0
256,192,11275,1,0
256,192,11462,5,8
256,192,11837,5,0
256,192,12025,1,0
256,192,12212,5,8
256,192,12400,5,0
256,192,12587,1,0
256,192,12775,1,0
256,192,12962,5,8
256,192,13712,5,0
256,192,13900,1,4
256,192,14087,1,0
256,192,14275,1,0
256,192,14462,5,8
256,192,14837,5,0
256,192,15025,1,0
256,192,15212,5,8
256,192,15587,5,0
256,192,15775,1,0
256,192,15962,5,8
256,192,16150,5,0
256,192,16337,1,0
256,192,16525,5,8
256,192,16712,1,8
256,192,16900,5,0
256,192,17087,1,0
256,192,17275,1,0
256,192,17462,5,8
256,192,17837,5,0
256,192,18025,1,0
256,192,18212,5,8
256,192,18587,5,0
256,192,18775,1,0
256,192,18962,5,8
256,192,19712,5,0
256,192,19900,1,0
256,192,20087,1,0
256,192,20275,1,0
256,192,20462,5,8
256,192,20837,5,0
256,192,21025,1,0
256,192,21212,5,8
256,192,21400,5,0
256,192,21587,1,0
256,192,21775,1,0
256,192,21962,5,8
256,192,22337,5,0
256,192,22525,5,8
256,192,22712,1,8
256,192,22900,5,0
256,192,23087,1,0
256,192,23275,1,0
256,192,23462,5,8
256,192,23837,5,0
256,192,24025,1,0
256,192,24212,5,8
256,192,24400,5,0
256,192,24587,1,0
256,192,24775,5,8
256,192,24962,5,0
256,192,25056,1,0
256,192,25243,1,0
256,192,25337,5,8
256,192,25525,1,8
256,192,25618,1,8
256,192,25712,1,8
256,192,25806,1,8
256,192,25900,5,0
256,192,27400,1,0
256,192,27493,1,0
256,192,27587,5,8
256,192,27681,1,8
256,192,27775,5,0
256,192,27868,1,0
256,192,27962,5,8
256,192,28056,1,8
256,192,28150,1,8
256,192,28243,1,8
256,192,28337,5,0
256,192,28525,5,8
256,192,28618,1,8
256,192,28806,1,8
256,192,28900,5,0
256,192,28993,1,0
256,192,29087,5,8
256,192,29275,1,8
256,192,29368,1,8
256,192,29556,1,8
256,192,29650,5,0
256,192,29743,1,0
256,192,29837,5,8
256,192,30025,1,8
256,192,30118,1,8
256,192,30306,1,8
256,192,30400,5,0
256,192,30493,1,0
256,192,30587,5,8
256,192,30681,1,8
256,192,30775,5,0
256,192,30868,1,0
256,192,30962,5,8
256,192,31056,1,8
256,192,31150,5,0
256,192,31243,1,0
256,192,31337,5,8
256,192,31525,1,8
256,192,31618,5,0
256,192,31806,5,8
256,192,31900,1,8
256,192,31993,5,0
256,192,32087,5,8
256,192,32275,1,8
256,192,32368,5,0
256,192,32556,5,8
256,192,32650,1,8
256,192,32743,5,0
256,192,32837,5,8
256,192,33025,1,8
256,192,33118,5,0
256,192,33306,5,8
256,192,33400,5,0
256,192,33493,1,0
256,192,33587,5,8
256,192,33681,1,8
256,192,33775,5,0
256,192,33868,1,0
256,192,33962,5,8
256,192,34056,1,8
256,192,34150,1,8
256,192,34243,1,8
256,192,34337,5,0
256,192,34525,5,8
256,192,34618,1,8
256,192,34806,1,8
256,192,34900,5,0
256,192,34993,1,0
256,192,35087,5,8
256,192,35275,1,8
256,192,35368,1,8
256,192,35556,1,8
256,192,35650,5,0
256,192,35743,1,0
256,192,35837,5,8
256,192,36025,1,8
256,192,36118,1,8
256,192,36306,1,8
256,192,36400,5,0
256,192,36493,1,0
256,192,36587,5,8
256,192,36681,1,8
256,192,36775,5,0
256,192,36868,1,0
256,192,36962,5,8
256,192,37056,1,8
256,192,37150,5,0
256,192,37243,1,0
256,192,37337,5,8
256,192,37525,1,8
256,192,37618,5,0
256,192,37806,1,0
256,192,37900,1,0
256,192,37993,1,0
256,192,38087,5,8
256,192,38275,1,8
256,192,38368,5,0
256,192,38556,1,0
256,192,38650,1,0
256,192,38743,1,0
256,192,38837,5,8
256,192,39025,1,8
256,192,39118,1,8
256,192,39306,5,0
256,192,39400,1,0
256,192,39775,5,8
256,192,40056,5,0
256,192,40150,1,0
256,192,40337,1,0
256,192,40525,5,8
256,192,40712,1,8
256,192,40900,5,0
256,192,41181,1,0
256,192,41275,5,8
256,192,41462,5,0
256,192,41650,5,8
256,192,41743,5,0
256,192,41837,1,0
256,192,41931,1,0
256,192,42025,5,8
256,192,42212,1,8
256,192,42400,5,0
256,192,42681,1,0
256,192,42775,5,8
256,192,42962,5,0
256,192,43056,5,8
256,192,43243,5,0
256,192,43337,5,8
256,192,43525,1,8
256,192,43712,1,8
256,192,43900,5,0
256,192,44181,1,0
256,192,44275,5,8
256,192,44462,5,0
256,192,44650,5,8
256,192,44743,5,0
256,192,44837,1,0
256,192,45025,5,8
256,192,45212,1,8
256,192,45400,5,0
256,192,45681,1,0
256,192,45775,5,8
256,192,45962,5,0
256,192,46150,5,8
256,192,46243,5,0
256,192,46431,5,8
256,192,46525,5,0
256,192,46712,5,8
256,192,46900,5,0
256,192,47087,1,0
256,192,47181,1,0
256,192,47275,5,8
256,192,47462,5,0
256,192,47650,5,8
256,192,47743,1,8
256,192,47837,5,0
256,192,47931,1,0
256,192,48025,5,8
256,192,48212,5,0
256,192,48400,1,0
256,192,48587,1,0
256,192,48681,1,0
256,192,48775,5,8
256,192,48962,5,0
256,192,49150,1,0
256,192,49243,1,0
256,192,49431,5,8
256,192,49525,5,0
256,192,49712,5,8
256,192,49900,5,0
256,192,49993,1,0
256,192,50087,1,0
256,192,50275,5,8
256,192,50462,1,8
256,192,50650,5,0
256,192,50837,1,0
256,192,50931,1,0
256,192,51025,5,8
256,192,51212,1,8
256,192,51400,5,4
256,192,51587,1,0
256,192,51681,1,0
256,192,51775,5,8
256,192,51962,5,0
256,192,52056,1,0
256,192,52243,1,0
256,192,52337,1,0
256,192,52525,5,8
256,192,52712,5,0
256,192,52900,1,0
256,192,53181,1,0
256,192,53275,5,8
256,192,53462,5,0
256,192,53650,1,0
256,192,53743,1,0
256,192,53931,1,0
256,192,54025,5,8
256,192,54212,1,8
256,192,54400,5,0
256,192,54587,1,0
256,192,54775,5,8
256,192,54868,1,8
256,192,55056,5,0
256,192,55150,5,8
256,192,55243,1,8
256,192,55337,5,0
256,192,55431,1,0
256,192,55525,5,8
256,192,55618,1,8
256,192,55712,1,8
256,192,55806,1,8
256,192,55900,5,0
256,192,56087,1,0
256,192,56275,5,8
256,192,56368,1,8
256,192,56462,1,8
256,192,56556,5,0
256,192,56650,1,0
256,192,56837,5,8
256,192,56931,5,0
256,192,57025,5,8
256,192,57212,1,8
256,192,57400,5,4
256,192,57587,1,0
256,192,57775,1,0
256,192,57868,5,8
256,192,58056,5,0
256,192,58337,1,0
256,192,58525,5,8
256,192,58618,5,0
256,192,58806,1,0
256,192,58900,5,8
256,192,59087,5,0
256,192,59275,5,8
256,192,59368,1,8
256,192,59556,5,0
256,192,59650,5,8
256,192,59743,1,8
256,192,59837,5,0
256,192,59931,1,0
256,192,60025,5,8
256,192,60118,1,8
256,192,60212,5,0
256,192,60306,5,8
256,192,60400,5,0
256,192,60587,5,8
256,192,60775,5,0
256,192,60868,1,0
256,192,60962,5,8
256,192,61150,5,0
256,192,61337,5,8
256,192,61431,5,0
256,192,61525,5,8
256,192,61712,5,0
256,192,61900,5,8
256,192,61993,1,8
256,192,62087,5,0
256,192,62181,1,0
256,192,62275,5,8
256,192,62368,1,8
256,192,62462,5,0
256,192,62556,1,0
256,192,62650,5,8
256,192,62837,5,0
256,192,62931,1,0
256,192,63025,5,8
256,192,63212,1,8
256,192,63400,5,4
256,192,63587,1,0
256,192,63775,5,8
256,192,64150,5,0
256,192,64900,1,0
256,192,65087,1,0
256,192,65275,1,0
256,192,65650,5,8
256,192,66400,5,4
256,192,66587,1,0
256,192,66775,5,8
256,192,67150,1,8
256,192,67243,1,8
256,192,67337,1,8
256,192,67431,5,0
256,192,67525,5,8
256,192,67712,1,8
256,192,67900,5,0
256,192,68275,1,0
256,192,68650,5,8
256,192,68743,5,0
256,192,68837,1,0
256,192,68931,1,0
256,192,69025,5,8
256,192,69118,1,8
256,192,69212,1,8
256,192,69306,1,8
256,192,69400,5,0
256,192,69775,1,0
256,192,70150,1,0
256,192,70243,1,0
256,192,70337,1,0
256,192,70431,1,0
256,192,70525,5,8
256,192,70712,1,8
256,192,70900,5,0
256,192,71275,1,0
256,192,71650,5,8
256,192,71743,1,8
256,192,71837,5,0
256,192,71931,1,0
256,192,72025,5,8
256,192,72212,1,8
256,192,72400,5,0
256,192,72775,1,0
256,192,73150,5,8
256,192,73525,5,0
256,192,73712,1,0
256,192,73806,1,0
256,192,73900,5,8
256,192,74087,1,8
256,192,75025,1,8
256,192,75400,5,4
256,192,75587,1,0
256,192,75681,1,0
256,192,75775,5,8
256,192,75962,5,0
256,192,76056,5,8
256,192,76150,5,0
256,192,76243,1,0
256,192,76337,5,8
256,192,76431,5,0
256,192,76525,5,8
256,192,76712,1,8
256,192,76806,5,0
256,192,76900,1,0
256,192,77087,5,8
256,192,77181,5,0
256,192,77275,5,8
256,192,77462,5,0
256,192,77743,1,0
256,192,77837,5,8
256,192,78025,1,8
256,192,78212,1,8
256,192,78306,1,8
256,192,78400,5,0
256,192,78587,1,0
256,192,78681,1,0
256,192,78775,5,8
256,192,78962,5,0
256,192,79056,1,0
256,192,79150,5,8
256,192,79337,5,0
256,192,79431,5,8
256,192,79525,5,0
256,192,79712,5,8
256,192,79900,1,8
256,192,79993,1,8
256,192,80087,5,0
256,192,80181,1,0
256,192,80275,5,8
256,192,80368,1,8
256,192,80462,5,0
256,192,80556,1,0
256,192,80650,5,8
256,192,80837,5,0
256,192,80931,1,0
256,192,81025,5,8
256,192,81212,5,0
256,192,81400,1,0
256,192,81493,1,0
256,192,81587,1,0
256,192,81681,1,0
256,192,81775,5,8
256,192,81868,1,8
256,192,81962,5,0
256,192,82150,1,0
256,192,82243,1,0
256,192,82337,1,0
256,192,82431,1,0
256,192,82525,5,8
256,192,82618,1,8
256,192,82712,5,0
256,192,82900,1,0
256,192,82993,1,0
256,192,83087,1,0
256,192,83181,1,0
256,192,83275,5,8
256,192,83368,1,8
256,192,83462,5,0
256,192,83650,1,0
256,192,83743,1,0
256,192,83837,1,0
256,192,83931,1,0
256,192,84025,5,8
256,192,84118,1,8
256,192,84212,5,0
256,192,84306,5,8
256,192,84400,1,8
256,192,84493,5,0
256,192,84587,1,0
256,192,84681,1,0
256,192,84775,5,8
256,192,84868,1,8
256,192,84962,1,8
256,192,85056,5,0
256,192,85150,5,8
256,192,85337,5,0
256,192,85431,1,0
256,192,85525,5,8
256,192,85712,1,8
256,192,85900,5,4
256,192,86087,5,8
256,192,86181,5,0
256,192,86275,5,8
256,192,86368,5,0
256,192,86462,5,8
256,192,86556,5,0
256,192,86650,5,8
256,192,86837,5,0
256,192,86931,1,0
256,192,87025,5,8
256,192,87212,1,8
256,192,87400,5,4
256,192,87587,1,0
256,192,87681,1,0
256,192,87775,5,8
256,192,87962,1,8
256,192,88056,5,0
256,192,88243,5,8
256,192,88337,5,0
256,192,88525,5,8
256,192,88712,5,0
256,192,88806,1,0
256,192,88900,1,0
256,192,89087,5,8
256,192,89181,5,0
256,192,89275,5,8
256,192,89462,1,8
256,192,89743,1,8
256,192,89837,5,0
256,192,90025,5,8
256,192,90212,5,0
256,192,90306,1,0
256,192,90400,1,0
256,192,90587,1,0
256,192,90775,5,12
256,192,91150,5,4
256,192,91431,5,12
256,192,91712,1,12
256,192,91993,5,4
256,192,92275,5,12
256,192,92556,1,12
256,192,92837,1,8
256,192,93025,5,0
256,192,93150,1,0
256,192,93275,1,0
256,192,93400,5,12
256,192,94150,5,0
256,192,94337,1,0
256,192,94525,5,8
256,192,94806,5,0
256,192,94900,5,8
256,192,95650,5,0
256,192,95743,1,0
256,192,95837,1,0
256,192,95931,1,0
256,192,96025,5,8
256,192,96306,5,0
256,192,96400,5,8
256,192,97150,5,0
256,192,97243,1,0
256,192,97337,1,0
256,192,97525,5,8
256,192,97806,5,0
256,192,97900,5,8
256,192,98650,5,0
256,192,98743,1,0
256,192,98837,1,0
256,192,98931,1,0
256,192,99025,1,0
256,192,99087,1,0
256,192,99150,1,0
256,192,99212,1,0
256,192,99275,1,0
256,192,99337,1,0
256,192,99400,1,0
256,192,105400,5,4
256,192,105775,5,0
256,192,105962,1,0
256,192,106150,5,8
256,192,106525,5,0
256,192,106712,1,0
256,192,106900,5,8
256,192,107087,5,0
256,192,107275,1,0
256,192,107462,1,0
256,192,107650,5,8
256,192,108025,5,0
256,192,108400,5,8
256,192,108775,5,0
256,192,108962,1,0
256,192,109150,5,8
256,192,109525,5,0
256,192,109712,1,0
256,192,109900,5,8
256,192,110087,5,0
256,192,110275,1,0
256,192,110462,1,0
256,192,110650,5,8
256,192,110743,5,0
256,192,110837,1,0
256,192,111025,1,0
256,192,111118,5,8
256,192,111306,1,8
256,192,111400,5,0
256,192,112150,5,8
256,192,112900,5,0
256,192,113650,5,8
256,192,114400,5,4
256,192,115900,1,0
256,192,116087,1,0
256,192,117025,5,8
256,192,117400,5,4
