osu file format v9

[General]
AudioFilename: axion.mp3
AudioLeadIn: 1511
PreviewTime: 51351
Countdown: 0
SampleSet: Normal
StackLeniency: 0.7
Mode: 0
LetterboxInBreaks: 1

[Editor]
Bookmarks: 13901,21963,51401,117351
DistanceSpacing: 1.2
BeatDivisor: 4
GridSize: 4

[Metadata]
Title:AXION
Artist:sakuzyo
Creator:rrtyui
Version:ROOK
Source:BMS
Tags:Wire Puller 2 wp2 MagicMashMan Magic Mash Man New Genuine Magicial Girl deadblue238 Chaos fantasia SoundCloud Deleted room Rein0527 Rein inaba-tan inaba9510

[Difficulty]
HPDrainRate:5
CircleSize:4
OverallDifficulty:6
ApproachRate:8
SliderMultiplier:1.4
SliderTickRate:1

[Events]
//Background and Video events
0,0,"BG.png"
Video,0,"BGA.flv"
//Break Periods
2,99600,104650
//Storyboard Layer 0 (Background)
//Storyboard Layer 1 (Fail)
//Storyboard Layer 2 (Pass)
//Storyboard Layer 3 (Foreground)
//Storyboard Sound Samples
//Background Colour Transformations
3,100,163,162,255

[TimingPoints]
400,375,4,1,0,60,1,0
1993,-100,4,2,0,60,0,0
7806,-100,4,1,0,60,0,0
7993,-100,4,2,0,60,0,0
13806,-100,4,1,0,80,0,0
13993,-100,4,1,0,38,0,0
17087,-100,4,1,0,40,0,0
20087,-100,4,1,0,45,0,0
25525,-100,4,1,0,48,0,0
26275,-100,4,2,0,80,0,0
27025,-100,4,1,0,40,0,0
27400,-100,4,1,0,60,0,0
51400,-100,4,1,0,60,0,1
63353,-100,4,1,0,60,0,0
63400,-100,4,1,0,60,0,1
63446,-133.333333333333,4,2,0,80,0,0
75446,-100,4,1,0,60,0,0
81493,-100,4,2,0,80,0,0
82665,-100,4,1,0,60,0,0
82993,-100,4,2,0,80,0,0
84306,-100,4,1,0,60,0,0
84493,-100,4,2,0,80,0,0
85571,-100,4,1,0,60,0,0
85993,-100,4,2,0,80,0,0
87071,-100,4,1,0,60,0,0
93306,-100,4,2,0,80,0,0
99446,-100,4,1,0,60,0,0

[Colours]
Combo1 : 0,43,132
Combo2 : 255,85,85
Combo3 : 77,135,255
Combo4 : 34,206,78
Combo5 : 226,243,18
Combo6 : 191,0,0

[HitObjects]
80,312,1900,38,0,B|116:248|88:176,1,140,4|0
4,184,2462,1,2
44,108,2650,2,0,B|8:40,2,70
88,177,3212,6,0,B|248:140,1,140,2|0
300,188,3775,1,0
368,136,3962,2,0,B|308:188|340:288,1,140,2|0
372,340,4525,70,0,B|336:348|336:348|306:363,1,70,0|2
256,296,4900,1,0
140,340,5087,2,0,B|176:348|176:348|220:372,1,70
256,296,5462,6,0,B|272:216|220:168,1,140,2|0
136,152,6025,1,0
136,152,6212,2,0,B|216:164|256:96,1,140,2|0
316,36,6775,1,0
316,36,6962,2,0,B|376:0|388:72|448:36,1,140,2|0
396,216,7712,70,0,B|380:284,1,70,2|4
336,356,8087,1,0
276,296,8275,1,0
196,324,8462,1,2
313,237,8837,6,0,B|288:256|276:297,1,70
336,356,9212,2,0,B|420:368|448:292,1,140,2|0
452,208,9775,1,0
452,124,9962,2,0,B|452:56,2,70,2|0|0
368,124,10525,70,0,B|332:112|300:124,1,70,0|2
299,203,10900,2,0,B|332:216|368:204,1,70
224,168,11275,1,0
272,100,11462,6,0,B|228:72|168:88|152:132,1,140,2|0
224,168,12025,1,0
162,217,12212,2,0,B|206:279|303:256|324:195|320:124|266:96,1,280,2|0
120,24,13337,70,0,B|92:60|92:112|64:152,1,140,0|4
28,228,13900,1,4
144,352,14275,54,0,B|112:332|108:292,2,70,8|0|0
184,284,14837,1,0
256,336,15025,2,0,B|256:260,2,70,8|0|0
328,284,15587,1,0
368,352,15775,2,0,B|400:332|404:292,2,70,8|0|0
300,188,16525,1,8
468,192,16900,5,2
368,32,17275,2,0,B|400:52|404:92,2,70,8|0|0
328,100,17837,1,0
256,48,18025,2,0,B|256:124,2,70,8|0|0
184,100,18587,1,0
144,32,18775,2,0,B|112:52|108:92,2,70,8|0|0
212,188,19525,1,8
44,192,19900,37,2
44,192,20275,2,0,B|112:192,1,70,8|0
156,264,20650,2,0,B|88:264,1,70
130,336,21025,2,0,B|200:336,1,70,8|0
284,336,21400,5,0
256,172,21775,1,8
256,172,21962,1,0
288,96,22149,2,0,B|356:116,1,70
224,248,22524,2,0,B|156:228,1,70,8|0
176,148,22900,6,0,B|216:80|184:8,2,140,2|8|2
108,96,23837,1,0
88,176,24025,1,8
152,232,24212,1,0
72,260,24400,6,0,B|4:220,2,70,6|0|8
152,232,24962,1,0
140,316,25150,2,0,B|200:280|212:352|272:316,1,140,2|8
272,315,25900,1,4
272,316,26650,70,0,B|247:248|271:176,2,140,2|2|4
336,264,27587,1,0
392,328,27775,2,0,B|460:352,1,70,8|0
448,268,28150,2,0,B|376:244,1,70
372,164,28525,2,0,B|438:186,1,70,8|0
428,100,28900,54,0,B|360:68|294:55,1,140,0|8
256,132,29462,1,0
217,55,29650,2,0,B|152:68|84:100,1,140,0|8
140,160,30212,1,0
140,160,30400,38,0,B|112:224,2,70,0|0|8
204,216,30962,1,0
204,216,31150,2,0,B|212:284,2,70,0|0|8
287,232,31712,1,0
287,232,31900,54,0,B|327:286,1,70
392,232,32275,2,0,B|454:259,1,70,8|0
456,124,32650,2,0,B|392:152,1,70,0|0
328,95,33025,2,0,B|287:152,1,70,8|0
220,100,33400,6,0,B|248:164|200:232,2,140,0|8|0
152,152,34337,1,0
112,80,34525,1,8
88,228,34900,54,0,B|156:240|216:284,1,140,0|8
424,228,35650,2,0,B|356:240|296:284,1,140,0|8
256,208,36212,1,0
332,176,36400,38,0,B|364:156|400:156,1,70
296,104,36775,2,0,B|300:68|320:40,1,70,8|0
216,104,37150,2,0,B|212:68|192:40,1,70,0|0
180,176,37525,2,0,B|148:156|112:156,1,70,8|0
124,240,37900,54,0,B|192:284|160:364,1,140,4|8
224,304,38462,1,0
288,360,38650,2,0,B|304:292,1,70
372,340,39025,2,0,B|412:284,1,70,8|0
496,268,39400,6,0,B|504:232|496:200,1,70,2|0
468,120,39775,2,0,B|400:132|352:192,1,140,8|0
276,232,40337,1,0
220,168,40525,2,0,B|248:140|296:152,1,70,8|0
332,296,40900,54,0,B|304:324|256:312,1,70,0|0
145,287,41275,2,0,B|208:256,1,70,8|0
84,236,41650,2,0,B|122:177,1,70
6,223,42025,2,0,B|10:153,1,70,8|0
16,68,42400,22,0,B|88:44|152:88,1,140,2|8
216,36,42962,1,0
228,120,43150,2,0,B|264:112|288:80,1,70
336,152,43525,2,0,B|363:127|367:87,1,70,8|0
464,80,43900,54,0,B|428:216,2,140,0|8|0
388,116,44837,1,0
316,72,45025,2,0,B|296:104|308:140,1,70,8|0
364,200,45400,38,0,B|368:280|296:312,2,140,2|8|0
264,164,46337,2,0,B|262:200|283:229,1,70,0|8
313,98,46712,1,0
313,98,46900,54,0,B|281:78|246:82,1,70,2|0
344,172,47275,2,0,B|416:132|384:52,2,140,8|0|8
313,98,48212,1,0
264,164,48400,22,0,B|188:172|128:128,1,140,2|8
88,200,48962,1,0
168,220,49150,2,0,B|209:163|201:87,1,140,2|8
128,52,49712,1,0
128,52,49900,54,0,B|88:88|100:140|56:176,1,140,4|8
92,328,50650,2,0,B|124:340,3,35
168,328,51025,2,0,B|200:316,3,35,8|0|0|0
244,332,51400,6,0,B|292:280|368:272,1,140,2|8
428,328,51962,1,0
348,352,52150,2,0,B|296:304|288:228,1,140,0|8
164,32,52900,2,0,B|216:80|224:156,1,140,2|8
168,216,53462,1,0
144,136,53650,2,0,B|192:84|268:76,1,140,0|8
308,240,54400,6,0,B|378:235|432:181,1,140,2|8
426,99,54962,1,0
357,146,55150,2,0,B|361:216|415:270,1,140,0|8
268,352,55900,54,0,B|263:281|209:227,1,140,2|8
127,234,56462,1,0
174,303,56650,2,0,B|244:298|298:244,1,140,2|8
288,76,57400,6,0,B|280:112|286:145,2,70,4|0|10
364,116,57962,2,0,B|392:184|364:256,1,140
287,283,58525,2,0,B|259:215|287:143,1,140,10|0
136,220,59275,1,10
136,220,59462,2,0,B|164:152|136:80,1,140
59,53,60025,2,0,B|31:120|59:193,1,140,10|2
104,352,60775,6,0,B|176:336|216:272,1,140,8|2
408,352,61525,2,0,B|336:336|296:272,1,140,8|2
256,76,62275,1,8
256,76,62650,2,0,B|240:140|272:156|256:216,2,140,2|8|12
88,56,63775,5,0
88,56,64150,2,0,B|68:108|84:160,1,104.999996870756,2|0
184,236,64900,2,0,B|184:128,1,104.999996870756,2|0
284,208,65650,2,0,B|300:260|280:312,1,104.999996870756,8|0
112,264,66400,5,4
112,264,66775,2,0,B|216:264,1,104.999996870756,0|2
260,144,67525,2,0,B|156:144,1,104.999996870756,0|2
44,200,68275,1,0
56,76,68650,2,0,B|152:8|252:76,1,209.999993741512,8|4
376,48,69775,69,0
340,168,70150,2,0,B|356:220|340:272,1,104.999996870756,8|0
256,176,70900,1,2
256,304,71275,1,0
172,168,71650,2,0,B|156:220|172:272,1,104.999996870756,8|0
256,176,72400,5,4
256,48,72775,1,0
256,176,73150,1,2
208,292,73525,2,0,B|256:324|308:292,1,104.999996870756,0|12
352,80,74650,2,0,B|253:16|153:80,1,209.999993741512,2|4
76,52,75587,37,0
96,132,75775,2,0,B|60:192,1,70,8|0
144,200,76150,2,0,B|136:268,1,70
216,248,76525,2,0,B|232:320,1,70,8|0
300,268,76900,54,0,B|348:204|332:136,1,140,0|8
280,68,77462,1,0
212,116,77650,2,0,B|164:180|180:248,1,140,0|8
232,315,78212,1,0
300,268,78400,38,0,B|368:288,1,70
432,212,78775,2,0,B|364:212,1,70,8|0
300,156,79150,2,0,B|433:116,1,140,0|8
404,40,79712,1,0
324,68,79900,54,0,B|256:88|256:88|188:68,1,140,0|8
108,40,80462,1,0
78,116,80650,2,0,B|212:156,1,140,0|8
292,180,81212,1,0
228,236,81400,6,0,B|204:260,3,35,0|0|0|0
168,284,81775,2,0,B|100:284,1,70,2|0
32,228,82150,2,0,B|56:204,3,35
92,180,82525,2,0,B|160:180,1,70,2|0
248,180,82900,54,0,B|272:156,3,35,0|0|0|0
308,132,83275,2,0,B|376:132,1,70,2|0
444,188,83650,2,0,B|420:212,3,35
384,236,84025,2,0,B|316:236,1,70,2|0
248,180,84400,38,0,B|216:164,3,35
176,180,84775,2,0,B|144:196,3,35,2|0|0|0
104,176,85150,2,0,B|88:144,3,35
104,104,85525,2,0,B|120:72,3,35,2|0|0|0
104,32,85900,54,0,B|136:48,3,35,4|2|2|2
176,32,86275,2,0,B|208:16,3,35,2|2|2|2
248,36,86650,2,0,B|232:68,3,35,2|2|2|2
248,108,87025,2,0,B|264:140,3,35,2|4|0|0
308,152,87400,6,0,B|376:152,1,70,6|0
444,92,87775,2,0,B|408:156|432:228,1,140,8|0
468,304,88337,1,0
432,228,88525,2,0,B|396:216|364:228,1,70,8|0
304,288,88900,6,0,B|224:300|184:228,1,140,2|8
272,208,89462,1,0
236,128,89650,2,0,B|316:116|356:184,1,140,0|8
272,208,90212,1,0
236,128,90400,6,0,B|212:104,3,35
184,80,90775,2,0,B|112:80,1,70,6|0
204,200,91150,2,0,B|100:200,1,105,2|2
308,200,91712,2,0,B|412:200,1,105,2|2
256,136,92275,2,0,B|256:32,1,105,2|6
256,268,92837,5,2
256,275,93025,2,2,B|256:323,2,46.6666666666667
256,192,93400,1,4
256,192,93587,12,4,94900
256,192,94993,12,6,96400
256,192,96493,12,4,97900
256,192,97993,12,6,99400
88,308,105400,38,0,B|136:248|212:264,1,140,4|0
260,332,105962,1,0
176,344,106150,2,0,B|124:208,1,140,8|0
236,84,106900,6,0,B|188:144|112:128,1,140,4|0
64,60,107462,1,0
148,48,107650,2,0,B|200:184,1,140,8|0
356,232,108400,38,0,B|296:184|312:108,1,140,4|0
380,60,108962,1,0
392,144,109150,2,0,B|256:196,1,140,8|0
104,256,109900,6,0,B|175:228|233:279,1,140,4|0
240,362,110462,1,0
162,331,110650,2,0,B|184:187,1,140,8|0
184,192,111400,37,6
312,84,111775,1,0
313,244,112150,2,0,B|184:192,1,140,8|0
28,128,112900,5,6
184,192,113275,1,0
20,268,113650,2,0,B|28:128,1,140,8|0
184,192,114400,37,4
256,192,114587,12,4,117400
