osu file format v9

[General]
AudioFilename: axion.mp3
AudioLeadIn: 1511
PreviewTime: 51351
Countdown: 0
SampleSet: Normal
StackLeniency: 0.7
Mode: 0
LetterboxInBreaks: 1

[Editor]
DistanceSpacing: 1.2
BeatDivisor: 4
GridSize: 4

[Metadata]
Title:AXION
Artist:sakuzyo
Creator:rrtyui
Version:QUEEN
Source:BMS
Tags:Wire Puller 2 wp2 MagicMashMan Magic Mash Man New Genuine Magicial Girl deadblue238 Chaos fantasia SoundCloud Deleted room Rein0527 Rein inaba-tan inaba9510

[Difficulty]
HPDrainRate:6
CircleSize:4
OverallDifficulty:7
ApproachRate:8
SliderMultiplier:1.6
SliderTickRate:1

[Events]
//Background and Video events
Video,0,"BGA.flv"
0,0,"BG.png"
//Break Periods
2,99600,104650
//Storyboard Layer 0 (Background)
//Storyboard Layer 1 (Fail)
//Storyboard Layer 2 (Pass)
//Storyboard Layer 3 (Foreground)
//Storyboard Sound Samples
//Background Colour Transformations
3,100,163,162,255

[TimingPoints]
400,375,4,2,0,60,1,0
1993,-100,4,2,0,40,0,0
7806,-100,4,1,0,40,0,0
7993,-100,4,2,0,40,0,0
13900,-100,4,1,0,60,0,0
13993,-100,4,1,0,30,0,0
26040,-100,4,2,0,60,0,0
26931,-100,4,2,0,30,0,0
27212,-100,4,1,0,40,0,0
51400,-100,4,1,0,60,0,1
61243,-100,4,2,0,80,0,1
61525,-100,4,1,0,60,0,1
61618,-100,4,2,0,80,0,1
61900,-100,4,1,0,60,0,1
62743,-100,4,2,0,80,0,1
63025,-100,4,1,0,60,0,1
63118,-100,4,2,0,80,0,1
63353,-133.333333333333,4,1,0,70,0,0
63400,-133.333333333333,4,1,0,70,0,1
63446,-133.333333333333,4,2,0,80,0,0
74650,-100,4,2,0,80,0,0
74743,-100,4,1,0,40,0,0
75400,-100,4,2,0,80,0,0
75587,-100,4,1,0,60,0,0
81775,-100,4,2,0,80,0,0
81962,-100,4,2,0,40,0,0
82150,-100,4,1,0,60,0,0
82525,-100,4,2,0,80,0,0
82712,-100,4,2,0,40,0,0
82900,-100,4,1,0,60,0,0
83275,-100,4,2,0,80,0,0
83462,-100,4,2,0,40,0,0
83650,-100,4,1,0,60,0,0
84025,-100,4,2,0,80,0,0
84212,-100,4,2,0,40,0,0
84400,-100,4,1,0,60,0,0
84775,-100,4,2,0,80,0,0
84962,-100,4,2,0,40,0,0
85150,-100,4,1,0,60,0,0
85525,-100,4,2,0,80,0,0
85712,-100,4,2,0,40,0,0
85900,-100,4,1,0,60,0,0
86275,-100,4,2,0,80,0,0
86650,-100,4,1,0,60,0,0
87025,-100,4,2,0,80,0,0
87681,-100,4,1,0,60,0,0
93400,-100,4,1,0,70,0,0
94900,-100,4,2,0,50,0,0
96400,-100,4,2,0,60,0,0
97900,-100,4,2,0,70,0,0
99400,-100,4,2,0,80,0,0
105400,-100,4,1,0,60,0,0

[Colours]
Combo1 : 0,43,132
Combo2 : 255,85,85
Combo3 : 77,135,255
Combo4 : 34,206,78
Combo5 : 226,243,18
Combo6 : 191,0,0

[HitObjects]
64,96,1806,37,0
64,96,1900,2,0,B|108:112|132:168,1,80,4|2
184,224,2275,2,0,B|225:242|283:235,1,80,2|2
262,237,2837,5,0
328,312,3025,2,0,B|363:292|381:236,1,80,0|2
414,247,3306,2,0,B|410:100,1,120,2|2
408,32,3775,1,0
320,68,3962,1,0
320,68,4337,70,0,B|380:92|460:68,1,120,2|2
438,73,4712,2,0,B|476:159,1,80,0|2
504,240,5087,1,0
408,264,5275,1,0
480,328,5462,1,2
480,328,5837,5,0
408,264,6025,2,0,B|312:264,1,80,0|2
304,296,6306,2,0,B|245:257|227:178,1,120,2|2
192,120,6775,1,0
192,120,6962,1,0
192,120,7337,70,0,B|247:149|332:120,1,120,2|2
344,144,7712,1,0
424,196,7900,1,4
328,220,8087,1,0
408,272,8275,1,0
312,296,8462,1,2
312,296,8837,6,0,B|252:268|192:296,1,120,0|2
195,294,9212,2,0,B|126:218,1,80,0|2
8,176,9587,2,0,B|77:252,1,80,2|0
120,312,9962,1,0
120,312,10337,70,0,B|180:277|204:200,1,120,0|2
232,216,10712,1,0
272,208,10806,1,0
312,200,10900,1,2
384,136,11087,1,0
384,136,11275,2,0,B|453:212,1,80,0|2
437,195,11837,6,0,B|375:210|354:287,1,120,2|2
320,288,12212,2,0,B|240:279,1,80,0|2
122,200,12587,2,0,B|201:208,1,80,2|0
296,221,12962,1,0
424,80,13337,70,0,B|368:112|284:80,1,120,0|2
272,104,13712,1,0
232,120,13806,1,0
192,136,13900,54,0,B|96:120,1,80,4|0
16,104,14275,1,8
48,192,14462,1,0
48,192,14556,1,0
48,192,14650,2,0,B|144:208,1,80,0|0
240,296,15025,2,0,B|144:280,1,80,8|0
64,272,15400,1,0
112,152,15587,5,0
224,96,15775,1,8
352,80,15962,1,0
388,96,16056,1,0
392,136,16150,2,0,B|464:184,1,80
488,272,16525,1,8
400,304,16712,1,0
376,336,16806,1,0
336,336,16900,2,0,B|240:360,1,80
152,256,17275,2,0,B|232:280,1,80,8|0
320,240,17650,70,0,B|396:193|439:128,1,160,0|8
440,40,18212,1,0
344,40,18400,2,0,B|298:91|227:101,1,120
216,128,18775,1,8
192,160,18869,1,0
168,192,18963,1,0
72,176,19150,1,0
40,264,19337,2,0,B|152:296,1,80,0|8
256,328,19712,2,0,B|144:360,1,80
80,352,20087,1,0
112,328,20181,1,0
120,288,20275,2,0,B|168:280|208:240,1,80,8|0
308,147,20650,6,0,B|232:194|189:259,1,160,0|8
256,328,21212,1,0
344,280,21400,2,0,B|304:232|216:216,1,120
264,192,21775,1,8
288,160,21869,1,0
312,128,21963,1,0
232,80,22150,1,0
312,32,22337,2,0,B|384:88,1,80,0|8
480,184,22712,2,0,B|392:160,1,80
312,128,23087,1,0
264,144,23181,1,0
224,120,23275,2,0,B|184:112|136:120,1,80,8|0
88,192,23650,70,0,B|144:224|184:304,1,120
208,280,24025,1,8
312,320,24212,1,0
350,215,24400,2,0,B|262:183|206:95,1,160,0|8
152,32,24962,1,0
104,120,25150,2,0,B|232:120,1,120
256,96,25525,1,8
344,72,25712,1,0
424,152,25900,6,0,B|472:192,7,40,4|0|2|2|2|2|2|2
416,192,26650,2,0,B|288:248,1,120,0|0
264,232,27025,1,0
168,216,27212,37,0
152,176,27306,1,0
120,152,27400,2,0,B|136:112|176:88,1,80
264,64,27775,1,8
296,88,27868,1,0
360,160,28056,1,0
392,136,28149,2,0,B|437:120|487:119,2,80,0|0|8
240,248,28900,5,0
144,264,29087,1,0
64,208,29275,1,8
240,248,29650,1,0
336,232,29837,1,0
416,288,30025,1,8
440,96,30400,70,0,B|400:132|356:142,1,80
290,187,30775,2,0,B|249:221|233:264,1,80,8|0
184,328,31150,1,0
104,272,31337,1,0
184,328,31525,1,8
184,328,31900,6,0,B|242:292|309:303,1,120
298,301,32275,2,0,B|335:293|369:236,1,80,8|0
416,176,32650,1,0
408,136,32743,1,0
432,104,32837,2,0,B|425:66|368:32,1,80,0|8
296,72,33212,69,0
264,96,33306,1,0
232,120,33400,2,0,B|184:128|136:105,2,80,0|0|8
248,160,33868,1,0
328,216,34056,1,0
368,232,34149,2,0,B|415:234|463:220,2,80,0|0|8
184,168,34900,5,0
128,248,35088,1,0
144,344,35275,1,8
328,216,35650,1,0
384,136,35838,1,0
368,40,36025,1,8
192,96,36400,70,0,B|200:137|241:178,1,80
320,288,36775,2,0,B|311:246|270:205,1,80,8|0
184,168,37150,1,0
328,216,37337,1,0
184,168,37525,1,8
184,168,37900,6,0,B|160:224|96:260,1,120
72,280,38275,2,0,B|144:336,1,80,8|0
232,328,38650,1,0
272,344,38743,1,0
312,328,38837,2,0,B|350:321|384:264,1,80,0|8
336,192,39212,37,0
312,160,39306,1,0
280,144,39400,2,0,B|312:89|367:79,2,80,0|0|8
200,192,39962,2,0,B|144:168,2,40
208,280,40337,1,0
288,240,40525,2,0,B|320:296,1,40,8|0
400,312,40806,2,0,B|368:256,1,40
336,192,41087,1,0
368,100,41275,1,8
260,156,41462,5,0
248,196,41556,1,0
260,236,41650,1,0
288,264,41744,1,0
328,272,41838,2,0,B|391:266|423:220,2,80,0|8|0
248,344,42400,1,0
216,320,42493,2,0,B|152:312,3,40,0|0|0|8
80,296,42962,1,0
104,256,43056,1,0
64,168,43243,1,0
88,128,43337,1,0
48,40,43525,1,8
144,56,43712,1,0
184,64,43806,1,0
224,72,43900,1,0
320,96,44087,70,0,B|318:140|278:192,1,80,0|8
208,216,44462,1,0
208,216,44556,1,0
144,288,44743,1,0
144,288,44837,1,0
240,312,45025,2,0,B|336:312,1,80,8|0
416,312,45400,6,0,B|446:320|497:378,2,80,0|0|8
320,312,45962,1,0
320,312,46056,1,0
248,248,46243,1,0
248,248,46337,1,0
216,160,46525,2,0,B|112:160,1,80,8|0
96,72,46900,70,0,B|144:40|232:40,1,120
208,80,47275,2,0,B|288:120,1,80,8|0
360,160,47650,1,0
392,248,47837,1,0
368,280,47931,1,0
328,296,48025,1,8
248,248,48212,1,0
176,312,48400,6,0,B|109:279|76:204,1,120
122,205,48775,2,0,B|110:163|131:100,1,80,8|0
208,80,49150,1,0
304,104,49337,1,0
320,144,49431,1,0
360,160,49525,1,8
456,176,49712,1,0
392,248,49900,69,0
296,264,50087,1,0
256,280,50181,1,0
224,296,50275,1,8
136,336,50462,1,0
64,272,50650,1,0
72,256,50743,1,0
80,240,50837,1,0
88,224,50931,1,0
96,208,51025,1,8
104,192,51118,1,0
112,176,51212,1,0
120,160,51306,1,0
128,144,51400,54,0,B|184:144|232:72,1,120,4|0
264,96,51775,2,0,B|316:77|357:122,1,80,8|0
424,184,52150,1,0
364,278,52337,1,0
280,200,52525,1,8
340,106,52712,1,0
280,200,52900,6,0,B|224:200|176:272,1,120
144,248,53275,2,0,B|92:267|51:222,1,80,8|0
41,109,53650,1,0
145,31,53838,1,0
169,158,54024,1,8
68,238,54212,1,0
169,158,54400,70,0,B|224:160|265:88,1,120
296,112,54775,2,0,B|348:93|389:138,1,80,8|0
496,200,55150,1,0
464,344,55337,1,0
344,264,55525,1,8
372,122,55712,1,0
344,264,55900,6,0,B|289:262|248:334,1,120
216,304,56275,2,0,B|164:323|123:278,1,80,8|0
87,141,56650,1,0
211,39,56837,1,0
265,195,57025,1,8
140,294,57212,1,0
265,195,57400,6,0,B|329:139,1,80
368,144,57681,1,0
400,120,57775,1,8
448,200,57962,2,0,B|448:248,1,40
488,136,58243,2,0,B|488:88,1,40
448,240,58524,1,8
448,240,58617,1,0
448,240,58712,1,0
352,256,58900,6,0,B|288:312,1,80
256,328,59181,1,0
216,320,59275,1,8
144,256,59462,2,0,B|96:256,1,40
208,208,59743,2,0,B|256:208,1,40
104,256,60024,1,8
104,256,60117,1,0
104,256,60212,1,0
120,160,60400,70,0,B|85:138|17:143,2,80,0|0|8
208,208,60962,1,0
224,208,61056,1,0
240,208,61150,2,0,B|280:208,3,40
296,208,61525,1,8
312,208,61618,1,0
328,208,61712,1,0
344,208,61806,1,0
360,208,61900,6,0,B|394:229|462:224,2,80,0|0|8
272,176,62462,1,0
256,176,62556,1,0
240,176,62650,2,0,B|200:176,3,40
184,176,63025,1,8
168,176,63118,1,0
152,176,63212,1,0
136,176,63306,1,0
120,176,63400,5,12
116,296,63775,1,2
116,296,63962,2,0,B|76:296,2,29.9999991059304,0|0|2
196,248,64337,1,0
276,288,64525,2,0,B|350:304|390:216,1,119.999996423721,8|2
436,168,65087,1,0
396,88,65275,5,2
396,88,65462,2,0,B|436:88,2,29.9999991059304,0|0|2
316,136,65837,1,0
236,96,66025,2,0,B|162:80|122:168,1,119.999996423721,8|2
76,216,66587,1,0
192,320,66775,1,2
220,236,66962,1,0
160,168,67150,70,0,B|272:88,1,119.999996423721,0|8
352,216,67712,1,2
352,216,67900,2,0,B|240:296,1,119.999996423721,0|8
160,168,68462,1,2
224,104,68650,6,0,B|252:116,3,30.0000011444092,0|2|2|2
288,92,69025,70,0,B|360:112,2,40.000001525879,0|2|2
368,88,69400,5,6
396,296,69775,69,2
396,296,69962,2,0,B|436:296,2,29.9999991059304,0|0|2
316,248,70337,1,0
236,288,70525,2,0,B|162:304|122:216,1,119.999996423721,8|2
76,168,71087,1,0
116,88,71275,5,2
116,88,71462,2,0,B|76:88,2,29.9999991059304,0|0|2
196,136,71837,1,0
276,96,72025,2,0,B|350:80|390:168,1,119.999996423721,8|6
436,216,72587,1,0
320,320,72775,69,2
292,236,72962,1,0
352,168,73150,1,0
256,192,73337,1,0
192,64,73525,1,2
220,148,73712,1,0
160,216,73900,1,12
432,120,74650,53,6
408,112,74743,1,0
384,112,74837,1,0
360,120,74931,1,0
336,136,75025,1,0
320,152,75118,1,0
296,160,75212,1,0
272,160,75306,1,0
256,152,75400,6,0,B|215:183|151:177,1,80,6|0
181,177,75681,1,0
181,177,75775,2,0,B|124:262,1,80,8|0
96,336,76150,1,0
96,336,76243,1,0
192,344,76431,1,0
192,344,76525,2,0,B|240:344|280:304,1,80,8|0
352,272,76900,70,0,B|328:216|328:136,1,120
344,120,77275,2,0,B|320:80|272:40,1,80,8|0
200,32,77650,1,0
112,80,77838,1,0
100,116,77931,1,0
128,144,78025,2,0,B|151:195|204:218,1,80,8|0
296,288,78400,6,0,B|337:257|401:263,1,80
371,263,78681,1,0
371,263,78775,2,0,B|428:178,1,80,8|0
440,88,79150,2,0,B|376:80,1,40
312,48,79431,1,0
312,48,79525,2,0,B|264:48|224:88,1,80,8|0
192,160,79900,70,0,B|248:184|328:184,1,120
344,168,80275,2,0,B|384:192|424:240,1,80,8|0
448,304,80650,1,0
352,312,80838,1,0
312,328,80931,1,0
272,328,81025,1,8
184,296,81212,1,0
104,240,81400,53,0
112,224,81493,1,0
128,216,81587,1,0
144,216,81681,1,0
160,224,81775,2,0,B|228:248,3,40
216,240,82150,5,0
232,240,82243,1,0
248,240,82337,1,0
264,232,82431,1,0
280,224,82525,2,0,B|344:192,3,40
328,192,82900,69,0
344,184,82993,1,0
352,168,83087,1,0
368,160,83181,1,0
384,152,83275,2,0,B|452:176,3,40
432,176,83650,5,0
440,184,83743,1,0
448,200,83837,1,0
448,216,83931,1,0
440,232,84025,2,0,B|472:296,3,40
448,280,84400,70,0,B|400:312,3,40
400,288,84775,6,0,B|352:320,3,40
352,296,85150,70,0,B|304:328,3,40
304,304,85525,6,0,B|256:336,3,40
256,320,85900,69,0
240,312,85993,1,0
224,304,86087,1,0
208,296,86181,1,0
216,280,86275,5,0
200,272,86368,1,0
184,264,86462,1,0
168,256,86556,1,0
176,240,86650,69,0
160,232,86743,1,0
144,224,86837,1,0
128,216,86931,1,0
136,200,87025,5,0
120,192,87118,1,0
104,184,87212,1,0
88,176,87306,1,0
72,168,87400,6,0,B|120:112|136:48,1,120,6|0
160,96,87775,2,0,B|192:72|248:56,1,80,8|0
328,80,88150,1,0
328,80,88243,1,0
408,136,88431,1,0
408,136,88525,2,0,B|456:136|496:96,1,80,8|0
408,232,88900,6,0,B|352:208|272:208,1,120
256,224,89275,2,0,B|216:200|176:152,1,80,8|0
152,88,89650,1,0
104,168,89837,1,0
88,176,89931,1,0
72,184,90025,1,8
40,272,90212,1,0
136,256,90400,1,0
152,272,90493,1,0
168,288,90587,1,0
184,304,90681,1,0
200,320,90775,1,12
344,128,91150,37,4
168,128,91431,1,0
256,336,91712,1,0
416,192,91993,5,4
96,192,92275,1,0
256,48,92556,1,0
256,336,92837,1,0
296,224,93025,2,0,B|368:232,2,53.3333333333333,4|0|4
256,192,93400,1,4
256,192,93493,12,4,94900
256,192,94993,12,4,96400
256,192,96493,12,4,97900
256,192,97993,12,4,99400
168,88,105400,6,0,B|267:88|335:161,1,160,4|8
440,240,106150,1,0
296,312,106525,1,8
376,176,106900,5,0
240,88,107275,1,8
256,120,107462,1,0
288,144,107650,1,0
344,296,108025,1,8
344,296,108400,38,0,B|245:296|177:223,1,160,4|8
72,144,109150,1,0
216,72,109525,1,8
136,208,109900,5,0
272,296,110275,1,8
256,264,110462,1,0
224,240,110650,1,0
168,88,111025,1,8
168,88,111400,37,4
360,120,111775,1,0
200,232,112150,2,0,B|288:237|344:296,1,160,8|0
344,296,112900,5,4
152,264,113275,1,0
312,152,113650,2,0,B|223:146|168:88,1,160,8|0
169,89,114400,37,4
256,192,114493,12,4,117400
