osu file format v9

[General]
AudioFilename: axion.mp3
AudioLeadIn: 0
PreviewTime: 51351
Countdown: 0
SampleSet: Normal
StackLeniency: 0.7
Mode: 0
LetterboxInBreaks: 1

[Editor]
Bookmarks: 13901,39351,51351,117351
DistanceSpacing: 0.8
BeatDivisor: 4
GridSize: 4

[Metadata]
Title:AXION
Artist:sakuzyo
Creator:rrtyui
Version:PAWN
Source:BMS
Tags:Wire Puller 2 wp2 MagicMashMan Magic Mash Man New Genuine Magicial Girl deadblue238 Chaos fantasia SoundCloud Deleted room Rein0527 Rein inaba-tan inaba9510

[Difficulty]
HPDrainRate:2
CircleSize:3
OverallDifficulty:3
ApproachRate:2
SliderMultiplier:0.699999999999999
SliderTickRate:1

[Events]
//Background and Video events
0,0,"BG.png"
Video,0,"BGA.flv"
//Break Periods
2,99600,103840
//Storyboard Layer 0 (Background)
//Storyboard Layer 1 (Fail)
//Storyboard Layer 2 (Pass)
//Storyboard Layer 3 (Foreground)
//Storyboard Sound Samples
//Background Colour Transformations
3,100,163,162,255

[TimingPoints]
400,375,4,1,0,60,1,0
13993,-100,4,1,0,38,0,0
16571,-100,4,1,0,40,0,0
19946,-100,4,1,0,45,0,0
27212,-100,4,1,0,60,0,0
51400,-100,4,1,0,60,0,1
63353,-100,4,1,0,60,0,0
63400,-100,4,1,0,60,0,1
63446,-100,4,2,0,80,0,0
64853,-100,4,2,0,60,0,0
64946,-100,4,2,0,85,0,0
75353,-100,4,2,0,80,0,0
75446,-100,4,1,0,60,0,0
81493,-100,4,2,0,80,0,0
82806,-100,4,1,0,60,0,0
82993,-100,4,2,0,80,0,0
84306,-100,4,1,0,60,0,0
84493,-100,4,2,0,80,0,0
85337,-100,4,1,0,60,0,0
85993,-100,4,2,0,80,0,0
86837,-100,4,1,0,60,0,0
91853,-100,4,1,0,35,0,0
92321,-100,4,1,0,60,0,0
96353,-100,4,2,0,60,0,0
99353,-100,4,2,0,80,0,0
99446,-100,4,1,0,60,0,0

[Colours]
Combo1 : 0,43,132
Combo2 : 255,85,85
Combo3 : 77,135,255
Combo4 : 34,206,78
Combo5 : 226,243,18
Combo6 : 191,0,0

[HitObjects]
120,103,13900,38,0,B|168:100|212:108|260:104,1,140,4|0
316,104,15025,1,8
372,104,15400,2,0,B|372:36,2,69.9999999999999,0|8|0
484,108,16900,6,0,B|464:248,1,140,0|8
356,280,18400,2,0,B|376:140,1,140,0|8
348,92,19525,1,0
292,92,19900,70,0,B|224:92,2,69.9999999999999,2|8|0
244,192,21400,2,0,B|312:192,2,69.9999999999999,0|8|0
292,292,22900,2,0,B|224:292,2,69.9999999999999,2|8|0
404,292,24400,2,0,B|468:240|448:160,2,140,4|8|4
192,220,27400,54,0,B|52:220,1,140,4|0
32,168,28525,1,8
32,112,28900,2,0,B|27:74|46:41,2,69.9999999999999,0|8|0
144,112,30400,6,0,B|212:104|212:104|284:112,1,140,0|8
392,92,31900,2,0,B|392:232,1,140,0|8
348,268,33025,1,0
292,276,33400,38,0,B|260:336,2,69.9999999999999,0|8|0
252,172,34900,2,0,B|284:112,2,69.9999999999999,0|8|0
188,264,36400,6,0,B|120:292|52:264,1,140,0|8
32,212,37525,1,0
72,172,37900,2,0,B|140:172,1,69.9999999999999,4|8
144,116,38650,2,0,B|212:116,1,69.9999999999999,0|8
256,76,39400,6,0,B|256:216,2,140,6|8|0
308,56,41275,2,0,B|344:44|376:56,1,69.9999999999999,8|0
428,80,42025,1,8
464,120,42400,54,0,B|488:192|460:256,1,140,2|8
368,324,43900,2,0,B|368:184,1,140,0|8
324,148,45025,1,0
268,140,45400,38,0,B|264:176|240:204,2,69.9999999999999,2|8|0
160,116,46900,2,0,B|160:44,2,69.9999999999999,2|8|0
52,140,48400,2,0,B|56:176|80:204,2,69.9999999999999,2|8|2
112,48,49900,54,0,B|184:32|252:48,1,140,4|0
304,56,51025,1,8
356,80,51400,6,0,B|432:208,1,140,6|8
376,300,52900,2,0,B|304:179,1,140,2|8
256,152,54025,1,0
207,179,54400,6,0,B|136:300,1,140,2|8
84,200,55900,2,0,B|156:80,1,140,2|2
192,40,57025,1,8
248,36,57400,38,0,B|304:32|352:56,2,105,4|0|8
220,84,58900,2,0,B|164:88|115:64,2,105,0|0|8
244,132,60400,6,0,B|312:144|312:144|380:132,1,140,2|0
440,132,61525,1,8
496,144,61900,2,0,B|512:220|468:276,1,140,2|0
368,324,63400,37,12
272,268,64150,2,0,B|204:240|136:268,2,140,0|2|8
384,260,66400,2,0,B|460:228|464:148,2,140,4|8|0
288,204,68650,2,0,B|288:64,1,140,8|4
256,192,69587,12,8,73900
160,56,75400,54,0,B|100:104|88:176,1,140,4|0
156,260,76900,2,0,B|156:328,2,69.9999999999999,0|8|0
256,212,78400,6,0,B|396:212,2,140,0|8|0
228,164,80275,2,0,B|160:164,2,69.9999999999999,8|0|8
256,116,81400,38,0,B|396:116,1,140,0|2
456,212,82900,2,0,B|316:212,1,140,0|2
204,216,84400,6,0,B|136:244|68:216,1,140,0|2
40,168,85525,1,0
64,116,85900,2,0,B|132:96|204:116,1,140,4|2
256,120,87025,1,0
312,108,87400,6,0,B|316:72|304:32,2,69.9999999999999,6|8|0
424,92,88900,2,0,B|440:160|400:232,1,140,2|0
364,268,90025,1,8
308,280,90400,6,0,B|240:296|168:280,1,140
88,256,91712,1,0
20,136,92650,2,0,B|92:120|160:136,1,140,4|2
256,192,93587,12,4,96400
256,192,96493,12,6,99400
92,108,105400,70,0,B|92:252,2,140,4|8|4
136,76,107275,1,0
192,76,107650,1,8
304,76,108400,6,0,B|320:144|320:144|304:212,1,140,4|8
284,264,109525,1,0
256,312,109900,2,0,B|188:328|188:328|120:312,1,140,4|12
44,228,111400,6,0,B|184:228,1,140,6|8
260,144,112900,2,0,B|120:144,1,140,6|8
80,108,114025,1,0
36,144,114400,1,4
256,192,114587,12,4,117400
