osu file format v9

[General]
AudioFilename: axion.mp3
AudioLeadIn: 11
PreviewTime: 51351
Countdown: 0
SampleSet: Normal
StackLeniency: 0.7
Mode: 0
LetterboxInBreaks: 1

[Editor]
Bookmarks: 13901,51401,117351
DistanceSpacing: 1
BeatDivisor: 3
GridSize: 4

[Metadata]
Title:AXION
Artist:sakuzyo
Creator:rrtyui
Version:KNIGHT
Source:BMS
Tags:Wire Puller 2 wp2 MagicMashMan Magic Mash Man New Genuine Magicial Girl deadblue238 Chaos fantasia SoundCloud Deleted room Rein0527 Rein inaba-tan inaba9510

[Difficulty]
HPDrainRate:5
CircleSize:3
OverallDifficulty:5
ApproachRate:4
SliderMultiplier:0.899999999999999
SliderTickRate:1

[Events]
//Background and Video events
0,0,"BG.png"
Video,0,"BGA.flv"
//Break Periods
2,99600,104080
//Storyboard Layer 0 (Background)
//Storyboard Layer 1 (Fail)
//Storyboard Layer 2 (Pass)
//Storyboard Layer 3 (Foreground)
//Storyboard Sound Samples
//Background Colour Transformations
3,100,163,162,255

[TimingPoints]
400,375,4,1,0,60,1,0
13993,-100,4,1,0,38,0,0
16525,-100,4,1,0,40,0,0
19712,-100,4,1,0,45,0,0
25337,-100,4,1,0,48,0,0
27212,-100,4,1,1,60,0,0
51400,-100,4,1,1,60,0,1
63353,-100,4,1,0,60,0,0
63400,-100,4,1,0,60,0,1
63446,-100,4,2,0,80,0,0
70618,-100,4,2,0,5,0,0
70806,-100,4,2,0,80,0,0
72118,-100,4,2,0,5,0,0
72306,-100,4,2,0,80,0,0
75446,-100,4,1,0,60,0,0
81493,-100,4,2,0,80,0,0
82665,-100,4,1,0,60,0,0
82993,-100,4,2,0,80,0,0
84306,-100,4,1,0,60,0,0
84493,-100,4,2,0,80,0,0
85806,-100,4,1,0,60,0,0
85993,-100,4,2,0,80,0,0
86837,-100,4,1,1,60,0,0
90118,-100,4,1,0,60,0,0
93306,-100,4,2,0,80,0,0
96353,-100,4,1,0,60,0,0
99353,-100,4,2,0,80,0,0
99446,-100,4,1,0,60,0,0

[Colours]
Combo1 : 0,43,132
Combo2 : 255,85,85
Combo3 : 77,135,255
Combo4 : 34,206,78
Combo5 : 226,243,18
Combo6 : 191,0,0

[HitObjects]
100,168,13900,38,0,B|84:256,2,89.9999999999999,4|8|0
96,80,15025,1,8
180,116,15400,2,0,B|268:132,2,89.9999999999999,0|8|0
120,284,16900,6,0,B|196:348|288:308,1,180,2|8
428,192,18400,2,0,B|352:128|260:168,1,180,0|8
196,232,19525,1,0
172,144,19900,70,0,B|140:60,2,89.9999999999999,2|8|0
256,108,21025,1,8
340,144,21400,2,0,B|372:60,2,89.9999999999999,0|8|0
308,228,22525,1,8
220,208,22900,6,0,B|192:292|304:364|384:292,1,180,2|8
348,144,24400,2,0,B|376:60|264:-12|184:60,1,180,2|8
164,64,25525,1,0
80,36,25900,1,4
72,248,27400,38,0,B|160:280,2,89.9999999999999,4|8|0
48,160,28525,1,8
220,108,29275,1,8
256,192,29650,1,0
292,276,30025,1,8
328,360,30400,6,0,B|388:380|456:336|452:268,2,180,0|0|0
364,276,32275,1,8
300,212,32650,1,0
212,212,33025,1,8
148,276,33400,38,0,B|184:308|208:348,2,89.9999999999999,0|8|0
68,232,34525,1,8
116,60,35275,2,0,B|32:100,2,89.9999999999999,8|0|8
172,132,36400,6,0,B|224:100|292:100|344:132,1,180,0|0
340,220,37525,1,8
256,192,37900,2,0,B|252:228|252:228|260:244|260:244|256:280,2,89.9999999999999,4|8|0
172,220,39025,1,8
88,192,39400,6,0,B|60:108|60:108|88:16,2,180,6|0|0
164,140,41275,2,0,B|196:228,2,89.9999999999999,8|0|8
256,152,42400,53,2
348,140,42775,2,0,B|316:228,2,89.9999999999999,8|0|8
424,192,43900,2,0,B|452:108|452:108|424:16,2,180,0|0|2
396,272,45775,37,8
312,288,46150,2,0,B|344:324|336:372,1,89.9999999999999,0|8
256,352,46900,1,2
176,372,47275,2,0,B|168:324|200:288,1,89.9999999999999,8|0
116,272,48025,1,8
68,196,48400,54,0,B|36:108|68:20,2,180,2|2|4
116,272,50275,1,8
188,320,50650,1,0
276,332,51025,1,8
364,308,51400,6,0,B|408:336|460:328,2,89.9999999999999,6|8|0
328,224,52525,1,8
372,144,52900,2,0,B|416:172|416:224,2,89.9999999999999,2|8|0
300,88,54025,1,8
212,88,54400,6,0,B|168:76|124:88,1,89.9999999999999,2|8
112,132,54962,1,0
100,176,55150,2,0,B|55:188|11:176,1,89.9999999999999,0|8
28,264,55900,2,0,B|104:312,1,89.9999999999999,2|8
160,244,56650,2,0,B|236:196,1,89.9999999999999,2|8
312,144,57400,38,0,B|304:88,2,45,4|0|8
400,144,58150,2,0,B|404:48,2,89.9999999999999,0|8|0
432,228,59275,1,8
416,316,59650,2,0,B|328:336|328:336|240:336,1,180,0|6
188,260,60775,5,8
120,204,61150,2,0,B|80:232|72:280,2,89.9999999999999,2|8|2
148,120,62275,1,8
220,176,62650,2,0,B|316:180|384:112,1,180,2|12
428,192,63775,37,2
380,268,64150,2,0,B|412:352,2,89.9999999999999,0|0|2
292,256,65275,1,0
204,256,65650,2,0,B|152:268|112:232,2,89.9999999999999,8|0|4
180,168,66775,1,0
248,108,67150,6,0,B|284:64|332:64,1,89.9999999999999,2|0
400,20,67900,2,0,B|420:73|396:114,1,89.9999999999999,2|0
400,200,68650,2,0,B|343:190|319:149,2,89.9999999999999,2|0|4
440,280,69775,69,0
368,336,70150,2,0,B|324:340|320:328|276:336,1,89.9999999999999,8|0
188,336,70900,5,2
204,248,71275,1,0
144,180,71650,2,0,B|180:152|232:152,1,89.9999999999999,8|0
312,184,72400,69,4
392,144,72775,1,0
464,192,73150,1,2
384,232,73525,2,0,B|360:272|304:280,1,89.9999999999999,0|12
140,332,74650,2,0,B|96:248|96:248|120:164,1,180,2|4
168,88,75775,53,8
256,92,76150,2,0,B|300:112|316:156,1,89.9999999999999,0|8
336,244,76900,2,0,B|436:200,2,89.9999999999999,0|8|0
252,280,78025,1,8
164,264,78400,6,0,B|116:264|80:236,1,89.9999999999999,0|8
68,148,79150,2,0,B|116:148|152:176,1,89.9999999999999,0|8
240,188,79900,2,0,B|256:120|256:120|256:56,2,135,0|8|8
288,264,81400,38,0,B|376:296|464:264,1,180,0|2
368,112,82900,2,0,B|280:80|192:112,1,180,0|2
92,260,84400,6,0,B|64:172,2,89.9999999999999,0|2|0
176,232,85525,1,2
260,200,85900,2,0,B|288:288,2,89.9999999999999,4|2|0
232,116,87025,1,0
284,44,87400,6,0,B|380:28|432:124,1,180,4|0
436,212,88525,1,8
356,256,88900,2,0,B|316:284|300:328,1,89.9999999999999,0|8
256,248,89650,1,0
211,325,90025,2,0,B|196:284|156:256,1,89.9999999999999,8|0
72,228,90775,5,4
72,140,91150,2,0,B|72:72,2,67.4999999999999,2|2|2
140,140,91993,2,0,B|208:140,2,67.4999999999999,2|2|6
140,208,92837,2,0,B|176:272|252:272,1,135,0|4
256,192,93493,12,4,96400
256,192,96493,12,6,99400
144,148,105400,70,0,B|96:124|88:76,2,89.9999999999999,4|0|8
180,64,106525,1,0
236,132,106900,2,0,B|324:116,2,89.9999999999999,4|0|8
168,297,108400,6,0,B|216:321|300:273|344:297,1,180,4|8
468,172,109900,2,0,B|420:196|336:148|292:172,1,180,4|8
208,132,111025,1,0
140,192,111400,6,0,B|112:276|224:348|304:276,1,180,6|8
380,192,112900,2,0,B|408:108|296:36|216:108,1,180,6|8
200,120,114025,1,0
256,192,114400,5,4
256,192,114587,12,4,117400
