osu file format v9

[General]
AudioFilename: axion.mp3
AudioLeadIn: 1511
PreviewTime: 51351
Countdown: 0
SampleSet: Normal
StackLeniency: 0.7
Mode: 0
LetterboxInBreaks: 1

[Editor]
Bookmarks: 39351,51351,117351
DistanceSpacing: 0.8
BeatDivisor: 4
GridSize: 4

[Metadata]
Title:AXION
Artist:sakuzyo
Creator:rrtyui
Version:KING
Source:BMS
Tags:Wire Puller 2 wp2 MagicMashMan Magic Mash Man New Genuine Magicial Girl deadblue238 Chaos fantasia SoundCloud Deleted room Rein0527 Rein inaba-tan inaba9510

[Difficulty]
HPDrainRate:7
CircleSize:4
OverallDifficulty:8
ApproachRate:9
SliderMultiplier:1.9
SliderTickRate:1

[Events]
//Background and Video events
0,0,"BG.png"
Video,0,"BGA.flv"
//Break Periods
2,99600,104800
//Storyboard Layer 0 (Background)
//Storyboard Layer 1 (Fail)
//Storyboard Layer 2 (Pass)
//Storyboard Layer 3 (Foreground)
//Storyboard Sound Samples
//Background Colour Transformations
3,100,163,162,255

[TimingPoints]
400,375,4,1,0,60,1,0
2088,-100,4,2,0,60,0,0
3587,-100,4,2,0,50,0,0
3681,-100,4,2,0,60,0,0
7807,-100,4,1,0,40,0,0
7994,-100,4,2,0,60,0,0
12681,-100,4,2,0,50,0,0
12868,-100,4,2,0,40,0,0
13151,-100,4,2,0,60,0,0
13900,-100,4,1,0,80,0,0
14088,-100,4,1,0,38,0,0
17181,-100,4,1,0,40,0,0
19993,-100,4,1,0,45,0,0
23603,-100,4,1,0,35,0,0
23696,-100,4,1,0,45,0,0
24353,-100,4,1,0,38,0,0
24493,-100,4,1,0,45,0,0
25103,-100,4,1,0,42,0,0
25196,-100,4,1,0,45,0,0
25571,-100,4,1,0,48,0,0
26041,-100,4,2,0,80,0,0
26979,-100,4,1,0,40,0,0
27071,-100,4,2,0,60,0,0
27213,-100,4,1,0,60,0,0
51400,-100,4,1,0,60,0,1
59932,-100,4,2,0,80,0,1
60072,-100,4,1,0,60,0,1
60166,-100,4,2,0,80,0,1
60260,-100,4,1,0,60,0,1
62697,-100,4,2,0,80,0,1
62979,-100,4,1,0,60,0,1
63072,-100,4,2,0,80,0,1
63353,-100,4,1,0,70,0,0
63400,-200,4,1,0,70,0,1
63446,-200,4,2,0,80,0,0
64853,-200,4,2,0,60,0,0
64946,-200,4,2,0,85,0,0
70900,-200,4,2,0,63,0,0
70993,-200,4,2,0,80,0,0
73618,-200,4,1,0,65,0,0
73806,-200,4,2,0,80,0,0
74276,-100,4,2,0,80,0,0
74697,-100,4,1,0,40,0,0
75354,-100,4,2,0,80,0,0
75447,-100,4,1,0,60,0,0
81729,-100,4,2,0,80,0,0
81916,-100,4,1,0,60,0,0
82479,-100,4,2,0,80,0,0
82666,-100,4,1,0,60,0,0
83229,-100,4,2,0,80,0,0
83416,-100,4,1,0,60,0,0
83979,-100,4,2,0,80,0,0
84354,-100,4,1,0,60,0,0
85104,-100,4,2,0,80,0,0
86979,-57.1428571428571,4,1,0,60,0,0
87400,-100,4,1,0,60,0,0
96354,-57.1428571428571,4,1,0,60,0,0
97854,-200,4,1,0,60,0,0
98556,-100,4,1,0,60,0,0
99354,-100,4,2,0,80,0,0
99447,-100,4,1,0,60,0,0
115994,-100,4,2,0,80,0,0
116369,-100,4,1,0,60,0,0

[Colours]
Combo1 : 0,43,132
Combo2 : 255,85,85
Combo3 : 77,135,255
Combo4 : 34,206,78
Combo5 : 226,243,18
Combo6 : 191,0,0

[HitObjects]
56,128,1900,38,0,B|144:204|224:124,1,190,4|0
172,40,2462,2,0,B|140:72|140:72|140:120,1,95,2|0
340,344,2837,2,0,B|372:312|372:312|372:264,1,95
288,256,3212,2,0,B|376:180|456:260,1,190,2|2
240,336,3775,6,0,B|128:336,1,95,2|2
272,48,4150,2,0,B|384:48,1,95,0|2
84,152,4525,2,0,B|132:136|132:168|176:152,2,95,0|2|0
240,192,5087,70,0,B|344:192,1,95,0|2
204,272,5462,1,2
288,272,5650,2,0,B|388:272,1,95
176,352,6025,6,0,B|128:360|128:360|80:352,1,95,0|2
56,108,6400,2,0,B|-12:192|56:292,1,190,0|0
176,32,6962,2,0,B|128:24|128:24|80:32,1,95,2|0
176,192,7337,2,0,B|224:200|224:200|272:192,1,95,0|0
40,352,7712,70,0,B|144:352,1,95,2|4
216,352,8087,1,0
372,244,8275,2,0,B|328:272|304:324,1,95,0|2
140,139,8650,2,0,B|184:112|208:60,1,95
256,192,9025,1,0
192,352,9212,6,0,B|124:260,1,95,2|0
320,32,9587,2,0,B|388:124,1,95,0|2
48,76,9962,69,2
144,92,10150,1,0
235,76,10337,1,0
464,312,10525,1,2
368,296,10712,1,2
276,311,10900,1,2
256,192,11087,5,0
79,223,11275,69,0
432,160,11462,1,2
180,272,11650,1,0
332,112,11837,1,0
256,353,12025,1,2
256,30,12212,1,2
256,192,12588,5,2
256,192,12775,1,0
256,192,12963,1,0
256,12,13712,70,2,B|236:60|276:60|256:104,1,95,4|4
76,308,14275,54,0,B|184:308,1,95,8|0
40,224,14556,1,0
40,224,14650,2,0,B|152:224,1,95
436,76,15025,6,0,B|328:76,1,95,8|0
472,160,15306,1,0
472,160,15400,2,0,B|360:160,1,95
188,140,15775,38,0,B|200:192|256:252,1,95,8|0
296,284,16056,1,0
296,284,16150,2,0,B|327:315|339:367,1,95
188,244,16525,6,0,B|200:192|256:132,1,95,8|0
296,100,16806,1,0
296,100,16900,2,0,B|327:68|339:16,1,95
108,52,17275,5,8
28,268,17462,1,0
76,248,17556,1,0
124,268,17650,1,0
256,92,17837,37,0
404,328,18025,53,8
484,116,18212,1,0
436,136,18306,1,0
388,116,18400,1,0
200,336,18587,38,0,B|200:232,1,95,0|8
152,68,18962,1,0
136,120,19056,1,0
104,164,19150,1,0
311,48,19337,6,0,B|312:152,1,95,0|8
360,316,19712,1,0
376,264,19806,1,0
408,220,19900,1,2
32,320,20087,6,0,B|72:360,1,47.5
180,240,20275,2,0,B|80:240,1,95,8|0
148,324,20556,1,0
148,324,20650,1,0
480,64,20837,6,0,B|440:24,1,47.5
332,144,21025,2,0,B|432:144,1,95,8|0
364,60,21306,1,0
364,60,21400,1,0
256,192,21587,5,0
80,276,21775,21,8
116,288,21868,1,0
140,316,21962,1,0
148,352,22056,1,0
140,384,22150,1,0
256,192,22337,53,0
432,108,22525,37,8
396,96,22618,1,0
372,68,22712,1,0
364,32,22806,1,0
372,0,22900,1,2
116,72,23087,6,0,B|60:72,1,47.5
16,12,23275,1,8
208,192,23462,1,0
180,168,23556,1,0
152,144,23650,1,2
396,192,23837,6,0,B|452:192,1,47.5
496,132,24025,1,8
304,312,24212,1,0
332,288,24306,1,0
360,264,24400,1,6
116,264,24587,38,0,B|60:264,1,47.5
12,208,24775,1,8
208,384,24962,1,0
176,364,25056,1,0
144,340,25150,1,2
212,104,25337,69,8
212,104,25431,2,0,B|168:60,1,47.5,0|0
300,292,25618,1,8
300,292,25712,2,0,B|344:336,1,47.5
80,136,25900,69,4
56,184,25993,1,0
48,236,26087,1,2
68,284,26181,1,2
100,328,26275,1,2
148,360,26368,1,2
208,376,26462,1,2
276,384,26556,1,2
348,376,26650,6,0,B|428:360|444:284,1,142.5,2|2
500,228,27025,2,0,B|500:184,2,23.75,2|0|0
440,56,27400,38,0,B|396:88|368:152,1,95,4|0
464,140,27681,2,0,B|500:180,1,47.5,0|8
368,240,27868,1,0
396,280,27962,1,0
404,328,28056,1,0
388,372,28150,2,0,B|344:328|276:336,2,95,0|0|8
208,256,28712,54,0,B|256:288,1,47.5
184,336,28900,2,0,B|72:372,1,95
64,320,29181,1,0
40,272,29275,1,8
20,224,29368,1,0
0,176,29462,2,0,B|64:184,1,47.5
116,140,29650,2,0,B|168:140|216:120,2,95,0|0|8
392,64,30212,38,0,B|344:48,1,47.5
392,64,30400,2,0,B|388:124|428:180,1,95,0|0
440,232,30681,1,0
440,232,30775,1,8
292,344,30962,2,0,B|296:284|256:227,1,95
244,176,31243,1,0
244,176,31337,1,0
164,324,31525,54,0,B|68:368,1,95,8|0
0,364,31806,1,0
0,364,31899,21,0
12,328,31993,1,0
24,292,32086,1,0
36,256,32180,1,0
48,220,32274,1,8
60,184,32368,1,0
72,148,32461,1,0
84,112,32555,1,0
96,76,32650,54,0,B|148:60,1,47.5
164,136,32837,2,0,B|216:152,1,47.5
252,60,33025,2,0,B|319:39,1,47.5,8|0
320,152,33212,2,0,B|387:172,1,47.5
264,260,33400,6,0,B|208:276|180:324,1,95,0|0
240,384,33681,1,0
240,384,33774,1,8
352,196,33962,2,0,B|408:180|436:132,1,95
376,72,34243,1,0
376,72,34336,1,0
200,136,34525,54,0,B|132:100,1,47.5,8|0
172,212,34712,2,0,B|104:200,1,47.5
168,292,34900,2,0,B|256:336,1,95
324,376,35181,1,0
324,376,35275,1,8
408,268,35462,2,0,B|372:176,1,95
352,100,35743,1,0
352,100,35837,1,0
140,96,36025,2,0,B|116:152,1,47.5,8|0
80,176,36212,2,0,B|56:232,1,47.5
20,256,36400,38,0,B|-24:352,1,95
24,380,36681,1,0
76,352,36775,2,0,B|115:265,1,95,8|0
140,212,37056,1,0
160,156,37150,2,0,B|204:136|204:136|248:156,1,95,0|0
260,240,37431,2,0,B|304:260|304:260|348:240,1,95,0|0
360,156,37712,54,0,B|456:112,1,95,0|4
328,344,38087,2,0,B|232:388,1,95,0|12
400,308,38368,1,0
168,312,38556,1,0
168,312,38650,2,0,B|48:312,1,95
132,224,38931,1,0
132,224,39025,2,0,B|20:224,1,95,8|0
216,116,39400,6,0,B|176:84|172:24,2,95,6|0|8
132,224,39962,1,0
172,240,40056,1,0
212,256,40150,1,0
252,272,40243,1,0
292,288,40337,1,0
128,312,40525,2,0,B|248:356,1,95,8|0
52,264,40900,54,0,B|8:143,1,95,0|0
116,24,41275,2,0,B|112:75|72:120,1,95,8|0
132,184,41557,1,0
132,184,41650,1,0
132,184,41744,1,0
132,184,41838,1,0
136,340,42025,2,0,B|140:289|180:244,1,95,8|0
336,144,42400,22,0,B|380:188,2,47.5,2|0|0
312,380,42775,2,0,B|343:344|347:293,1,95,8|0
412,244,43056,1,0
412,244,43150,1,0
412,244,43243,1,0
412,244,43337,1,0
336,144,43525,2,0,B|288:56,1,95,8|0
176,240,43900,54,0,B|224:328,2,95,0|0|8
104,128,44462,1,0
144,140,44556,1,0
184,152,44650,1,0
224,164,44743,1,0
264,176,44837,1,0
86,209,45025,2,0,B|190:245,1,95,8|0
368,364,45400,38,0,B|278:332,2,95,2|0|8
324,264,45962,1,0
368,264,46056,1,0
408,248,46150,1,0
432,216,46243,1,0
440,172,46337,1,0
312,48,46525,2,0,B|396:100,1,95,8|0
200,336,46900,54,0,B|116:284,1,95,2|0
120,208,47181,1,0
120,208,47275,1,8
120,208,47368,1,0
120,208,47462,1,0
120,76,47650,2,0,B|208:112,1,95
392,307,48025,2,0,B|304:271,1,95,8|0
392,204,48400,21,2
432,220,48493,1,0
472,236,48587,1,0
488,276,48681,1,0
504,316,48775,1,8
256,192,48962,1,0
120,179,49150,1,2
80,164,49243,1,0
40,148,49337,1,0
24,108,49431,1,0
8,68,49525,1,8
256,192,49712,1,0
112,260,49900,54,0,B|152:260|152:260|160:248|160:248|200:248,1,95,4|0
212,100,50181,2,0,B|256:116|256:116|300:100,1,95,8|0
311,248,50462,2,0,B|352:248|352:248|360:260|360:260|400:260,1,95,8|0
256,384,50837,22,0,B|256:336,2,47.5,0|0|10
256,192,51212,1,0
128,124,51400,70,0,B|32:92,1,95,6|0
80,192,51681,2,0,B|-24:176,1,95,8|0
60,272,51962,1,8
384,124,52150,6,0,B|480:92,1,95,2|0
432,192,52431,2,0,B|536:176,1,95,8|0
452,272,52712,1,8
200,192,52900,6,0,B|152:292,1,95,2|0
312,192,53181,2,0,B|360:292,1,95,8|0
256,120,53462,1,8
256,368,53650,5,2
256,120,53837,1,0
256,172,53931,1,0
256,224,54025,1,8
256,16,54212,1,0
124,320,54400,38,0,B|28:364,1,95,2|0
168,252,54681,2,0,B|264:208,1,95,8|0
16,280,54962,1,8
388,64,55150,6,0,B|484:20,1,95,2|0
344,132,55431,2,0,B|248:176,1,95,8|0
495,104,55712,1,8
196,148,55900,6,0,B|84:108,1,95,2|0
316,236,56181,2,0,B|428:276,1,95,8|0
256,192,56462,1,8
484,196,56650,5,2
176,192,56837,1,0
256,192,56931,1,0
336,192,57025,1,8
28,196,57212,1,0
172,304,57400,37,4
256,84,57587,1,0
340,304,57775,1,2
340,304,57868,2,0,B|304:340,1,47.5
92,228,58056,2,0,B|124:188|180:192,1,95
256,244,58337,21,0
256,384,58525,2,0,B|256:332,1,47.5,2|0
256,244,58712,1,0
340,80,58900,69,0
256,300,59087,1,0
172,80,59275,1,2
172,80,59368,2,0,B|216:36,1,47.5
420,156,59556,2,0,B|388:196|332:192,1,95
256,140,59837,21,0
256,0,60025,2,0,B|256:52,1,47.5,2|2
256,140,60212,2,2,B|256:192,1,47.5
256,280,60400,2,0,B|256:340,2,47.5,2|0|0
64,48,60775,37,2
64,48,60868,1,0
64,48,60962,2,0,B|64:140,1,47.5,0|0
104,168,61150,1,2
104,168,61243,1,0
104,168,61337,2,0,B|104:260,1,47.5
144,288,61525,1,2
144,288,61618,1,0
144,288,61712,2,0,B|144:380,1,47.5
368,335,61900,5,2
384,296,61993,1,0
404,256,62087,1,0
424,216,62181,1,0
440,176,62275,1,2
460,136,62368,1,0
480,96,62462,1,0
492,60,62556,1,0
448,92,62650,5,2
404,124,62743,1,0
356,140,62837,1,0
304,152,62931,1,0
252,152,63025,5,2
192,148,63118,1,2
132,128,63212,1,2
84,88,63306,1,2
48,40,63400,69,12
264,16,63775,1,2
64,268,64150,2,0,B|116:352|244:332,1,190,0|2
332,248,65275,5,0
332,248,65462,1,0
268,84,65650,2,0,B|364:92|404:208,1,190,8|4
280,320,66775,69,0
168,192,67150,2,0,B|72:184|32:68,1,190,2|8
192,44,68275,1,0
32,312,68650,6,0,B|68:324,3,23.75,8|2|2|0
96,312,69025,2,0,B|132:296,2,31.6666666666667,2|2|2
160,312,69400,69,4
252,84,69775,1,0
64,144,70150,2,0,B|108:220|224:248,1,190,8|2
176,84,71275,5,0
448,239,71650,2,0,B|404:164|288:136,1,190,8|4
320,296,72775,69,0
256,144,73150,1,2
320,368,73525,1,0
256,328,73712,1,4
192,368,73900,1,12
96,300,74650,5,2
96,292,74743,1,0
96,284,74837,1,0
96,276,74931,1,0
96,268,75025,1,0
96,260,75118,1,0
96,252,75212,1,0
96,244,75306,1,0
96,236,75400,38,0,B|132:168|96:100,1,142.5,4|0
192,160,75775,2,0,B|224:192|224:192|284:212,1,95,8|0
196,288,76056,1,0
196,288,76150,2,0,B|312:328,1,95
316,96,76525,2,0,B|200:56,1,95,8|0
352,172,76806,53,0
352,172,76900,2,0,B|400:176|468:212,1,95,0|0
240,276,77181,1,0
240,276,77275,2,0,B|288:280|356:316,1,95,8|0
128,348,77650,2,0,B|16:348,1,95
96,264,77931,1,0
96,264,78025,2,0,B|-28:264,1,95,8|0
198,82,78400,38,0,B|136:176,1,95
284,184,78681,2,0,B|220:184,1,47.5,0|8
366,161,78868,1,0
366,161,78962,2,0,B|313:82,1,95
256,360,79337,2,0,B|232:316|280:316|256:271,2,95,0|8|0
60,184,79900,54,0,B|40:232|60:276,1,95
124,232,80181,1,0
188,280,80275,2,0,B|208:235|188:187,1,95,8|0
452,108,80650,2,0,B|472:152|452:200,1,95
388,152,80931,1,0
324,196,81025,2,0,B|303:147|324:103,1,95,8|0
256,328,81400,5,0
304,308,81493,1,0
352,328,81587,1,0
400,308,81680,1,0
448,328,81775,1,2
496,308,81868,1,2
256,56,82150,5,0
208,76,82243,1,0
160,56,82337,1,0
112,76,82430,1,0
64,56,82525,1,2
16,76,82618,1,2
256,192,82900,37,0
256,180,82993,1,0
268,192,83087,1,0
256,204,83181,1,0
244,192,83275,1,2
256,192,83368,1,2
118,125,83650,6,0,B|173:57,1,47.5,0|0
192,331,83837,2,0,B|135:285,1,47.5
393,258,84025,2,2,B|338:326,1,47.5
319,52,84212,2,2,B|376:98,1,47.5
96,240,84400,6,0,B|96:176,1,47.5
256,323,84587,6,0,B|256:276,1,47.5
176,188,84775,70,0,B|176:128,1,47.5
336,271,84962,6,0,B|336:224,1,47.5
256,136,85150,70,0,B|256:76,1,47.5,2|0
416,219,85337,6,0,B|416:172,1,47.5,2|0
336,84,85525,70,0,B|336:24,1,47.5,2|0
496,167,85712,6,0,B|496:120,1,47.5,2|0
72,36,85900,37,2
48,84,85993,1,2
36,136,86087,1,2
36,188,86181,1,2
52,236,86275,1,2
72,284,86368,1,2
108,324,86462,1,2
152,348,86556,1,2
204,360,86650,1,2
256,368,86743,5,2
316,372,86837,1,2
376,364,86931,1,2
432,336,87025,38,0,B|460:296,3,41.5624981420115
476,227,87212,2,0,B|488:172,3,41.5624981420115
472,112,87400,54,0,B|460:56|504:16,2,95,6|0|8
376,224,87962,1,0
332,252,88056,1,0
280,264,88150,1,0
228,260,88243,1,0
180,244,88337,2,0,B|128:216|44:256,1,95,0|8
24,140,88712,6,0,B|4:76,1,47.5
24,140,88900,2,0,B|72:124|116:140,1,95,0|0
208,56,89181,2,0,B|256:76|300:56,1,95,8|0
394,140,89462,2,0,B|440:124|488:140,1,95,8|0
256,328,89837,6,0,B|256:276,2,47.5,0|0|10
256,192,90212,1,0
120,88,90400,5,0
96,160,90493,1,0
168,184,90587,1,0
192,112,90681,1,0
120,88,90775,1,6
96,312,91150,37,6
300,116,91431,1,2
420,372,91712,1,2
200,56,91993,5,2
268,332,92275,1,2
504,180,92556,1,6
8,204,92837,1,2
193,157,93025,37,6
318,226,93150,1,2
290,129,93275,1,6
221,254,93400,6,0,B|188:312|104:324,1,95,6|0
36,336,93775,5,8
60,300,93868,1,0
68,256,93962,1,0
64,212,94056,1,0
52,172,94150,2,0,B|32:124|52:80,1,95
144,24,94525,2,0,B|204:96|192:216,1,190,10|4
132,324,95087,5,0
132,324,95181,1,0
132,324,95275,2,0,B|172:288|236:304,1,95,8|0
380,236,95650,2,0,B|340:272|276:256,1,95
432,316,95931,1,0
432,316,96025,2,0,B|496:248|464:144,1,142.5,10|0
456,132,96400,37,4
420,88,96493,1,0
376,60,96587,1,0
320,44,96681,1,0
264,40,96775,1,8
208,52,96868,1,0
160,80,96962,1,0
120,120,97056,1,0
96,172,97150,6,0,B|184:198,1,83.1249962840231
236,350,97337,2,0,B|262:262,1,83.1249962840231
414,209,97525,2,0,B|326:184,1,83.1249962840231,10|0
273,32,97712,2,0,B|248:120,1,83.1249962840231
240,200,97900,38,0,B|268:192,3,23.75,4|0|0|0
340,116,98275,2,0,B|356:80,3,23.75,8|0|0|0
256,60,98650,6,0,B|256:136,1,47.5
156,136,98837,2,0,B|156:212,1,47.5
256,220,99025,2,0,B|256:288,1,47.5,10|0
360,300,99212,2,0,B|360:348,1,47.5
140,352,99400,37,6
24,264,105400,86,0,B|92:336|228:336,1,190,4|0
144,232,105962,1,0
248,268,106150,2,0,B|242:169|138:81,1,190,8|0
488,120,106900,54,0,B|420:48|284:48,1,190,4|0
368,152,107462,1,0
264,116,107650,2,0,B|269:214|373:302,1,190,8|0
24,76,108400,38,0,B|120:132|208:76,1,190,4|0
116,20,108962,1,0
80,196,109150,2,0,B|136:268|248:272,1,190,8|0
488,308,109900,54,0,B|392:251|304:308,1,190,4|0
396,364,110462,1,0
432,188,110650,2,0,B|376:116|264:112,1,190,8|0
124,224,111400,37,6
316,264,111775,1,0
400,28,112150,2,0,B|416:128|492:196,1,190,8|0
336,124,112900,5,6
144,84,113275,1,0
112,356,113650,2,0,B|96:256|20:187,1,190,8|0
176,260,114400,69,4
176,260,115525,2,0,B|244:348|384:348,1,190,0|8
432,336,116087,5,2
432,320,116181,1,2
432,304,116275,2,2,B|432:200,1,95,0|0
432,112,116650,2,0,B|432:48,1,47.5
340,180,116837,2,0,B|340:104,1,47.5
248,248,117025,2,0,B|248:136,1,95,2|0
156,316,117400,37,4
