osu file format v9

[General]
AudioFilename: axion.mp3
AudioLeadIn: 1511
PreviewTime: 51351
Countdown: 0
SampleSet: Normal
StackLeniency: 0.7
Mode: 0
LetterboxInBreaks: 1

[Editor]
Bookmarks: 13901,51401,117351
DistanceSpacing: 1.2
BeatDivisor: 4
GridSize: 4

[Metadata]
Title:AXION
Artist:sakuzyo
Creator:rrtyui
Version:BISHOP
Source:BMS
Tags:Wire Puller 2 wp2 MagicMashMan Magic Mash Man New Genuine Magicial Girl deadblue238 Chaos fantasia SoundCloud Deleted room Rein0527 Rein inaba-tan inaba9510

[Difficulty]
HPDrainRate:5
CircleSize:3
OverallDifficulty:5
ApproachRate:6
SliderMultiplier:1.3
SliderTickRate:1

[Events]
//Background and Video events
0,0,"BG.png"
Video,0,"BGA.flv"
//Break Periods
2,99600,104350
//Storyboard Layer 0 (Background)
//Storyboard Layer 1 (Fail)
//Storyboard Layer 2 (Pass)
//Storyboard Layer 3 (Foreground)
//Storyboard Sound Samples
//Background Colour Transformations
3,100,163,162,255

[TimingPoints]
400,375,4,1,0,60,1,0
1993,-100,4,2,0,60,0,0
7806,-100,4,1,0,60,0,0
7993,-100,4,2,0,60,0,0
13900,-100,4,1,0,40,0,0
13993,-100,4,1,0,38,0,0
16853,-100,4,1,0,40,0,0
19946,-100,4,1,0,45,0,0
27212,-100,4,1,0,60,0,0
34478,-100,4,1,1,60,0,0
34571,-100,4,1,0,60,0,0
51400,-100,4,1,0,60,0,1
63353,-100,4,1,0,60,0,0
63400,-100,4,1,0,60,0,1
63446,-100,4,2,0,80,0,0
70618,-100,4,2,0,5,0,0
70806,-100,4,2,0,80,0,0
72118,-100,4,2,0,5,0,0
72306,-100,4,2,0,80,0,0
75446,-100,4,1,0,60,0,0
81118,-100,4,1,0,5,0,0
81400,-100,4,1,0,60,0,0
81493,-100,4,2,0,80,0,0
82665,-100,4,1,0,60,0,0
82993,-100,4,2,0,80,0,0
84306,-100,4,1,0,48,0,0
84493,-100,4,2,0,80,0,0
85618,-100,4,1,0,60,0,0
85993,-100,4,2,0,80,0,0
86837,-100,4,1,0,60,0,0
93306,-100,4,2,0,80,0,0
99446,-100,4,1,0,60,0,0

[Colours]
Combo1 : 0,43,132
Combo2 : 255,85,85
Combo3 : 77,135,255
Combo4 : 34,206,78
Combo5 : 226,243,18
Combo6 : 191,0,0

[HitObjects]
128,300,1900,38,0,B|160:240|128:176,1,130,4|0
88,108,2462,2,0,B|88:72|112:48,2,65,2|0|0
168,108,3025,1,0
168,108,3212,6,0,B|232:136|296:108,1,130,2|0
308,188,3775,1,0
308,188,3962,2,0,B|372:160|436:188,1,130,2|0
416,264,4525,70,0,B|432:296|416:328,2,65,0|2|0
344,296,5087,1,0
256,296,5275,1,0
200,360,5462,2,0,B|232:296|200:236,1,130,2|0
112,108,6212,6,0,B|176:72|236:108,2,130,2|0|2
240,200,7337,2,0,B|304:228|368:200,1,130
416,140,7900,69,4
264,112,8275,2,0,B|200:112,1,65,0|2
144,168,8650,2,0,B|164:232|140:296,1,130,0|0
192,356,9212,6,0,B|256:324|316:356,1,130,2|0
384,312,9775,1,0
384,312,9962,2,0,B|416:248|384:188,1,130,2|0
316,48,10712,2,0,B|256:92|196:48,1,130,2|0
160,120,11275,1,0
88,88,11462,70,0,B|112:160|88:216,1,130,2|0
236,160,12212,2,0,B|212:232|236:288,1,130,2|0
100,368,12962,2,0,B|140:360|188:376|232:368,1,130,2|0
72,228,13900,54,0,B|84:292,2,65,4|0|8
48,148,14462,1,0
80,72,14650,2,0,B|144:48|208:72,1,130,0|8
356,156,15400,54,0,B|292:180|228:156,1,130,0|8
80,240,16150,2,0,B|144:216|208:240,1,130,0|8
272,296,16712,1,0
332,236,16900,38,0,B|361:257|356:306,2,65,0|0|8
304,84,17650,2,0,B|260:152|192:132,1,130,0|8
120,100,18212,1,0
64,160,18400,54,0,B|88:96|64:32,2,130,0|8|0
40,236,19337,2,0,B|104:228,1,65,0|8
88,308,19712,1,0
88,308,19900,6,0,B|156:328|212:288,1,130,2|8
424,308,20650,2,0,B|356:328|300:288,1,130,0|8
256,224,21212,1,0
316,172,21400,54,0,B|256:120|196:172,1,130,0|8
120,304,22150,2,0,B|180:356|240:304,2,130,0|8|2
256,224,23275,37,8
100,228,23650,2,0,B|136:164|100:104,2,130,2|8|2
232,148,24775,53,8
160,288,25150,2,0,B|228:256|284:288,2,130,2|8|4
256,192,25993,12,4,27400
256,68,27775,5,8
136,184,28150,2,0,B|112:248,2,65,0|0|8
160,108,28712,1,0
220,164,28900,54,0,B|252:228|220:288,1,130,0|8
372,360,29650,2,0,B|340:296|372:236,1,130,0|8
432,176,30212,1,0
348,156,30400,38,0,B|384:104,2,65,0|0|8
272,120,30962,1,0
320,48,31150,2,0,B|252:28,2,65,0|0|8
256,204,31900,53,0
100,204,32275,1,8
224,296,32650,1,0
180,148,33025,1,8
128,296,33400,6,0,B|128:352|168:368,2,65,0|0|8
144,212,33962,1,0
144,212,34150,2,0,B|256:144|256:144|372:212,1,260,0|0
256,336,35275,53,8
256,336,35650,2,0,B|256:204,1,130,0|8
116,120,36400,38,0,B|140:48|216:56,1,130,0|8
256,124,36962,1,0
296,56,37150,2,0,B|372:48|396:120,1,130,0|8
412,288,37900,54,0,B|280:324,2,130,4|8|0
380,120,39025,1,8
252,232,39400,6,0,B|196:180|128:212,1,130,2|8
80,268,39962,1,0
56,192,40150,2,0,B|36:120|100:80,1,130,0|8
256,64,40900,54,0,B|256:192,1,130,0|8
456,192,41650,2,0,B|476:120|412:80,1,130,0|8
344,220,42400,22,0,B|356:304|302:335,1,130,2|8
256,272,42962,1,0
208,336,43150,2,0,B|154:304|166:220,1,130,0|8
256,92,43900,54,0,B|372:148,1,130,0|8
256,92,44650,2,0,B|140:148,1,130,0|8
68,288,45400,38,0,B|136:288|184:236,1,130,2|8
112,196,45962,1,0
184,160,46150,2,0,B|152:88|200:36,1,130,0|8
256,92,46712,1,0
314,38,46900,54,0,B|360:88|328:160,1,130,2|8
308,236,47462,2,0,B|336:260|340:300,1,65
256,300,47837,2,0,B|256:364,1,65,0|8
204,236,48212,2,0,B|176:260|172:300,1,65,0|2
80,168,48775,21,8
80,168,49150,2,0,B|140:128|140:56,1,130,2|8
256,164,49900,2,0,B|256:292,1,130,4|8
432,168,50650,2,0,B|372:128|372:56,2,130,0|8|6
380,316,51775,69,8
380,316,51962,1,0
380,316,52150,2,0,B|320:272|256:312,1,130,0|8
116,248,52900,54,0,B|140:184|116:120,1,130,2|8
96,44,53462,1,0
96,44,53650,2,0,B|164:64|224:44,1,130,0|8
380,44,54400,38,0,B|380:172,1,130,2|8
256,268,55150,2,0,B|188:224|184:164,1,130,0|8
256,132,55712,1,0
327,165,55900,54,0,B|323:225|255:269,1,130,2|8
112,332,56650,2,0,B|111:203,1,130,2|8
112,44,57400,5,4
256,104,57775,1,8
400,44,58150,1,0
316,176,58525,2,0,B|284:200|256:200|228:200|196:176,1,130,8|2
256,320,59275,5,8
108,268,59650,2,0,B|164:236|196:176,1,130,0|8
256,228,60212,1,0
315,175,60400,2,0,B|348:236|404:268,1,130,2|8
484,136,61150,70,0,B|436:88|364:112,1,130,2|8
220,48,61900,2,0,B|192:108|192:108|124:128,1,130,2|8
185,192,62462,1,0
130,258,62650,2,0,B|192:276|192:276|220:336,1,130,2|8
376,192,63400,21,12
256,40,63775,1,0
256,40,64150,2,0,B|256:168,1,130,2|0
136,272,64900,6,0,B|188:320|256:316|324:320|376:272,2,260,2|8|4
80,124,66775,1,0
204,216,67150,70,0,B|224:144|172:88,1,130,2|0
336,96,67900,2,0,B|289:145|309:217,1,130,2|0
456,164,68650,2,0,B|480:268|412:324|324:336|288:284,1,260,8|4
256,180,69775,5,0
164,88,70150,2,0,B|140:144|164:216,1,130,8|0
256,308,70900,2,0,B|280:240|256:180,1,130,2|0
195,68,71650,2,0,B|256:36|320:68,1,130,8|0
412,192,72400,69,4
368,344,72775,2,0,B|308:308|296:240,1,130,0|2
144,344,73525,2,0,B|204:308|216:240,1,130,0|8
132,48,74650,6,0,B|256:116|380:48,1,260,2|4
444,188,75775,37,8
352,336,76150,2,0,B|296:296|296:220,1,130,0|8
160,336,76900,54,0,B|216:296|216:220,1,130,0|8
136,232,77462,1,0
168,160,77650,2,0,B|232:128|292:160,1,130,0|8
400,48,78400,38,0,B|336:80|276:48,1,130,0|8
168,160,79150,1,0
324,160,79525,1,8
204,260,79900,54,2,B|332:260,1,130,0|8
368,336,80462,2,2,B|238:336,1,130,0|0
160,336,81025,2,0,B|100:280|132:216,1,130,8|2
192,76,81775,6,0,B|256:44|320:76,2,130,2|0|2
324,160,82900,1,2
168,156,83275,2,0,B|200:220|168:284,2,130,2|0|2
260,284,84400,6,0,B|324:316|384:284,1,130,2|2
408,128,85150,2,0,B|344:96|284:128,1,130,0|2
236,64,85712,1,0
180,120,85900,54,0,B|212:188|164:244,1,130,4|2
224,296,86462,1,0
224,296,86650,2,0,B|288:296,1,65
316,220,87025,2,0,B|248:220,1,65,2|0
144,320,87400,6,0,B|72:288|92:212,1,130,4|8
160,76,88150,2,0,B|220:32|280:76,1,130,0|8
220,132,88712,1,0
280,188,88900,6,0,B|220:232|160:188,1,130,0|8
216,332,89650,2,0,B|344:332,1,130,0|8
360,256,90212,1,0
424,300,90400,6,0,B|464:240|432:176,1,130,0|6
312,72,91150,2,0,B|336:116|336:116|336:172,2,97.5,2|2|2
200,72,91993,2,0,B|176:116|176:116|176:172,2,97.5,2|2|6
256,176,92837,6,0,B|312:228|288:296,1,130,2|0
228,344,93400,1,4
256,192,93493,12,4,96400
256,192,96493,12,4,99400
156,340,105400,38,0,B|204:292|204:292|196:232,1,130,4|0
72,136,106150,2,0,B|128:100|128:100|184:128,1,130,8|0
256,92,106712,1,0
328,128,106900,54,0,B|384:100|384:100|440:136,1,130,4|0
316,230,107650,2,0,B|308:292|308:292|356:340,1,130,8|0
204,304,108400,38,0,B|244:232|188:180,1,130,4|0
144,248,108962,1,0
84,196,109150,2,0,B|96:124|172:108,1,130,8|0
280,216,109900,54,0,B|248:152|280:92,1,130,4|0
432,124,110650,2,0,B|464:188|432:247,1,130,8|0
284,300,111400,37,2
172,192,111775,1,0
112,336,112150,2,0,B|188:340|208:268,2,130,8|0|2
16,212,113275,5,0
172,192,113650,2,0,B|240:160|300:200,2,130,8|0|4
256,192,114493,12,4,117400
