osu file format v14

[General]
AudioFilename: AXION.mp3
AudioLeadIn: 0
PreviewTime: 75025
Countdown: 0
SampleSet: Soft
StackLeniency: 0.7
Mode: 3
LetterboxInBreaks: 0
SpecialStyle: 0
WidescreenStoryboard: 0

[Editor]
DistanceSpacing: 0.8
BeatDivisor: 4
GridSize: 8
TimelineZoom: 1.4

[Metadata]
Title:AXION
TitleUnicode:AXION
Artist:sakuzyo
ArtistUnicode:削除
Creator:ljqandylee
Version:Normal
Source:BMS
Tags:cytus c82 pocket gao expew
BeatmapID:529847
BeatmapSetID:222073

[Difficulty]
HPDrainRate:7
CircleSize:7
OverallDifficulty:7
ApproachRate:5
SliderMultiplier:1.4
SliderTickRate:1

[Events]
//Background and Video events
0,0,"Background.jpg",0,0
//Break Periods
//Storyboard Layer 0 (Background)
//Storyboard Layer 1 (Fail)
//Storyboard Layer 2 (Pass)
//Storyboard Layer 3 (Foreground)
//Storyboard Sound Samples

[TimingPoints]
400,375,4,2,0,10,1,0
13525,-100,4,2,0,20,0,0
51400,-100,4,2,0,20,0,1
63400,-100,4,2,0,20,0,0
75400,-100,4,2,0,20,0,1
93400,-100,4,2,0,20,0,0

[HitObjects]
36,192,1525,128,0,1900:0:0:0:70:01.wav
475,192,1900,1,0,0:0:0:70:0K.wav
329,192,2087,1,0,0:0:0:30:normal-hitnormal.wav
182,192,2275,1,0,0:0:0:30:normal-hitnormal.wav
36,192,2462,1,0,0:0:0:30:normal-hitnormal.wav
402,192,2837,1,0,0:0:0:30:normal-hitnormal.wav
109,192,3212,1,0,0:0:0:30:normal-hitnormal.wav
475,192,3400,1,0,0:0:0:30:normal-hitnormal.wav
402,192,3587,1,0,0:0:0:30:normal-hitnormal.wav
329,192,3775,1,0,0:0:0:30:normal-hitnormal.wav
182,192,3962,1,0,0:0:0:30:normal-hitnormal.wav
109,192,4337,1,0,0:0:0:30:normal-hitnormal.wav
402,192,4525,1,0,0:0:0:30:normal-hitnormal.wav
475,192,4712,1,0,0:0:0:30:normal-hitnormal.wav
256,192,4900,1,0,0:0:0:30:normal-hitnormal.wav
402,192,5087,1,0,0:0:0:30:normal-hitnormal.wav
109,192,5275,1,0,0:0:0:30:normal-hitnormal.wav
182,192,5462,1,0,0:0:0:30:normal-hitnormal.wav
36,192,5837,1,0,0:0:0:30:normal-hitnormal.wav
256,192,6212,1,0,0:0:0:30:normal-hitnormal.wav
256,192,6400,1,0,0:0:0:30:normal-hitnormal.wav
402,192,6587,1,0,0:0:0:30:normal-hitnormal.wav
109,192,6775,1,0,0:0:0:30:normal-hitnormal.wav
475,192,6962,128,0,7337:0:0:0:30:normal-hitnormal.wav
329,192,7337,1,0,0:0:0:30:normal-hitnormal.wav
36,192,7525,128,0,7900:0:0:0:30:normal-hitnormal.wav
475,192,7900,1,0,0:0:0:30:normal-hitnormal.wav
109,192,7900,1,0,0:0:0:30:normal-hitnormal.wav
402,192,8087,1,0,0:0:0:30:normal-hitnormal.wav
329,192,8275,1,0,0:0:0:30:normal-hitnormal.wav
475,192,8462,1,0,0:0:0:30:normal-hitnormal.wav
182,192,8837,1,0,0:0:0:30:normal-hitnormal.wav
109,192,9212,1,0,0:0:0:30:normal-hitnormal.wav
475,192,9400,1,0,0:0:0:30:normal-hitnormal.wav
402,192,9587,1,0,0:0:0:30:normal-hitnormal.wav
329,192,9775,1,0,0:0:0:30:normal-hitnormal.wav
182,192,9962,1,0,0:0:0:30:normal-hitnormal.wav
475,192,10337,1,0,0:0:0:30:normal-hitnormal.wav
402,192,10525,1,0,0:0:0:30:normal-hitnormal.wav
329,192,10712,1,0,0:0:0:30:normal-hitnormal.wav
402,192,10900,1,0,0:0:0:30:normal-hitnormal.wav
36,192,11087,1,0,0:0:0:30:normal-hitnormal.wav
109,192,11275,1,0,0:0:0:30:normal-hitnormal.wav
256,192,11462,1,0,0:0:0:30:normal-hitnormal.wav
109,192,11837,1,0,0:0:0:30:normal-hitnormal.wav
329,192,11837,1,0,0:0:0:30:normal-hitnormal.wav
182,192,12212,1,0,0:0:0:30:normal-hitnormal.wav
402,192,12212,1,0,0:0:0:30:normal-hitnormal.wav
109,192,12400,1,0,0:0:0:30:normal-hitnormal.wav
329,192,12587,1,0,0:0:0:30:normal-hitnormal.wav
36,192,12775,1,0,0:0:0:30:normal-hitnormal.wav
256,192,12962,1,0,0:0:0:30:normal-hitnormal.wav
256,192,13525,128,0,13900:0:0:0:70:01.wav
36,192,13900,1,0,0:0:0:30:normal-hitnormal.wav
475,192,13900,1,0,0:0:0:30:normal-hitnormal.wav
402,192,14087,1,0,0:0:0:30:normal-hitnormal.wav
109,192,14275,1,0,0:0:0:30:normal-hitnormal.wav
329,192,14462,1,0,0:0:0:30:normal-hitnormal.wav
182,192,14837,1,0,0:0:0:30:normal-hitnormal.wav
475,192,15025,1,0,0:0:0:30:normal-hitnormal.wav
256,192,15212,1,0,0:0:0:30:normal-hitnormal.wav
36,192,15587,1,0,0:0:0:30:normal-hitnormal.wav
182,192,15775,1,0,0:0:0:30:normal-hitnormal.wav
402,192,15962,1,0,0:0:0:30:normal-hitnormal.wav
475,192,16337,1,0,0:0:0:30:normal-hitnormal.wav
109,192,16525,1,0,0:0:0:30:normal-hitnormal.wav
329,192,16712,1,0,0:0:0:30:normal-hitnormal.wav
36,192,16900,128,0,17275:0:0:0:30:normal-hitnormal.wav
182,192,16900,1,0,0:0:0:30:normal-hitnormal.wav
475,192,17087,1,0,0:0:0:30:normal-hitnormal.wav
256,192,17275,1,0,0:0:0:30:normal-hitnormal.wav
402,192,17462,1,0,0:0:0:30:normal-hitnormal.wav
329,192,17837,1,0,0:0:0:30:normal-hitnormal.wav
256,192,18212,1,0,0:0:0:30:normal-hitnormal.wav
256,192,18400,1,0,0:0:0:30:normal-hitnormal.wav
475,192,18587,1,0,0:0:0:30:normal-hitnormal.wav
329,192,18775,1,0,0:0:0:30:normal-hitnormal.wav
182,192,18962,1,0,0:0:0:30:normal-hitnormal.wav
256,192,19712,1,0,0:0:0:30:normal-hitnormal.wav
475,192,19900,128,0,20275:0:0:0:30:normal-hitnormal.wav
36,192,19900,1,0,0:0:0:30:normal-hitnormal.wav
329,192,20087,1,0,0:0:0:30:normal-hitnormal.wav
256,192,20275,1,0,0:0:0:30:normal-hitnormal.wav
109,192,20462,1,0,0:0:0:30:normal-hitnormal.wav
182,192,20837,1,0,0:0:0:30:normal-hitnormal.wav
329,192,21025,1,0,0:0:0:30:normal-hitnormal.wav
475,192,21212,1,0,0:0:0:30:normal-hitnormal.wav
329,192,21400,1,0,0:0:0:30:normal-hitnormal.wav
182,192,21587,1,0,0:0:0:30:normal-hitnormal.wav
36,192,21775,1,0,0:0:0:30:normal-hitnormal.wav
109,192,21962,1,0,0:0:0:30:normal-hitnormal.wav
402,192,22337,1,0,0:0:0:30:normal-hitnormal.wav
256,192,22525,1,0,0:0:0:30:normal-hitnormal.wav
329,192,22712,1,0,0:0:0:30:normal-hitnormal.wav
36,192,22900,128,0,23275:0:0:0:30:normal-hitnormal.wav
182,192,22900,1,0,0:0:0:30:normal-hitnormal.wav
475,192,23087,1,0,0:0:0:30:normal-hitnormal.wav
329,192,23275,1,0,0:0:0:30:normal-hitnormal.wav
182,192,23462,1,0,0:0:0:30:normal-hitnormal.wav
109,192,23837,1,0,0:0:0:30:normal-hitnormal.wav
329,192,24212,1,0,0:0:0:30:normal-hitnormal.wav
475,192,24400,128,0,25150:0:0:0:30:normal-hitnormal.wav
329,192,25150,128,0,25900:0:0:0:30:normal-hitnormal.wav
475,192,25900,1,0,0:0:0:30:normal-hitnormal.wav
182,192,25900,128,0,26650:0:0:0:30:normal-hitnormal.wav
256,192,26650,128,0,27025:0:0:0:30:normal-hitnormal.wav
402,192,27025,1,0,0:0:0:30:normal-hitnormal.wav
36,192,27400,1,0,0:0:0:70:0K.wav
329,192,27400,1,0,0:0:0:30:normal-hitnormal.wav
256,192,27775,1,0,0:0:0:70:0L.wav
402,192,27775,1,0,0:0:0:30:normal-hitnormal.wav
475,192,28056,1,0,0:0:0:70:0K.wav
182,192,28337,1,0,0:0:0:70:0K.wav
402,192,28525,1,0,0:0:0:70:0L.wav
109,192,28525,1,0,0:0:0:30:normal-hitnormal.wav
182,192,28900,1,0,0:0:0:70:0K.wav
36,192,29181,1,0,0:0:0:70:0K.wav
475,192,29275,1,0,0:0:0:30:normal-hitnormal.wav
256,192,29275,1,0,0:0:0:70:0L.wav
402,192,29556,1,0,0:0:0:70:0K.wav
109,192,29837,1,0,0:0:0:70:0K.wav
329,192,30025,1,0,0:0:0:70:0L.wav
475,192,30025,1,0,0:0:0:30:normal-hitnormal.wav
109,192,30400,1,0,0:0:0:70:0K.wav
256,192,30775,1,0,0:0:0:70:0L.wav
36,192,30775,1,0,0:0:0:30:normal-hitnormal.wav
329,192,31056,1,0,0:0:0:70:0K.wav
182,192,31337,1,0,0:0:0:70:0K.wav
256,192,31525,1,0,0:0:0:70:0L.wav
475,192,31525,1,0,0:0:0:30:normal-hitnormal.wav
329,192,31900,1,0,0:0:0:70:0K.wav
402,192,32181,1,0,0:0:0:70:0K.wav
36,192,32275,1,0,0:0:0:30:normal-hitnormal.wav
182,192,32275,1,0,0:0:0:70:0L.wav
256,192,32556,1,0,0:0:0:70:0K.wav
182,192,32837,1,0,0:0:0:70:0K.wav
36,192,33025,1,0,0:0:0:30:normal-hitnormal.wav
475,192,33025,1,0,0:0:0:70:0L.wav
109,192,33400,1,0,0:0:0:70:0K.wav
256,192,33775,1,0,0:0:0:30:normal-hitnormal.wav
475,192,33775,1,0,0:0:0:70:0L.wav
109,192,34056,1,0,0:0:0:70:0K.wav
402,192,34337,1,0,0:0:0:70:0K.wav
256,192,34525,1,0,0:0:0:30:normal-hitnormal.wav
36,192,34525,1,0,0:0:0:70:0L.wav
329,192,34900,1,0,0:0:0:70:0K.wav
109,192,35181,1,0,0:0:0:70:0K.wav
475,192,35275,1,0,0:0:0:70:0L.wav
256,192,35275,1,0,0:0:0:30:normal-hitnormal.wav
329,192,35556,1,0,0:0:0:70:0K.wav
256,192,35837,1,0,0:0:0:70:0K.wav
36,192,36025,1,0,0:0:0:30:normal-hitnormal.wav
402,192,36025,1,0,0:0:0:70:0L.wav
182,192,36400,1,0,0:0:0:70:0K.wav
36,192,36775,1,0,0:0:0:70:0L.wav
475,192,36775,1,0,0:0:0:30:normal-hitnormal.wav
256,192,37056,1,0,0:0:0:70:0K.wav
475,192,37337,1,0,0:0:0:70:0K.wav
109,192,37525,1,0,0:0:0:70:0L.wav
329,192,37525,128,0,37900:0:0:0:70:01.wav
256,192,37900,1,0,0:0:0:70:0K.wav
36,192,38181,1,0,0:0:0:70:0K.wav
402,192,38275,1,0,0:0:0:30:normal-hitnormal.wav
182,192,38275,1,0,0:0:0:70:0L.wav
329,192,38556,1,0,0:0:0:70:0K.wav
256,192,38837,1,0,0:0:0:70:0K.wav
36,192,39025,1,0,0:0:0:70:0L.wav
329,192,39025,1,0,0:0:0:30:normal-hitnormal.wav
475,192,39400,1,0,0:0:0:30:normal-hitnormal.wav
256,192,39400,1,0,0:0:0:70:0K.wav
36,192,39400,128,0,40150:0:0:0:70:VD.wav
402,192,39775,1,0,0:0:0:70:0L.wav
475,192,40056,1,0,0:0:0:70:0K.wav
182,192,40150,128,0,40900:0:0:0:70:VE.wav
475,192,40337,1,0,0:0:0:70:0K.wav
329,192,40525,1,0,0:0:0:70:0L.wav
329,192,40900,128,0,41650:0:0:0:70:VF.wav
36,192,40900,1,0,0:0:0:70:0K.wav
109,192,41181,1,0,0:0:0:70:0K.wav
182,192,41275,1,0,0:0:0:70:0L.wav
36,192,41556,1,0,0:0:0:70:0K.wav
475,192,41650,128,0,42400:0:0:0:70:VG.wav
36,192,41837,1,0,0:0:0:70:0K.wav
182,192,42025,1,0,0:0:0:70:0L.wav
329,192,42400,128,0,43150:0:0:0:70:VH.wav
109,192,42400,1,0,0:0:0:70:0K.wav
182,192,42775,1,0,0:0:0:70:0L.wav
36,192,43056,1,0,0:0:0:70:0K.wav
402,192,43150,128,0,43900:0:0:0:70:VI.wav
36,192,43337,1,0,0:0:0:70:0K.wav
256,192,43525,1,0,0:0:0:70:0L.wav
329,192,43900,128,0,44650:0:0:0:70:VJ.wav
109,192,43900,1,0,0:0:0:70:0K.wav
182,192,44181,1,0,0:0:0:70:0K.wav
256,192,44275,1,0,0:0:0:70:0L.wav
109,192,44556,1,0,0:0:0:70:0K.wav
402,192,44650,128,0,45400:0:0:0:70:VK.wav
109,192,44837,1,0,0:0:0:70:0K.wav
182,192,45025,1,0,0:0:0:70:0L.wav
36,192,45400,128,0,46150:0:0:0:70:VL.wav
256,192,45400,1,0,0:0:0:70:0K.wav
329,192,45775,1,0,0:0:0:70:0L.wav
475,192,46056,1,0,0:0:0:70:0K.wav
182,192,46150,128,0,46900:0:0:0:70:VM.wav
475,192,46337,1,0,0:0:0:70:0K.wav
329,192,46525,1,0,0:0:0:70:0L.wav
329,192,46900,128,0,47650:0:0:0:70:VN.wav
36,192,46900,1,0,0:0:0:70:0K.wav
109,192,47181,1,0,0:0:0:70:0K.wav
182,192,47275,1,0,0:0:0:70:0L.wav
36,192,47556,1,0,0:0:0:70:0K.wav
475,192,47650,128,0,48400:0:0:0:70:VO.wav
36,192,47837,1,0,0:0:0:70:0K.wav
182,192,48025,1,0,0:0:0:70:0L.wav
402,192,48400,128,0,49150:0:0:0:70:VP.wav
256,192,48400,1,0,0:0:0:70:0K.wav
109,192,48775,1,0,0:0:0:70:0L.wav
109,192,49056,1,0,0:0:0:70:0K.wav
256,192,49150,128,0,49525:0:0:0:70:VQ.wav
36,192,49337,1,0,0:0:0:70:0K.wav
109,192,49525,128,0,49900:0:0:0:70:VR.wav
402,192,49525,1,0,0:0:0:70:0L.wav
329,192,49712,1,0,0:0:0:70:0K.wav
475,192,49900,1,0,0:0:0:70:0K.wav
256,192,50275,1,0,0:0:0:70:0K.wav
36,192,50650,1,0,0:0:0:70:0K.wav
329,192,51025,128,0,51400:0:0:0:70:01.wav
475,192,51400,1,0,0:0:0:70:0K.wav
36,192,51400,128,0,51681:0:0:0:30:normal-hitnormal.wav
109,192,51681,128,0,51962:0:0:0:30:normal-hitnormal.wav
256,192,51962,128,0,52900:0:0:0:30:normal-hitnormal.wav
475,192,52056,1,0,0:0:0:70:0K.wav
329,192,52150,1,0,0:0:0:70:0K.wav
182,192,52337,1,0,0:0:0:70:0K.wav
36,192,52525,1,0,0:0:0:70:0L.wav
109,192,52900,128,0,54025:0:0:0:30:normal-hitnormal.wav
402,192,52900,1,0,0:0:0:70:0K.wav
329,192,53181,1,0,0:0:0:70:0L.wav
182,192,53275,1,0,0:0:0:70:0L.wav
475,192,53556,1,0,0:0:0:70:0K.wav
329,192,53650,1,0,0:0:0:70:0K.wav
256,192,53837,1,0,0:0:0:70:0K.wav
475,192,54025,128,0,54400:0:0:0:30:normal-hitnormal.wav
182,192,54025,1,0,0:0:0:70:0L.wav
36,192,54400,128,0,57400:0:0:0:30:normal-hitnormal.wav
256,192,54400,1,0,0:0:0:70:0K.wav
475,192,54775,1,0,0:0:0:70:0L.wav
109,192,55056,1,0,0:0:0:70:0K.wav
256,192,55150,1,0,0:0:0:70:0K.wav
329,192,55337,1,0,0:0:0:70:0K.wav
402,192,55525,1,0,0:0:0:70:0L.wav
182,192,55900,1,0,0:0:0:70:0K.wav
329,192,56181,1,0,0:0:0:70:0K.wav
475,192,56275,1,0,0:0:0:70:0L.wav
182,192,56556,1,0,0:0:0:70:0K.wav
329,192,56650,1,0,0:0:0:70:0K.wav
402,192,56837,1,0,0:0:0:70:0K.wav
475,192,57025,1,0,0:0:0:70:0L.wav
182,192,57400,1,0,0:0:0:30:normal-hitnormal.wav
402,192,57587,1,0,0:0:0:30:normal-hitnormal.wav
109,192,57775,1,0,0:0:0:30:normal-hitnormal.wav
182,192,57868,1,0,0:0:0:30:normal-hitnormal.wav
402,192,58056,1,0,0:0:0:30:normal-hitnormal.wav
36,192,58337,1,0,0:0:0:30:normal-hitnormal.wav
329,192,58525,1,0,0:0:0:30:normal-hitnormal.wav
402,192,58618,1,0,0:0:0:30:normal-hitnormal.wav
109,192,58900,1,0,0:0:0:30:normal-hitnormal.wav
402,192,59087,1,0,0:0:0:30:normal-hitnormal.wav
182,192,59275,1,0,0:0:0:30:normal-hitnormal.wav
256,192,59368,1,0,0:0:0:30:normal-hitnormal.wav
109,192,59556,1,0,0:0:0:30:normal-hitnormal.wav
329,192,59837,1,0,0:0:0:30:normal-hitnormal.wav
256,192,60025,1,0,0:0:0:30:normal-hitnormal.wav
182,192,60212,1,0,0:0:0:30:normal-hitnormal.wav
36,192,60400,128,0,61900:0:0:0:30:normal-hitnormal.wav
329,192,60400,1,0,0:0:0:70:0K.wav
475,192,60775,1,0,0:0:0:70:0L.wav
256,192,61150,1,0,0:0:0:70:0K.wav
182,192,61337,1,0,0:0:0:70:0K.wav
402,192,61525,1,0,0:0:0:70:0L.wav
182,192,61712,1,0,0:0:0:70:0K.wav
475,192,61900,128,0,62462:0:0:0:30:normal-hitnormal.wav
329,192,61900,1,0,0:0:0:70:0K.wav
256,192,61993,1,0,0:0:0:70:0K.wav
109,192,62181,1,0,0:0:0:70:0K.wav
36,192,62275,1,0,0:0:0:70:0L.wav
329,192,62462,1,0,0:0:0:70:0K.wav
256,192,62556,1,0,0:0:0:70:0K.wav
36,192,62650,128,0,63400:0:0:0:30:normal-hitnormal.wav
182,192,62650,1,0,0:0:0:70:0K.wav
475,192,62837,1,0,0:0:0:70:0K.wav
329,192,62931,1,0,0:0:0:70:0K.wav
182,192,63025,1,0,0:0:0:70:0L.wav
256,192,63400,1,0,0:0:0:30:normal-hitnormal.wav
475,192,63400,1,0,0:0:0:30:normal-hitnormal.wav
402,192,63775,1,0,0:0:0:30:normal-hitnormal.wav
182,192,64150,1,0,0:0:0:30:normal-hitnormal.wav
475,192,64525,1,0,0:0:0:30:normal-hitnormal.wav
36,192,64900,1,0,0:0:0:30:normal-hitnormal.wav
109,192,65275,1,0,0:0:0:30:normal-hitnormal.wav
329,192,65650,1,0,0:0:0:30:normal-hitnormal.wav
36,192,65650,1,0,0:0:0:30:normal-hitnormal.wav
475,192,66025,1,0,0:0:0:30:normal-hitnormal.wav
256,192,66400,1,0,0:0:0:30:normal-hitnormal.wav
36,192,66400,1,0,0:0:0:30:normal-hitnormal.wav
329,192,66775,1,0,0:0:0:30:normal-hitnormal.wav
182,192,67150,1,0,0:0:0:30:normal-hitnormal.wav
402,192,67525,1,0,0:0:0:30:normal-hitnormal.wav
109,192,67900,1,0,0:0:0:30:normal-hitnormal.wav
475,192,67900,1,0,0:0:0:30:normal-hitnormal.wav
402,192,68275,1,0,0:0:0:30:normal-hitnormal.wav
109,192,68650,128,0,69025:0:0:0:30:normal-hitnormal.wav
329,192,68650,1,0,0:0:0:30:normal-hitnormal.wav
402,192,69025,1,0,0:0:0:30:normal-hitnormal.wav
182,192,69025,128,0,69400:0:0:0:30:normal-hitnormal.wav
329,192,69400,1,0,0:0:0:30:normal-hitnormal.wav
36,192,69400,1,0,0:0:0:30:normal-hitnormal.wav
182,192,69775,1,0,0:0:0:30:normal-hitnormal.wav
109,192,70150,1,0,0:0:0:30:normal-hitnormal.wav
329,192,70150,1,0,0:0:0:30:normal-hitnormal.wav
475,192,70525,1,0,0:0:0:30:normal-hitnormal.wav
36,192,70525,128,0,70900:0:0:0:30:normal-hitnormal.wav
256,192,70900,1,0,0:0:0:30:normal-hitnormal.wav
402,192,71275,1,0,0:0:0:30:normal-hitnormal.wav
109,192,71650,1,0,0:0:0:30:normal-hitnormal.wav
329,192,71650,1,0,0:0:0:30:normal-hitnormal.wav
36,192,72025,1,0,0:0:0:30:normal-hitnormal.wav
475,192,72025,128,0,72400:0:0:0:70:01.wav
256,192,72400,1,0,0:0:0:30:normal-hitnormal.wav
329,192,72775,1,0,0:0:0:30:normal-hitnormal.wav
402,192,73150,1,0,0:0:0:30:normal-hitnormal.wav
182,192,73150,1,0,0:0:0:30:normal-hitnormal.wav
475,192,73525,1,0,0:0:0:30:normal-hitnormal.wav
36,192,73525,128,0,73900:0:0:0:70:01.wav
256,192,73900,128,0,75025:0:0:0:30:normal-hitnormal.wav
36,192,74931,1,0,0:0:0:70:0K.wav
109,192,75025,1,0,0:0:0:70:0L.wav
256,192,75400,1,0,0:0:0:70:0K.wav
475,192,75400,128,0,75681:0:0:0:30:normal-hitnormal.wav
329,192,75681,128,0,75962:0:0:0:30:normal-hitnormal.wav
109,192,75775,1,0,0:0:0:70:0L.wav
475,192,75962,128,0,76150:0:0:0:30:normal-hitnormal.wav
256,192,76150,128,0,76712:0:0:0:30:normal-hitnormal.wav
36,192,76150,1,0,0:0:0:70:0K.wav
109,192,76337,1,0,0:0:0:70:0K.wav
475,192,76525,1,0,0:0:0:70:0L.wav
109,192,76712,128,0,76900:0:0:0:30:normal-hitnormal.wav
475,192,76900,128,0,77181:0:0:0:30:normal-hitnormal.wav
329,192,76900,1,0,0:0:0:70:0K.wav
402,192,77181,128,0,77462:0:0:0:30:normal-hitnormal.wav
182,192,77275,1,0,0:0:0:70:0L.wav
329,192,77462,128,0,77837:0:0:0:30:normal-hitnormal.wav
109,192,77650,1,0,0:0:0:70:0K.wav
36,192,77837,128,0,78212:0:0:0:30:normal-hitnormal.wav
182,192,77837,1,0,0:0:0:70:0K.wav
402,192,78025,1,0,0:0:0:70:0L.wav
182,192,78212,128,0,78400:0:0:0:30:normal-hitnormal.wav
475,192,78400,128,0,78681:0:0:0:30:normal-hitnormal.wav
329,192,78400,1,0,0:0:0:70:0K.wav
182,192,78681,128,0,78962:0:0:0:30:normal-hitnormal.wav
36,192,78775,1,0,0:0:0:70:0L.wav
475,192,78962,128,0,79150:0:0:0:30:normal-hitnormal.wav
256,192,79150,128,0,79525:0:0:0:30:normal-hitnormal.wav
109,192,79150,1,0,0:0:0:70:0K.wav
109,192,79337,1,0,0:0:0:70:0K.wav
36,192,79525,128,0,79900:0:0:0:30:normal-hitnormal.wav
402,192,79525,1,0,0:0:0:70:0L.wav
182,192,79900,128,0,80462:0:0:0:30:normal-hitnormal.wav
329,192,79900,1,0,0:0:0:70:0K.wav
36,192,80275,1,0,0:0:0:70:0L.wav
256,192,80462,128,0,81025:0:0:0:30:normal-hitnormal.wav
402,192,80650,1,0,0:0:0:70:0K.wav
402,192,80837,1,0,0:0:0:70:0K.wav
182,192,81025,128,0,81400:0:0:0:30:normal-hitnormal.wav
36,192,81025,1,0,0:0:0:70:0L.wav
475,192,81400,1,0,0:0:0:30:normal-hitnormal.wav
329,192,81587,1,0,0:0:0:30:normal-hitnormal.wav
109,192,81775,1,0,0:0:0:30:normal-hitnormal.wav
182,192,81868,1,0,0:0:0:30:normal-hitnormal.wav
329,192,82150,1,0,0:0:0:30:normal-hitnormal.wav
109,192,82337,1,0,0:0:0:30:normal-hitnormal.wav
256,192,82525,1,0,0:0:0:30:normal-hitnormal.wav
329,192,82618,1,0,0:0:0:30:normal-hitnormal.wav
109,192,82900,1,0,0:0:0:30:normal-hitnormal.wav
182,192,83087,1,0,0:0:0:30:normal-hitnormal.wav
329,192,83275,1,0,0:0:0:30:normal-hitnormal.wav
402,192,83368,1,0,0:0:0:30:normal-hitnormal.wav
475,192,83650,1,0,0:0:0:30:normal-hitnormal.wav
329,192,83837,1,0,0:0:0:30:normal-hitnormal.wav
182,192,84025,1,0,0:0:0:30:normal-hitnormal.wav
402,192,84025,1,0,0:0:0:30:normal-hitnormal.wav
36,192,84212,1,0,0:0:0:30:normal-hitnormal.wav
182,192,84400,1,0,0:0:0:30:normal-hitnormal.wav
402,192,84587,1,0,0:0:0:30:normal-hitnormal.wav
475,192,84775,1,0,0:0:0:30:normal-hitnormal.wav
256,192,84775,1,0,0:0:0:30:normal-hitnormal.wav
109,192,84962,1,0,0:0:0:30:normal-hitnormal.wav
475,192,85150,1,0,0:0:0:30:normal-hitnormal.wav
36,192,85337,1,0,0:0:0:30:normal-hitnormal.wav
256,192,85525,1,0,0:0:0:30:normal-hitnormal.wav
109,192,85525,1,0,0:0:0:30:normal-hitnormal.wav
475,192,85712,1,0,0:0:0:30:normal-hitnormal.wav
182,192,85900,1,0,0:0:0:30:normal-hitnormal.wav
402,192,85900,1,0,0:0:0:30:normal-hitnormal.wav
109,192,86087,1,0,0:0:0:30:normal-hitnormal.wav
329,192,86275,1,0,0:0:0:30:normal-hitnormal.wav
36,192,86275,1,0,0:0:0:30:normal-hitnormal.wav
256,192,86462,1,0,0:0:0:30:normal-hitnormal.wav
402,192,86650,1,0,0:0:0:30:normal-hitnormal.wav
182,192,86650,1,0,0:0:0:30:normal-hitnormal.wav
36,192,86837,1,0,0:0:0:30:normal-hitnormal.wav
475,192,87025,1,0,0:0:0:30:normal-hitnormal.wav
256,192,87025,1,0,0:0:0:30:normal-hitnormal.wav
182,192,87212,1,0,0:0:0:30:normal-hitnormal.wav
36,192,87400,1,0,0:0:0:70:0K.wav
475,192,87400,128,0,87681:0:0:0:30:normal-hitnormal.wav
402,192,87681,128,0,87962:0:0:0:30:normal-hitnormal.wav
109,192,87775,1,0,0:0:0:70:0L.wav
329,192,87962,128,0,88150:0:0:0:30:normal-hitnormal.wav
256,192,88150,128,0,88712:0:0:0:30:normal-hitnormal.wav
36,192,88150,1,0,0:0:0:70:0K.wav
36,192,88337,1,0,0:0:0:70:0K.wav
402,192,88525,1,0,0:0:0:70:0L.wav
36,192,88712,128,0,88900:0:0:0:30:normal-hitnormal.wav
475,192,88900,128,0,89181:0:0:0:30:normal-hitnormal.wav
182,192,88900,1,0,0:0:0:70:0K.wav
402,192,89181,128,0,89462:0:0:0:30:normal-hitnormal.wav
36,192,89275,1,0,0:0:0:70:0L.wav
329,192,89462,128,0,89837:0:0:0:30:normal-hitnormal.wav
109,192,89650,1,0,0:0:0:70:0K.wav
36,192,89837,128,0,90212:0:0:0:30:normal-hitnormal.wav
182,192,89837,1,0,0:0:0:70:0K.wav
475,192,90025,1,0,0:0:0:70:0L.wav
182,192,90212,128,0,90400:0:0:0:30:normal-hitnormal.wav
475,192,90400,128,0,90775:0:0:0:30:normal-hitnormal.wav
329,192,90400,1,0,0:0:0:70:0K.wav
36,192,90775,1,0,0:0:0:30:normal-hitnormal.wav
256,192,90775,1,0,0:0:0:70:0L.wav
329,192,91150,1,0,0:0:0:30:normal-hitnormal.wav
109,192,91150,1,0,0:0:0:30:normal-hitnormal.wav
402,192,91431,1,0,0:0:0:30:normal-hitnormal.wav
36,192,91431,1,0,0:0:0:30:normal-hitnormal.wav
475,192,91712,1,0,0:0:0:30:normal-hitnormal.wav
182,192,91712,1,0,0:0:0:30:normal-hitnormal.wav
109,192,91993,1,0,0:0:0:30:normal-hitnormal.wav
402,192,91993,1,0,0:0:0:30:normal-hitnormal.wav
36,192,92275,1,0,0:0:0:30:normal-hitnormal.wav
256,192,92275,1,0,0:0:0:30:normal-hitnormal.wav
475,192,92556,1,0,0:0:0:30:normal-hitnormal.wav
329,192,92556,1,0,0:0:0:30:normal-hitnormal.wav
402,192,92837,1,0,0:0:0:30:normal-hitnormal.wav
256,192,92837,1,0,0:0:0:30:normal-hitnormal.wav
36,192,93025,1,0,0:0:0:30:normal-hitnormal.wav
109,192,93150,1,0,0:0:0:30:normal-hitnormal.wav
182,192,93275,1,0,0:0:0:30:normal-hitnormal.wav
475,192,93400,1,0,0:0:0:30:normal-hitnormal.wav
256,192,93400,1,0,0:0:0:70:0K.wav
182,192,93775,1,0,0:0:0:30:normal-hitnormal.wav
329,192,94150,1,0,0:0:0:70:0K.wav
329,192,94337,1,0,0:0:0:70:0K.wav
182,192,94525,1,0,0:0:0:70:0L.wav
36,192,94618,1,0,0:0:0:70:0K.wav
402,192,94900,128,0,95275:0:0:0:70:GJ.wav
256,192,94900,1,0,0:0:0:70:0K.wav
182,192,95275,128,0,95650:0:0:0:70:GK.wav
36,192,95650,128,0,96025:0:0:0:70:GL.wav
475,192,95650,1,0,0:0:0:70:0K.wav
402,192,95743,1,0,0:0:0:70:0K.wav
329,192,95837,1,0,0:0:0:70:0K.wav
109,192,96025,128,0,96400:0:0:0:70:GM.wav
475,192,96025,1,0,0:0:0:70:0L.wav
329,192,96118,1,0,0:0:0:70:0K.wav
256,192,96400,128,0,96775:0:0:0:70:GN.wav
475,192,96400,1,0,0:0:0:30:normal-hitnormal.wav
402,192,96775,128,0,97150:0:0:0:70:GO.wav
36,192,96775,1,0,0:0:0:30:normal-hitnormal.wav
329,192,97150,128,0,97525:0:0:0:70:GP.wav
36,192,97150,1,0,0:0:0:70:0K.wav
109,192,97243,1,0,0:0:0:70:0K.wav
182,192,97337,1,0,0:0:0:70:0K.wav
109,192,97525,128,0,97900:0:0:0:70:GQ.wav
475,192,97525,1,0,0:0:0:70:0L.wav
402,192,97618,1,0,0:0:0:70:0K.wav
475,192,97900,128,0,98650:0:0:0:70:GR.wav
256,192,97900,1,0,0:0:0:70:0K.wav
329,192,98087,1,0,0:0:0:30:normal-hitnormal.wav
109,192,98275,1,0,0:0:0:30:normal-hitnormal.wav
329,192,98462,1,0,0:0:0:30:normal-hitnormal.wav
36,192,98650,128,0,99400:0:0:0:70:GT.wav
182,192,98650,1,0,0:0:0:70:J1.wav
256,192,98837,1,0,0:0:0:70:J3.wav
329,192,99025,1,0,0:0:0:70:J5.wav
402,192,99212,1,0,0:0:0:70:J7.wav
256,192,99400,1,0,0:0:0:30:normal-hitnormal.wav
475,192,99400,1,0,0:0:0:30:normal-hitnormal.wav
109,192,101462,1,0,0:0:0:30:normal-hitnormal.wav
256,192,101556,1,0,0:0:0:30:normal-hitnormal.wav
402,192,101650,1,0,0:0:0:30:normal-hitnormal.wav
182,192,101837,1,0,0:0:0:30:normal-hitnormal.wav
475,192,102025,1,0,0:0:0:30:normal-hitnormal.wav
329,192,102212,1,0,0:0:0:30:normal-hitnormal.wav
36,192,102400,1,0,0:0:0:30:normal-hitnormal.wav
256,192,102400,1,0,0:0:0:30:normal-hitnormal.wav
109,192,103150,128,0,103900:0:0:0:30:normal-hitnormal.wav
475,192,103712,1,0,0:0:0:30:normal-hitnormal.wav
475,192,103900,1,0,0:0:0:30:normal-hitnormal.wav
36,192,104650,1,0,0:0:0:30:normal-hitnormal.wav
182,192,104837,1,0,0:0:0:30:normal-hitnormal.wav
402,192,105025,1,0,0:0:0:30:normal-hitnormal.wav
182,192,105212,1,0,0:0:0:30:normal-hitnormal.wav
256,192,105400,1,0,0:0:0:30:normal-hitnormal.wav
36,192,105400,1,0,0:0:0:30:normal-hitnormal.wav
36,192,106150,1,0,0:0:0:30:normal-hitnormal.wav
475,192,106525,1,0,0:0:0:30:normal-hitnormal.wav
329,192,106712,1,0,0:0:0:30:normal-hitnormal.wav
182,192,106900,1,0,0:0:0:30:normal-hitnormal.wav
109,192,107462,1,0,0:0:0:30:normal-hitnormal.wav
182,192,108025,1,0,0:0:0:30:normal-hitnormal.wav
256,192,108400,1,0,0:0:0:30:normal-hitnormal.wav
475,192,108400,1,0,0:0:0:30:normal-hitnormal.wav
402,192,108962,1,0,0:0:0:30:normal-hitnormal.wav
109,192,109900,1,0,0:0:0:30:normal-hitnormal.wav
182,192,109923,1,0,0:0:0:30:normal-hitnormal.wav
402,192,110462,1,0,0:0:0:30:normal-hitnormal.wav
109,192,111025,1,0,0:0:0:70:0K.wav
36,192,111400,1,0,0:0:0:70:0K.wav
256,192,111400,1,0,0:0:0:70:0K.wav
475,192,111400,1,0,0:0:0:70:0K.wav
182,192,112150,1,0,0:0:0:30:normal-hitnormal.wav
475,192,112900,1,0,0:0:0:70:0K.wav
36,192,112900,1,0,0:0:0:70:0K.wav
256,192,112900,1,0,0:0:0:70:0K.wav
329,192,113650,1,0,0:0:0:30:normal-hitnormal.wav
475,192,114400,1,0,0:0:0:70:0K.wav
182,192,114400,1,0,0:0:0:70:0K.wav
109,192,114587,1,0,0:0:0:30:normal-hitnormal.wav
329,192,114775,1,0,0:0:0:30:normal-hitnormal.wav
36,192,114962,1,0,0:0:0:30:normal-hitnormal.wav
475,192,115150,1,0,0:0:0:30:normal-hitnormal.wav
109,192,115337,1,0,0:0:0:30:normal-hitnormal.wav
256,192,115525,128,0,115900:0:0:0:30:normal-hitnormal.wav
402,192,115525,1,0,0:0:0:30:normal-hitnormal.wav
475,192,115900,1,0,0:0:0:30:normal-hitnormal.wav
329,192,116087,1,0,0:0:0:30:normal-hitnormal.wav
182,192,116275,1,0,0:0:0:30:normal-hitnormal.wav
36,192,116462,1,0,0:0:0:30:normal-hitnormal.wav
329,192,116650,1,0,0:0:0:30:normal-hitnormal.wav
402,192,116931,1,0,0:0:0:30:normal-hitnormal.wav
109,192,117025,1,0,0:0:0:30:normal-hitnormal.wav
256,192,117400,1,0,0:0:0:70:0K.wav
36,192,117400,1,0,0:0:0:70:0K.wav
475,192,117400,1,0,0:0:0:70:0K.wav
