osu file format v14

[General]
AudioFilename: AXION.mp3
AudioLeadIn: 0
PreviewTime: 75025
Countdown: 0
SampleSet: Soft
StackLeniency: 0.7
Mode: 3
LetterboxInBreaks: 0
SpecialStyle: 0
WidescreenStoryboard: 0

[Editor]
DistanceSpacing: 0.8
BeatDivisor: 4
GridSize: 8
TimelineZoom: 2.1

[Metadata]
Title:AXION
TitleUnicode:AXION
Artist:sakuzyo
ArtistUnicode:削除
Creator:ljqandylee
Version:Ex-ray
Source:BMS
Tags:cytus c82 pocket gao expew
BeatmapID:519314
BeatmapSetID:222073

[Difficulty]
HPDrainRate:8.2
CircleSize:7
OverallDifficulty:8
ApproachRate:5
SliderMultiplier:1.4
SliderTickRate:1

[Events]
//Background and Video events
0,0,"Background.jpg",0,0
//Break Periods
//Storyboard Layer 0 (Background)
//Storyboard Layer 1 (Fail)
//Storyboard Layer 2 (Pass)
//Storyboard Layer 3 (Foreground)
//Storyboard Sound Samples

[TimingPoints]
400,375,4,2,0,10,1,0
13458,-100,4,2,0,20,0,0
51400,-100,4,2,0,20,0,1
63400,-100,4,2,0,20,0,0
75400,-100,4,2,0,20,0,1
90775,-200,4,2,0,20,0,1
91056,-50,4,2,0,20,0,1
91150,-200,4,2,0,20,0,1
91337,-50,4,2,0,20,0,1
91431,-200,4,2,0,20,0,1
91618,-50,4,2,0,20,0,1
91712,-200,4,2,0,20,0,1
91900,-50,4,2,0,20,0,1
91993,-200,4,2,0,20,0,1
92175,-50,4,2,0,20,0,1
92275,-200,4,2,0,20,0,1
92438,-50,4,2,0,20,0,1
92556,-200,4,2,0,20,0,1
92743,-50,4,2,0,20,0,1
92837,-100,4,2,0,20,0,1
93400,-100,4,2,0,20,0,0

[HitObjects]
36,192,1337,128,0,1900:0:0:0:70:01.wav
329,192,1525,128,0,1900:0:0:0:30:normal-hitnormal.wav
182,192,1900,1,0,0:0:0:30:normal-hitnormal.wav
256,192,1900,1,0,0:0:0:70:0K.wav
402,192,1900,1,0,0:0:0:70:0K.wav
475,192,1900,1,0,0:0:0:70:0K.wav
109,192,2087,1,0,0:0:0:30:normal-hitnormal.wav
36,192,2275,1,0,0:0:0:30:normal-hitnormal.wav
329,192,2462,1,0,0:0:0:30:normal-hitnormal.wav
36,192,2837,1,0,0:0:0:30:normal-hitnormal.wav
182,192,3025,1,0,0:0:0:30:normal-hitnormal.wav
475,192,3212,1,0,0:0:0:30:normal-hitnormal.wav
109,192,3587,1,0,0:0:0:30:normal-hitnormal.wav
36,192,3775,1,0,0:0:0:30:normal-hitnormal.wav
329,192,3962,1,0,0:0:0:30:normal-hitnormal.wav
256,192,4337,1,0,0:0:0:30:normal-hitnormal.wav
36,192,4525,1,0,0:0:0:30:normal-hitnormal.wav
182,192,4712,1,0,0:0:0:30:normal-hitnormal.wav
329,192,4900,1,0,0:0:0:30:normal-hitnormal.wav
109,192,5087,1,0,0:0:0:30:normal-hitnormal.wav
256,192,5275,1,0,0:0:0:30:normal-hitnormal.wav
402,192,5462,1,0,0:0:0:30:normal-hitnormal.wav
36,192,5837,1,0,0:0:0:30:normal-hitnormal.wav
182,192,6025,1,0,0:0:0:30:normal-hitnormal.wav
475,192,6212,1,0,0:0:0:30:normal-hitnormal.wav
329,192,6212,1,0,0:0:0:30:normal-hitnormal.wav
475,192,6400,1,0,0:0:0:30:normal-hitnormal.wav
109,192,6400,1,0,0:0:0:30:normal-hitnormal.wav
329,192,6587,1,0,0:0:0:30:normal-hitnormal.wav
109,192,6775,1,0,0:0:0:30:normal-hitnormal.wav
256,192,6962,1,0,0:0:0:30:normal-hitnormal.wav
182,192,7337,128,0,7900:0:0:0:30:normal-hitnormal.wav
402,192,7337,1,0,0:0:0:30:normal-hitnormal.wav
329,192,7525,1,0,0:0:0:30:normal-hitnormal.wav
36,192,7712,1,0,0:0:0:30:normal-hitnormal.wav
256,192,7900,1,0,0:0:0:30:normal-hitnormal.wav
402,192,7900,1,0,0:0:0:30:normal-hitnormal.wav
329,192,8087,1,0,0:0:0:30:normal-hitnormal.wav
109,192,8275,1,0,0:0:0:30:normal-hitnormal.wav
256,192,8462,1,0,0:0:0:30:normal-hitnormal.wav
475,192,8462,1,0,0:0:0:30:normal-hitnormal.wav
109,192,8837,1,0,0:0:0:30:normal-hitnormal.wav
182,192,8837,1,0,0:0:0:30:normal-hitnormal.wav
329,192,9025,1,0,0:0:0:30:normal-hitnormal.wav
475,192,9212,1,0,0:0:0:30:normal-hitnormal.wav
36,192,9400,1,0,0:0:0:30:normal-hitnormal.wav
329,192,9587,1,0,0:0:0:30:normal-hitnormal.wav
109,192,9775,1,0,0:0:0:30:normal-hitnormal.wav
36,192,9775,1,0,0:0:0:30:normal-hitnormal.wav
402,192,9962,1,0,0:0:0:30:normal-hitnormal.wav
109,192,10150,1,0,0:0:0:30:normal-hitnormal.wav
256,192,10337,1,0,0:0:0:30:normal-hitnormal.wav
475,192,10337,1,0,0:0:0:30:normal-hitnormal.wav
36,192,10525,1,0,0:0:0:30:normal-hitnormal.wav
182,192,10712,1,0,0:0:0:30:normal-hitnormal.wav
109,192,10900,1,0,0:0:0:30:normal-hitnormal.wav
329,192,10900,1,0,0:0:0:30:normal-hitnormal.wav
402,192,11087,1,0,0:0:0:30:normal-hitnormal.wav
256,192,11275,1,0,0:0:0:30:normal-hitnormal.wav
36,192,11275,1,0,0:0:0:30:normal-hitnormal.wav
329,192,11462,1,0,0:0:0:30:normal-hitnormal.wav
402,192,11650,1,0,0:0:0:30:normal-hitnormal.wav
109,192,11837,1,0,0:0:0:30:normal-hitnormal.wav
475,192,11837,1,0,0:0:0:30:normal-hitnormal.wav
182,192,11837,1,0,0:0:0:30:normal-hitnormal.wav
329,192,12025,1,0,0:0:0:30:normal-hitnormal.wav
475,192,12212,1,0,0:0:0:30:normal-hitnormal.wav
36,192,12212,1,0,0:0:0:30:normal-hitnormal.wav
182,192,12212,1,0,0:0:0:30:normal-hitnormal.wav
109,192,12400,1,0,0:0:0:30:normal-hitnormal.wav
36,192,12400,128,0,12962:0:0:0:30:normal-hitnormal.wav
329,192,12587,1,0,0:0:0:30:normal-hitnormal.wav
109,192,12775,1,0,0:0:0:30:normal-hitnormal.wav
256,192,12962,1,0,0:0:0:30:normal-hitnormal.wav
475,192,12962,128,0,13900:0:0:0:30:normal-hitnormal.wav
182,192,13337,1,0,0:0:0:30:normal-hitnormal.wav
329,192,13525,1,0,0:0:0:30:normal-hitnormal.wav
402,192,13525,128,0,13900:0:0:0:30:normal-hitnormal.wav
36,192,13712,1,0,0:0:0:30:normal-hitnormal.wav
109,192,13900,1,0,0:0:0:70:0K.wav
182,192,13900,1,0,0:0:0:30:normal-hitnormal.wav
256,192,13900,1,0,0:0:0:30:normal-hitnormal.wav
329,192,13900,1,0,0:0:0:70:0K.wav
329,192,14087,1,0,0:0:0:30:normal-hitnormal.wav
109,192,14087,1,0,0:0:0:30:normal-hitnormal.wav
402,192,14087,128,0,14275:0:0:0:30:normal-hitnormal.wav
256,192,14275,1,0,0:0:0:30:normal-hitnormal.wav
36,192,14275,128,0,14462:0:0:0:30:normal-hitnormal.wav
475,192,14275,1,0,0:0:0:30:normal-hitnormal.wav
402,192,14462,1,0,0:0:0:30:normal-hitnormal.wav
182,192,14462,1,0,0:0:0:30:normal-hitnormal.wav
109,192,14462,128,0,14650:0:0:0:30:normal-hitnormal.wav
256,192,14556,1,0,0:0:0:30:normal-hitnormal.wav
329,192,14650,1,0,0:0:0:30:normal-hitnormal.wav
36,192,14650,1,0,0:0:0:30:normal-hitnormal.wav
182,192,14837,128,0,15025:0:0:0:30:normal-hitnormal.wav
256,192,14837,1,0,0:0:0:30:normal-hitnormal.wav
109,192,14837,1,0,0:0:0:30:normal-hitnormal.wav
402,192,15025,128,0,15212:0:0:0:30:normal-hitnormal.wav
36,192,15025,1,0,0:0:0:30:normal-hitnormal.wav
329,192,15025,1,0,0:0:0:30:normal-hitnormal.wav
256,192,15118,1,0,0:0:0:30:normal-hitnormal.wav
475,192,15212,128,0,15400:0:0:0:30:normal-hitnormal.wav
109,192,15212,1,0,0:0:0:30:normal-hitnormal.wav
182,192,15212,1,0,0:0:0:30:normal-hitnormal.wav
329,192,15306,1,0,0:0:0:30:normal-hitnormal.wav
256,192,15400,1,0,0:0:0:30:normal-hitnormal.wav
36,192,15400,1,0,0:0:0:30:normal-hitnormal.wav
402,192,15587,128,0,15775:0:0:0:30:normal-hitnormal.wav
182,192,15587,1,0,0:0:0:30:normal-hitnormal.wav
329,192,15587,1,0,0:0:0:30:normal-hitnormal.wav
109,192,15775,128,0,15962:0:0:0:30:normal-hitnormal.wav
256,192,15775,1,0,0:0:0:30:normal-hitnormal.wav
475,192,15775,1,0,0:0:0:30:normal-hitnormal.wav
182,192,15962,128,0,16150:0:0:0:30:normal-hitnormal.wav
329,192,15962,1,0,0:0:0:30:normal-hitnormal.wav
36,192,15962,1,0,0:0:0:30:normal-hitnormal.wav
402,192,16056,1,0,0:0:0:30:normal-hitnormal.wav
109,192,16150,1,0,0:0:0:30:normal-hitnormal.wav
475,192,16150,1,0,0:0:0:30:normal-hitnormal.wav
329,192,16337,128,0,16525:0:0:0:30:normal-hitnormal.wav
182,192,16337,1,0,0:0:0:30:normal-hitnormal.wav
402,192,16337,1,0,0:0:0:30:normal-hitnormal.wav
109,192,16431,1,0,0:0:0:30:normal-hitnormal.wav
36,192,16525,128,0,16712:0:0:0:30:normal-hitnormal.wav
256,192,16525,1,0,0:0:0:30:normal-hitnormal.wav
475,192,16525,1,0,0:0:0:30:normal-hitnormal.wav
402,192,16618,1,0,0:0:0:30:normal-hitnormal.wav
109,192,16712,128,0,16900:0:0:0:30:normal-hitnormal.wav
329,192,16712,1,0,0:0:0:30:normal-hitnormal.wav
402,192,16806,1,0,0:0:0:30:normal-hitnormal.wav
182,192,16900,128,0,17087:0:0:0:30:normal-hitnormal.wav
475,192,16900,128,0,17087:0:0:0:30:normal-hitnormal.wav
256,192,16900,1,0,0:0:0:30:normal-hitnormal.wav
36,192,16900,1,0,0:0:0:30:normal-hitnormal.wav
329,192,16993,1,0,0:0:0:30:normal-hitnormal.wav
256,192,17087,128,0,17275:0:0:0:30:normal-hitnormal.wav
402,192,17087,1,0,0:0:0:30:normal-hitnormal.wav
109,192,17087,1,0,0:0:0:30:normal-hitnormal.wav
182,192,17275,128,0,17462:0:0:0:30:normal-hitnormal.wav
36,192,17275,1,0,0:0:0:30:normal-hitnormal.wav
475,192,17275,1,0,0:0:0:30:normal-hitnormal.wav
329,192,17462,128,0,17650:0:0:0:30:normal-hitnormal.wav
109,192,17462,1,0,0:0:0:30:normal-hitnormal.wav
256,192,17462,1,0,0:0:0:30:normal-hitnormal.wav
402,192,17556,1,0,0:0:0:30:normal-hitnormal.wav
475,192,17650,1,0,0:0:0:30:normal-hitnormal.wav
36,192,17650,1,0,0:0:0:30:normal-hitnormal.wav
256,192,17650,128,0,17837:0:0:0:30:normal-hitnormal.wav
109,192,17837,128,0,18025:0:0:0:30:normal-hitnormal.wav
182,192,17837,1,0,0:0:0:30:normal-hitnormal.wav
402,192,17837,1,0,0:0:0:30:normal-hitnormal.wav
182,192,18025,128,0,18212:0:0:0:30:normal-hitnormal.wav
329,192,18025,1,0,0:0:0:30:normal-hitnormal.wav
475,192,18025,1,0,0:0:0:30:normal-hitnormal.wav
256,192,18118,1,0,0:0:0:30:normal-hitnormal.wav
475,192,18212,128,0,18400:0:0:0:30:normal-hitnormal.wav
36,192,18212,1,0,0:0:0:30:normal-hitnormal.wav
109,192,18306,1,0,0:0:0:30:normal-hitnormal.wav
182,192,18400,1,0,0:0:0:30:normal-hitnormal.wav
402,192,18400,1,0,0:0:0:30:normal-hitnormal.wav
329,192,18493,1,0,0:0:0:30:normal-hitnormal.wav
256,192,18587,1,0,0:0:0:30:normal-hitnormal.wav
36,192,18587,1,0,0:0:0:30:normal-hitnormal.wav
475,192,18587,1,0,0:0:0:30:normal-hitnormal.wav
109,192,18775,1,0,0:0:0:30:normal-hitnormal.wav
182,192,18775,1,0,0:0:0:30:normal-hitnormal.wav
402,192,18775,1,0,0:0:0:30:normal-hitnormal.wav
475,192,18962,128,0,19900:0:0:0:30:normal-hitnormal.wav
402,192,18962,1,0,0:0:0:30:normal-hitnormal.wav
256,192,18962,1,0,0:0:0:30:normal-hitnormal.wav
329,192,19056,1,0,0:0:0:30:normal-hitnormal.wav
182,192,19150,1,0,0:0:0:30:normal-hitnormal.wav
36,192,19150,1,0,0:0:0:30:normal-hitnormal.wav
109,192,19337,1,0,0:0:0:30:normal-hitnormal.wav
329,192,19337,1,0,0:0:0:30:normal-hitnormal.wav
402,192,19431,1,0,0:0:0:30:normal-hitnormal.wav
182,192,19525,1,0,0:0:0:30:normal-hitnormal.wav
36,192,19525,1,0,0:0:0:30:normal-hitnormal.wav
256,192,19618,1,0,0:0:0:30:normal-hitnormal.wav
329,192,19712,1,0,0:0:0:30:normal-hitnormal.wav
109,192,19712,1,0,0:0:0:30:normal-hitnormal.wav
402,192,19712,128,0,20087:0:0:0:30:normal-hitnormal.wav
182,192,19806,1,0,0:0:0:30:normal-hitnormal.wav
36,192,19900,1,0,0:0:0:30:normal-hitnormal.wav
256,192,19900,1,0,0:0:0:30:normal-hitnormal.wav
109,192,19993,1,0,0:0:0:30:normal-hitnormal.wav
329,192,20087,128,0,20462:0:0:0:30:normal-hitnormal.wav
182,192,20087,1,0,0:0:0:30:normal-hitnormal.wav
475,192,20087,1,0,0:0:0:30:normal-hitnormal.wav
182,192,20275,128,0,20650:0:0:0:30:normal-hitnormal.wav
109,192,20275,1,0,0:0:0:30:normal-hitnormal.wav
256,192,20275,1,0,0:0:0:30:normal-hitnormal.wav
402,192,20462,128,0,20650:0:0:0:30:normal-hitnormal.wav
36,192,20462,1,0,0:0:0:30:normal-hitnormal.wav
109,192,20556,1,0,0:0:0:30:normal-hitnormal.wav
256,192,20650,1,0,0:0:0:30:normal-hitnormal.wav
475,192,20650,1,0,0:0:0:30:normal-hitnormal.wav
109,192,20837,128,0,21212:0:0:0:30:normal-hitnormal.wav
36,192,20837,1,0,0:0:0:30:normal-hitnormal.wav
402,192,20837,1,0,0:0:0:30:normal-hitnormal.wav
329,192,21025,128,0,21400:0:0:0:30:normal-hitnormal.wav
256,192,21025,1,0,0:0:0:30:normal-hitnormal.wav
475,192,21025,1,0,0:0:0:30:normal-hitnormal.wav
182,192,21118,1,0,0:0:0:30:normal-hitnormal.wav
475,192,21212,128,0,21400:0:0:0:30:normal-hitnormal.wav
36,192,21212,1,0,0:0:0:30:normal-hitnormal.wav
402,192,21212,1,0,0:0:0:30:normal-hitnormal.wav
256,192,21306,1,0,0:0:0:30:normal-hitnormal.wav
182,192,21400,1,0,0:0:0:30:normal-hitnormal.wav
36,192,21400,1,0,0:0:0:30:normal-hitnormal.wav
109,192,21493,1,0,0:0:0:30:normal-hitnormal.wav
256,192,21493,1,0,0:0:0:30:normal-hitnormal.wav
402,192,21587,1,0,0:0:0:30:normal-hitnormal.wav
182,192,21587,128,0,21962:0:0:0:30:normal-hitnormal.wav
36,192,21587,1,0,0:0:0:30:normal-hitnormal.wav
36,192,21775,1,0,0:0:0:30:normal-hitnormal.wav
475,192,21775,1,0,0:0:0:30:normal-hitnormal.wav
329,192,21775,1,0,0:0:0:30:normal-hitnormal.wav
402,192,21775,128,0,22150:0:0:0:30:normal-hitnormal.wav
475,192,21962,128,0,22150:0:0:0:30:normal-hitnormal.wav
256,192,21962,1,0,0:0:0:30:normal-hitnormal.wav
109,192,21962,1,0,0:0:0:30:normal-hitnormal.wav
36,192,22056,1,0,0:0:0:30:normal-hitnormal.wav
182,192,22150,1,0,0:0:0:30:normal-hitnormal.wav
329,192,22150,1,0,0:0:0:30:normal-hitnormal.wav
256,192,22337,128,0,22712:0:0:0:30:normal-hitnormal.wav
329,192,22337,1,0,0:0:0:30:normal-hitnormal.wav
402,192,22337,1,0,0:0:0:30:normal-hitnormal.wav
182,192,22431,1,0,0:0:0:30:normal-hitnormal.wav
36,192,22525,128,0,22900:0:0:0:30:normal-hitnormal.wav
109,192,22525,1,0,0:0:0:30:normal-hitnormal.wav
329,192,22525,1,0,0:0:0:30:normal-hitnormal.wav
402,192,22618,1,0,0:0:0:30:normal-hitnormal.wav
182,192,22712,128,0,22900:0:0:0:30:normal-hitnormal.wav
329,192,22712,1,0,0:0:0:30:normal-hitnormal.wav
475,192,22712,1,0,0:0:0:30:normal-hitnormal.wav
402,192,22806,1,0,0:0:0:30:normal-hitnormal.wav
109,192,22900,1,0,0:0:0:30:normal-hitnormal.wav
329,192,22900,1,0,0:0:0:30:normal-hitnormal.wav
256,192,22900,1,0,0:0:0:30:normal-hitnormal.wav
402,192,22993,1,0,0:0:0:30:normal-hitnormal.wav
475,192,23087,1,0,0:0:0:30:normal-hitnormal.wav
36,192,23087,1,0,0:0:0:30:normal-hitnormal.wav
109,192,23087,1,0,0:0:0:30:normal-hitnormal.wav
36,192,23275,1,0,0:0:0:30:normal-hitnormal.wav
182,192,23275,1,0,0:0:0:30:normal-hitnormal.wav
402,192,23275,1,0,0:0:0:30:normal-hitnormal.wav
329,192,23462,1,0,0:0:0:30:normal-hitnormal.wav
109,192,23462,1,0,0:0:0:30:normal-hitnormal.wav
182,192,23556,1,0,0:0:0:30:normal-hitnormal.wav
36,192,23650,1,0,0:0:0:30:normal-hitnormal.wav
402,192,23650,1,0,0:0:0:30:normal-hitnormal.wav
256,192,23650,1,0,0:0:0:30:normal-hitnormal.wav
109,192,23837,1,0,0:0:0:30:normal-hitnormal.wav
256,192,23837,1,0,0:0:0:30:normal-hitnormal.wav
475,192,23837,1,0,0:0:0:30:normal-hitnormal.wav
182,192,24025,1,0,0:0:0:30:normal-hitnormal.wav
402,192,24025,1,0,0:0:0:30:normal-hitnormal.wav
329,192,24118,1,0,0:0:0:30:normal-hitnormal.wav
109,192,24118,1,0,0:0:0:30:normal-hitnormal.wav
256,192,24212,1,0,0:0:0:30:normal-hitnormal.wav
475,192,24212,1,0,0:0:0:30:normal-hitnormal.wav
402,192,24306,1,0,0:0:0:30:normal-hitnormal.wav
182,192,24306,1,0,0:0:0:30:normal-hitnormal.wav
109,192,24400,1,0,0:0:0:30:normal-hitnormal.wav
36,192,24400,1,0,0:0:0:70:0K.wav
329,192,24400,1,0,0:0:0:30:normal-hitnormal.wav
182,192,24493,1,0,0:0:0:30:normal-hitnormal.wav
402,192,24493,1,0,0:0:0:30:normal-hitnormal.wav
256,192,24587,1,0,0:0:0:30:normal-hitnormal.wav
475,192,24587,1,0,0:0:0:30:normal-hitnormal.wav
36,192,24681,1,0,0:0:0:30:normal-hitnormal.wav
329,192,24681,1,0,0:0:0:70:0K.wav
109,192,24775,1,0,0:0:0:30:normal-hitnormal.wav
402,192,24775,1,0,0:0:0:30:normal-hitnormal.wav
475,192,24775,1,0,0:0:0:30:normal-hitnormal.wav
182,192,24775,1,0,0:0:0:30:normal-hitnormal.wav
256,192,24962,1,0,0:0:0:30:normal-hitnormal.wav
402,192,24962,1,0,0:0:0:30:normal-hitnormal.wav
36,192,25056,1,0,0:0:0:30:normal-hitnormal.wav
329,192,25056,1,0,0:0:0:70:0K.wav
182,192,25150,1,0,0:0:0:30:normal-hitnormal.wav
475,192,25150,1,0,0:0:0:30:normal-hitnormal.wav
36,192,25243,1,0,0:0:0:70:0K.wav
109,192,25337,1,0,0:0:0:30:normal-hitnormal.wav
256,192,25337,1,0,0:0:0:30:normal-hitnormal.wav
402,192,25337,1,0,0:0:0:30:normal-hitnormal.wav
329,192,25431,1,0,0:0:0:30:normal-hitnormal.wav
182,192,25431,1,0,0:0:0:30:normal-hitnormal.wav
475,192,25525,1,0,0:0:0:30:normal-hitnormal.wav
402,192,25525,1,0,0:0:0:30:normal-hitnormal.wav
36,192,25525,1,0,0:0:0:30:normal-hitnormal.wav
329,192,25618,1,0,0:0:0:30:normal-hitnormal.wav
109,192,25618,1,0,0:0:0:30:normal-hitnormal.wav
256,192,25618,1,0,0:0:0:30:normal-hitnormal.wav
182,192,25712,1,0,0:0:0:30:normal-hitnormal.wav
402,192,25712,1,0,0:0:0:30:normal-hitnormal.wav
475,192,25712,128,0,26650:0:0:0:30:normal-hitnormal.wav
329,192,25806,1,0,0:0:0:30:normal-hitnormal.wav
36,192,25806,1,0,0:0:0:30:normal-hitnormal.wav
109,192,25806,1,0,0:0:0:30:normal-hitnormal.wav
182,192,25900,1,0,0:0:0:70:0K.wav
256,192,25900,1,0,0:0:0:70:0K.wav
402,192,25900,128,0,26462:0:0:0:30:normal-hitnormal.wav
36,192,25993,1,0,0:0:0:30:normal-hitnormal.wav
182,192,26087,1,0,0:0:0:30:normal-hitnormal.wav
36,192,26181,1,0,0:0:0:30:normal-hitnormal.wav
256,192,26181,1,0,0:0:0:30:normal-hitnormal.wav
182,192,26275,1,0,0:0:0:30:normal-hitnormal.wav
36,192,26368,1,0,0:0:0:30:normal-hitnormal.wav
329,192,26368,1,0,0:0:0:30:normal-hitnormal.wav
182,192,26462,1,0,0:0:0:30:normal-hitnormal.wav
109,192,26462,1,0,0:0:0:30:normal-hitnormal.wav
36,192,26556,1,0,0:0:0:30:normal-hitnormal.wav
256,192,26556,1,0,0:0:0:30:normal-hitnormal.wav
182,192,26650,1,0,0:0:0:30:normal-hitnormal.wav
402,192,26650,1,0,0:0:0:30:normal-hitnormal.wav
329,192,26650,1,0,0:0:0:30:normal-hitnormal.wav
256,192,26743,1,0,0:0:0:30:normal-hitnormal.wav
329,192,26837,1,0,0:0:0:30:normal-hitnormal.wav
402,192,26931,1,0,0:0:0:30:normal-hitnormal.wav
475,192,27025,1,0,0:0:0:30:normal-hitnormal.wav
402,192,27400,1,0,0:0:0:30:normal-hitnormal.wav
109,192,27400,1,0,0:0:0:30:normal-hitnormal.wav
36,192,27400,1,0,0:0:0:70:0K.wav
475,192,27400,1,0,0:0:0:70:01.wav
329,192,27493,1,0,0:0:0:30:normal-hitnormal.wav
182,192,27587,1,0,0:0:0:30:normal-hitnormal.wav
256,192,27681,1,0,0:0:0:70:0K.wav
329,192,27681,1,0,0:0:0:30:normal-hitnormal.wav
475,192,27775,1,0,0:0:0:30:normal-hitnormal.wav
402,192,27775,1,0,0:0:0:70:0L.wav
36,192,27775,1,0,0:0:0:30:normal-hitnormal.wav
109,192,27868,1,0,0:0:0:30:normal-hitnormal.wav
329,192,27962,1,0,0:0:0:30:normal-hitnormal.wav
256,192,28056,1,0,0:0:0:30:normal-hitnormal.wav
182,192,28056,1,0,0:0:0:70:0K.wav
475,192,28056,1,0,0:0:0:30:normal-hitnormal.wav
36,192,28150,1,0,0:0:0:30:normal-hitnormal.wav
329,192,28150,1,0,0:0:0:30:normal-hitnormal.wav
402,192,28243,1,0,0:0:0:30:normal-hitnormal.wav
109,192,28337,1,0,0:0:0:70:0K.wav
36,192,28337,1,0,0:0:0:30:normal-hitnormal.wav
475,192,28337,1,0,0:0:0:30:normal-hitnormal.wav
329,192,28431,1,0,0:0:0:30:normal-hitnormal.wav
402,192,28525,1,0,0:0:0:30:normal-hitnormal.wav
256,192,28525,1,0,0:0:0:70:0L.wav
182,192,28525,1,0,0:0:0:30:normal-hitnormal.wav
475,192,28525,1,0,0:0:0:30:normal-hitnormal.wav
109,192,28618,1,0,0:0:0:30:normal-hitnormal.wav
329,192,28712,1,0,0:0:0:30:normal-hitnormal.wav
182,192,28806,1,0,0:0:0:30:normal-hitnormal.wav
36,192,28900,1,0,0:0:0:70:0K.wav
109,192,28900,1,0,0:0:0:30:normal-hitnormal.wav
256,192,28900,1,0,0:0:0:30:normal-hitnormal.wav
329,192,28900,1,0,0:0:0:30:normal-hitnormal.wav
402,192,28993,1,0,0:0:0:30:normal-hitnormal.wav
475,192,29087,1,0,0:0:0:30:normal-hitnormal.wav
182,192,29181,1,0,0:0:0:30:normal-hitnormal.wav
109,192,29181,1,0,0:0:0:70:0K.wav
402,192,29181,1,0,0:0:0:30:normal-hitnormal.wav
256,192,29275,1,0,0:0:0:70:0L.wav
329,192,29275,1,0,0:0:0:30:normal-hitnormal.wav
36,192,29275,1,0,0:0:0:30:normal-hitnormal.wav
182,192,29368,1,0,0:0:0:30:normal-hitnormal.wav
402,192,29462,1,0,0:0:0:30:normal-hitnormal.wav
36,192,29556,1,0,0:0:0:70:0K.wav
109,192,29556,1,0,0:0:0:30:normal-hitnormal.wav
329,192,29556,1,0,0:0:0:30:normal-hitnormal.wav
182,192,29650,1,0,0:0:0:30:normal-hitnormal.wav
475,192,29650,1,0,0:0:0:30:normal-hitnormal.wav
402,192,29743,1,0,0:0:0:30:normal-hitnormal.wav
36,192,29837,1,0,0:0:0:30:normal-hitnormal.wav
109,192,29837,1,0,0:0:0:30:normal-hitnormal.wav
256,192,29837,1,0,0:0:0:70:0K.wav
182,192,29931,1,0,0:0:0:30:normal-hitnormal.wav
402,192,30025,1,0,0:0:0:30:normal-hitnormal.wav
475,192,30025,1,0,0:0:0:70:0L.wav
109,192,30025,1,0,0:0:0:30:normal-hitnormal.wav
256,192,30025,1,0,0:0:0:30:normal-hitnormal.wav
329,192,30118,1,0,0:0:0:30:normal-hitnormal.wav
182,192,30212,1,0,0:0:0:30:normal-hitnormal.wav
329,192,30306,1,0,0:0:0:30:normal-hitnormal.wav
36,192,30400,1,0,0:0:0:70:0K.wav
256,192,30400,1,0,0:0:0:30:normal-hitnormal.wav
402,192,30400,1,0,0:0:0:30:normal-hitnormal.wav
475,192,30400,1,0,0:0:0:30:normal-hitnormal.wav
109,192,30493,1,0,0:0:0:30:normal-hitnormal.wav
329,192,30587,1,0,0:0:0:30:normal-hitnormal.wav
182,192,30681,1,0,0:0:0:30:normal-hitnormal.wav
109,192,30775,1,0,0:0:0:70:0L.wav
256,192,30775,1,0,0:0:0:30:normal-hitnormal.wav
475,192,30775,1,0,0:0:0:30:normal-hitnormal.wav
36,192,30775,1,0,0:0:0:30:normal-hitnormal.wav
402,192,30868,1,0,0:0:0:30:normal-hitnormal.wav
182,192,30962,1,0,0:0:0:30:normal-hitnormal.wav
36,192,31056,1,0,0:0:0:30:normal-hitnormal.wav
256,192,31056,1,0,0:0:0:30:normal-hitnormal.wav
329,192,31056,1,0,0:0:0:70:0K.wav
182,192,31150,1,0,0:0:0:30:normal-hitnormal.wav
475,192,31150,1,0,0:0:0:30:normal-hitnormal.wav
329,192,31243,1,0,0:0:0:30:normal-hitnormal.wav
402,192,31337,1,0,0:0:0:30:normal-hitnormal.wav
256,192,31337,1,0,0:0:0:70:0K.wav
36,192,31337,128,0,31525:0:0:0:30:normal-hitnormal.wav
109,192,31337,1,0,0:0:0:30:normal-hitnormal.wav
329,192,31431,1,0,0:0:0:30:normal-hitnormal.wav
256,192,31525,1,0,0:0:0:30:normal-hitnormal.wav
475,192,31525,1,0,0:0:0:70:0L.wav
109,192,31525,128,0,31712:0:0:0:30:normal-hitnormal.wav
182,192,31525,1,0,0:0:0:30:normal-hitnormal.wav
402,192,31618,1,0,0:0:0:30:normal-hitnormal.wav
182,192,31712,128,0,32275:0:0:0:30:normal-hitnormal.wav
256,192,31712,1,0,0:0:0:30:normal-hitnormal.wav
329,192,31806,1,0,0:0:0:30:normal-hitnormal.wav
36,192,31900,1,0,0:0:0:30:normal-hitnormal.wav
475,192,31900,1,0,0:0:0:30:normal-hitnormal.wav
109,192,31900,1,0,0:0:0:70:0K.wav
402,192,31993,1,0,0:0:0:30:normal-hitnormal.wav
256,192,32087,1,0,0:0:0:30:normal-hitnormal.wav
475,192,32181,1,0,0:0:0:30:normal-hitnormal.wav
329,192,32181,1,0,0:0:0:30:normal-hitnormal.wav
109,192,32181,1,0,0:0:0:70:0K.wav
36,192,32275,1,0,0:0:0:30:normal-hitnormal.wav
256,192,32275,1,0,0:0:0:70:0L.wav
402,192,32275,1,0,0:0:0:30:normal-hitnormal.wav
329,192,32368,1,0,0:0:0:30:normal-hitnormal.wav
182,192,32462,1,0,0:0:0:30:normal-hitnormal.wav
256,192,32556,1,0,0:0:0:30:normal-hitnormal.wav
109,192,32556,1,0,0:0:0:70:0K.wav
402,192,32556,1,0,0:0:0:30:normal-hitnormal.wav
329,192,32650,1,0,0:0:0:30:normal-hitnormal.wav
109,192,32743,1,0,0:0:0:30:normal-hitnormal.wav
402,192,32743,1,0,0:0:0:30:normal-hitnormal.wav
182,192,32837,1,0,0:0:0:30:normal-hitnormal.wav
36,192,32837,1,0,0:0:0:70:0K.wav
475,192,32837,1,0,0:0:0:30:normal-hitnormal.wav
256,192,32931,1,0,0:0:0:30:normal-hitnormal.wav
402,192,32931,1,0,0:0:0:30:normal-hitnormal.wav
329,192,33025,1,0,0:0:0:30:normal-hitnormal.wav
475,192,33025,1,0,0:0:0:70:0L.wav
109,192,33025,1,0,0:0:0:30:normal-hitnormal.wav
36,192,33118,1,0,0:0:0:30:normal-hitnormal.wav
256,192,33118,1,0,0:0:0:30:normal-hitnormal.wav
109,192,33212,1,0,0:0:0:30:normal-hitnormal.wav
329,192,33212,1,0,0:0:0:30:normal-hitnormal.wav
182,192,33306,1,0,0:0:0:30:normal-hitnormal.wav
402,192,33306,1,0,0:0:0:30:normal-hitnormal.wav
256,192,33400,1,0,0:0:0:30:normal-hitnormal.wav
36,192,33400,1,0,0:0:0:70:0K.wav
475,192,33400,1,0,0:0:0:30:normal-hitnormal.wav
109,192,33400,1,0,0:0:0:30:normal-hitnormal.wav
402,192,33493,1,0,0:0:0:30:normal-hitnormal.wav
36,192,33587,1,0,0:0:0:30:normal-hitnormal.wav
329,192,33587,1,0,0:0:0:30:normal-hitnormal.wav
256,192,33681,1,0,0:0:0:30:normal-hitnormal.wav
109,192,33775,1,0,0:0:0:30:normal-hitnormal.wav
329,192,33775,1,0,0:0:0:30:normal-hitnormal.wav
475,192,33775,1,0,0:0:0:70:0K.wav
36,192,33775,1,0,0:0:0:30:normal-hitnormal.wav
182,192,33868,1,0,0:0:0:30:normal-hitnormal.wav
402,192,33962,1,0,0:0:0:30:normal-hitnormal.wav
109,192,34056,1,0,0:0:0:30:normal-hitnormal.wav
256,192,34056,1,0,0:0:0:70:0K.wav
329,192,34056,1,0,0:0:0:30:normal-hitnormal.wav
36,192,34150,1,0,0:0:0:30:normal-hitnormal.wav
475,192,34150,1,0,0:0:0:30:normal-hitnormal.wav
402,192,34150,1,0,0:0:0:30:normal-hitnormal.wav
182,192,34243,1,0,0:0:0:30:normal-hitnormal.wav
109,192,34337,1,0,0:0:0:70:0K.wav
329,192,34337,1,0,0:0:0:30:normal-hitnormal.wav
402,192,34337,1,0,0:0:0:30:normal-hitnormal.wav
256,192,34431,1,0,0:0:0:30:normal-hitnormal.wav
182,192,34525,1,0,0:0:0:30:normal-hitnormal.wav
36,192,34525,1,0,0:0:0:30:normal-hitnormal.wav
329,192,34525,1,0,0:0:0:70:0L.wav
475,192,34525,1,0,0:0:0:30:normal-hitnormal.wav
402,192,34618,1,0,0:0:0:30:normal-hitnormal.wav
256,192,34712,1,0,0:0:0:30:normal-hitnormal.wav
109,192,34806,1,0,0:0:0:30:normal-hitnormal.wav
36,192,34900,1,0,0:0:0:30:normal-hitnormal.wav
182,192,34900,1,0,0:0:0:70:0K.wav
329,192,34900,1,0,0:0:0:30:normal-hitnormal.wav
402,192,34900,1,0,0:0:0:30:normal-hitnormal.wav
475,192,34993,1,0,0:0:0:30:normal-hitnormal.wav
256,192,35087,1,0,0:0:0:30:normal-hitnormal.wav
109,192,35181,1,0,0:0:0:30:normal-hitnormal.wav
36,192,35181,1,0,0:0:0:30:normal-hitnormal.wav
329,192,35181,1,0,0:0:0:70:0K.wav
182,192,35275,1,0,0:0:0:30:normal-hitnormal.wav
475,192,35275,1,0,0:0:0:30:normal-hitnormal.wav
402,192,35275,1,0,0:0:0:70:0L.wav
256,192,35368,1,0,0:0:0:30:normal-hitnormal.wav
329,192,35462,1,0,0:0:0:30:normal-hitnormal.wav
109,192,35556,1,0,0:0:0:70:0K.wav
402,192,35556,1,0,0:0:0:30:normal-hitnormal.wav
182,192,35556,1,0,0:0:0:30:normal-hitnormal.wav
256,192,35650,1,0,0:0:0:30:normal-hitnormal.wav
475,192,35650,1,0,0:0:0:30:normal-hitnormal.wav
109,192,35743,1,0,0:0:0:30:normal-hitnormal.wav
182,192,35837,1,0,0:0:0:70:0K.wav
329,192,35837,1,0,0:0:0:30:normal-hitnormal.wav
36,192,35837,1,0,0:0:0:30:normal-hitnormal.wav
256,192,35837,1,0,0:0:0:30:normal-hitnormal.wav
402,192,35931,1,0,0:0:0:30:normal-hitnormal.wav
329,192,36025,1,0,0:0:0:30:normal-hitnormal.wav
475,192,36025,1,0,0:0:0:70:0L.wav
109,192,36025,1,0,0:0:0:30:normal-hitnormal.wav
36,192,36025,1,0,0:0:0:30:normal-hitnormal.wav
182,192,36118,1,0,0:0:0:30:normal-hitnormal.wav
256,192,36212,1,0,0:0:0:30:normal-hitnormal.wav
402,192,36306,1,0,0:0:0:30:normal-hitnormal.wav
36,192,36400,1,0,0:0:0:30:normal-hitnormal.wav
329,192,36400,1,0,0:0:0:30:normal-hitnormal.wav
182,192,36400,1,0,0:0:0:30:normal-hitnormal.wav
256,192,36400,1,0,0:0:0:70:0K.wav
109,192,36493,1,0,0:0:0:30:normal-hitnormal.wav
475,192,36493,1,0,0:0:0:30:normal-hitnormal.wav
256,192,36587,1,0,0:0:0:30:normal-hitnormal.wav
402,192,36587,1,0,0:0:0:30:normal-hitnormal.wav
182,192,36681,1,0,0:0:0:30:normal-hitnormal.wav
329,192,36681,1,0,0:0:0:30:normal-hitnormal.wav
36,192,36775,1,0,0:0:0:70:0L.wav
402,192,36775,1,0,0:0:0:30:normal-hitnormal.wav
109,192,36775,1,0,0:0:0:30:normal-hitnormal.wav
475,192,36775,1,0,0:0:0:30:normal-hitnormal.wav
329,192,36868,1,0,0:0:0:30:normal-hitnormal.wav
182,192,36962,1,0,0:0:0:30:normal-hitnormal.wav
36,192,36962,1,0,0:0:0:30:normal-hitnormal.wav
402,192,37056,1,0,0:0:0:70:0K.wav
109,192,37056,1,0,0:0:0:30:normal-hitnormal.wav
475,192,37056,1,0,0:0:0:30:normal-hitnormal.wav
329,192,37150,1,0,0:0:0:30:normal-hitnormal.wav
256,192,37150,1,0,0:0:0:30:normal-hitnormal.wav
182,192,37243,1,0,0:0:0:30:normal-hitnormal.wav
36,192,37337,1,0,0:0:0:30:normal-hitnormal.wav
256,192,37337,1,0,0:0:0:30:normal-hitnormal.wav
402,192,37337,1,0,0:0:0:70:0K.wav
329,192,37337,1,0,0:0:0:30:normal-hitnormal.wav
109,192,37431,1,0,0:0:0:30:normal-hitnormal.wav
182,192,37525,1,0,0:0:0:70:0L.wav
329,192,37525,1,0,0:0:0:30:normal-hitnormal.wav
475,192,37525,1,0,0:0:0:30:normal-hitnormal.wav
36,192,37525,1,0,0:0:0:30:normal-hitnormal.wav
256,192,37618,1,0,0:0:0:30:normal-hitnormal.wav
402,192,37618,1,0,0:0:0:30:normal-hitnormal.wav
182,192,37712,1,0,0:0:0:30:normal-hitnormal.wav
329,192,37712,1,0,0:0:0:30:normal-hitnormal.wav
109,192,37806,1,0,0:0:0:30:normal-hitnormal.wav
256,192,37806,1,0,0:0:0:30:normal-hitnormal.wav
36,192,37900,1,0,0:0:0:30:normal-hitnormal.wav
329,192,37900,1,0,0:0:0:70:0K.wav
475,192,37900,1,0,0:0:0:30:normal-hitnormal.wav
402,192,37993,1,0,0:0:0:30:normal-hitnormal.wav
182,192,37993,1,0,0:0:0:30:normal-hitnormal.wav
256,192,38087,1,0,0:0:0:30:normal-hitnormal.wav
109,192,38087,1,0,0:0:0:30:normal-hitnormal.wav
329,192,38181,1,0,0:0:0:70:0K.wav
475,192,38181,1,0,0:0:0:30:normal-hitnormal.wav
182,192,38181,1,0,0:0:0:30:normal-hitnormal.wav
36,192,38275,1,0,0:0:0:30:normal-hitnormal.wav
109,192,38275,1,0,0:0:0:30:normal-hitnormal.wav
402,192,38275,1,0,0:0:0:70:0L.wav
329,192,38368,1,0,0:0:0:30:normal-hitnormal.wav
256,192,38368,1,0,0:0:0:30:normal-hitnormal.wav
182,192,38462,1,0,0:0:0:30:normal-hitnormal.wav
475,192,38462,1,0,0:0:0:30:normal-hitnormal.wav
402,192,38556,1,0,0:0:0:30:normal-hitnormal.wav
256,192,38556,1,0,0:0:0:30:normal-hitnormal.wav
109,192,38556,1,0,0:0:0:70:0K.wav
329,192,38650,1,0,0:0:0:30:normal-hitnormal.wav
182,192,38650,1,0,0:0:0:30:normal-hitnormal.wav
402,192,38743,1,0,0:0:0:30:normal-hitnormal.wav
36,192,38743,1,0,0:0:0:30:normal-hitnormal.wav
109,192,38837,1,0,0:0:0:70:0K.wav
329,192,38837,1,0,0:0:0:30:normal-hitnormal.wav
475,192,38837,1,0,0:0:0:30:normal-hitnormal.wav
256,192,38931,1,0,0:0:0:30:normal-hitnormal.wav
182,192,38931,1,0,0:0:0:30:normal-hitnormal.wav
36,192,39025,1,0,0:0:0:30:normal-hitnormal.wav
402,192,39025,1,0,0:0:0:70:0L.wav
329,192,39025,1,0,0:0:0:30:normal-hitnormal.wav
109,192,39118,1,0,0:0:0:30:normal-hitnormal.wav
256,192,39118,1,0,0:0:0:30:normal-hitnormal.wav
182,192,39212,1,0,0:0:0:30:normal-hitnormal.wav
329,192,39212,1,0,0:0:0:30:normal-hitnormal.wav
256,192,39306,1,0,0:0:0:30:normal-hitnormal.wav
402,192,39306,1,0,0:0:0:30:normal-hitnormal.wav
329,192,39400,1,0,0:0:0:30:normal-hitnormal.wav
475,192,39400,1,0,0:0:0:30:normal-hitnormal.wav
182,192,39400,128,0,40150:0:0:0:70:VD.wav
36,192,39400,1,0,0:0:0:70:0K.wav
475,192,39493,1,0,0:0:0:30:normal-hitnormal.wav
402,192,39587,1,0,0:0:0:30:normal-hitnormal.wav
329,192,39681,1,0,0:0:0:30:normal-hitnormal.wav
256,192,39775,1,0,0:0:0:30:normal-hitnormal.wav
109,192,39775,1,0,0:0:0:70:0L.wav
36,192,39775,1,0,0:0:0:30:normal-hitnormal.wav
329,192,39868,1,0,0:0:0:30:normal-hitnormal.wav
475,192,39962,1,0,0:0:0:30:normal-hitnormal.wav
329,192,40056,1,0,0:0:0:30:normal-hitnormal.wav
475,192,40056,1,0,0:0:0:30:normal-hitnormal.wav
36,192,40056,1,0,0:0:0:70:0K.wav
256,192,40150,1,0,0:0:0:30:normal-hitnormal.wav
402,192,40150,1,0,0:0:0:30:normal-hitnormal.wav
109,192,40150,128,0,40900:0:0:0:70:VE.wav
329,192,40243,1,0,0:0:0:30:normal-hitnormal.wav
182,192,40337,1,0,0:0:0:70:0K.wav
402,192,40337,1,0,0:0:0:30:normal-hitnormal.wav
475,192,40337,1,0,0:0:0:30:normal-hitnormal.wav
256,192,40431,1,0,0:0:0:30:normal-hitnormal.wav
329,192,40525,1,0,0:0:0:70:0L.wav
475,192,40525,1,0,0:0:0:30:normal-hitnormal.wav
36,192,40525,1,0,0:0:0:30:normal-hitnormal.wav
475,192,40618,1,0,0:0:0:30:normal-hitnormal.wav
329,192,40712,1,0,0:0:0:30:normal-hitnormal.wav
182,192,40712,1,0,0:0:0:30:normal-hitnormal.wav
329,192,40806,1,0,0:0:0:30:normal-hitnormal.wav
402,192,40900,128,0,41650:0:0:0:70:VF.wav
182,192,40900,1,0,0:0:0:30:normal-hitnormal.wav
475,192,40900,1,0,0:0:0:70:0K.wav
36,192,40900,1,0,0:0:0:30:normal-hitnormal.wav
256,192,40993,1,0,0:0:0:30:normal-hitnormal.wav
36,192,40993,1,0,0:0:0:30:normal-hitnormal.wav
329,192,41087,1,0,0:0:0:30:normal-hitnormal.wav
256,192,41181,1,0,0:0:0:30:normal-hitnormal.wav
182,192,41181,1,0,0:0:0:30:normal-hitnormal.wav
109,192,41181,1,0,0:0:0:70:0K.wav
475,192,41275,1,0,0:0:0:30:normal-hitnormal.wav
329,192,41275,1,0,0:0:0:30:normal-hitnormal.wav
36,192,41275,1,0,0:0:0:70:0L.wav
256,192,41368,1,0,0:0:0:30:normal-hitnormal.wav
36,192,41462,1,0,0:0:0:30:normal-hitnormal.wav
182,192,41556,1,0,0:0:0:70:0K.wav
36,192,41556,1,0,0:0:0:30:normal-hitnormal.wav
475,192,41556,1,0,0:0:0:30:normal-hitnormal.wav
329,192,41650,128,0,42400:0:0:0:70:VG.wav
109,192,41650,1,0,0:0:0:30:normal-hitnormal.wav
256,192,41743,1,0,0:0:0:30:normal-hitnormal.wav
182,192,41837,1,0,0:0:0:30:normal-hitnormal.wav
36,192,41837,1,0,0:0:0:70:0K.wav
402,192,41837,1,0,0:0:0:30:normal-hitnormal.wav
109,192,41931,1,0,0:0:0:30:normal-hitnormal.wav
256,192,42025,1,0,0:0:0:70:0L.wav
402,192,42025,1,0,0:0:0:30:normal-hitnormal.wav
475,192,42025,1,0,0:0:0:30:normal-hitnormal.wav
475,192,42118,1,0,0:0:0:30:normal-hitnormal.wav
182,192,42212,1,0,0:0:0:30:normal-hitnormal.wav
36,192,42212,1,0,0:0:0:30:normal-hitnormal.wav
182,192,42306,1,0,0:0:0:30:normal-hitnormal.wav
475,192,42400,128,0,43150:0:0:0:70:VH.wav
402,192,42400,1,0,0:0:0:70:0K.wav
109,192,42400,1,0,0:0:0:30:normal-hitnormal.wav
256,192,42400,1,0,0:0:0:30:normal-hitnormal.wav
109,192,42493,1,0,0:0:0:30:normal-hitnormal.wav
256,192,42587,1,0,0:0:0:30:normal-hitnormal.wav
329,192,42681,1,0,0:0:0:30:normal-hitnormal.wav
402,192,42775,1,0,0:0:0:30:normal-hitnormal.wav
182,192,42775,1,0,0:0:0:70:0L.wav
36,192,42775,1,0,0:0:0:30:normal-hitnormal.wav
256,192,42868,1,0,0:0:0:30:normal-hitnormal.wav
109,192,42962,1,0,0:0:0:30:normal-hitnormal.wav
109,192,43056,1,0,0:0:0:30:normal-hitnormal.wav
329,192,43056,1,0,0:0:0:70:0K.wav
256,192,43056,1,0,0:0:0:30:normal-hitnormal.wav
402,192,43150,128,0,43900:0:0:0:70:VI.wav
36,192,43150,1,0,0:0:0:30:normal-hitnormal.wav
182,192,43150,1,0,0:0:0:30:normal-hitnormal.wav
329,192,43243,1,0,0:0:0:30:normal-hitnormal.wav
256,192,43337,1,0,0:0:0:30:normal-hitnormal.wav
109,192,43337,1,0,0:0:0:70:0K.wav
475,192,43337,1,0,0:0:0:30:normal-hitnormal.wav
182,192,43431,1,0,0:0:0:30:normal-hitnormal.wav
329,192,43525,1,0,0:0:0:30:normal-hitnormal.wav
256,192,43525,1,0,0:0:0:30:normal-hitnormal.wav
36,192,43525,1,0,0:0:0:70:0L.wav
256,192,43618,1,0,0:0:0:30:normal-hitnormal.wav
109,192,43712,1,0,0:0:0:30:normal-hitnormal.wav
109,192,43806,1,0,0:0:0:30:normal-hitnormal.wav
475,192,43900,128,0,44650:0:0:0:70:VJ.wav
329,192,43900,1,0,0:0:0:30:normal-hitnormal.wav
36,192,43900,1,0,0:0:0:30:normal-hitnormal.wav
256,192,43900,1,0,0:0:0:70:0K.wav
329,192,43993,1,0,0:0:0:30:normal-hitnormal.wav
182,192,44087,1,0,0:0:0:30:normal-hitnormal.wav
256,192,44181,1,0,0:0:0:70:0K.wav
109,192,44181,1,0,0:0:0:30:normal-hitnormal.wav
402,192,44181,1,0,0:0:0:30:normal-hitnormal.wav
36,192,44275,1,0,0:0:0:30:normal-hitnormal.wav
182,192,44275,1,0,0:0:0:30:normal-hitnormal.wav
329,192,44275,1,0,0:0:0:70:0L.wav
256,192,44368,1,0,0:0:0:30:normal-hitnormal.wav
329,192,44462,1,0,0:0:0:30:normal-hitnormal.wav
109,192,44556,1,0,0:0:0:30:normal-hitnormal.wav
36,192,44556,1,0,0:0:0:70:0K.wav
329,192,44556,1,0,0:0:0:30:normal-hitnormal.wav
402,192,44650,128,0,45400:0:0:0:70:VK.wav
256,192,44650,1,0,0:0:0:30:normal-hitnormal.wav
182,192,44650,1,0,0:0:0:30:normal-hitnormal.wav
109,192,44743,1,0,0:0:0:30:normal-hitnormal.wav
36,192,44837,1,0,0:0:0:70:0K.wav
182,192,44837,1,0,0:0:0:30:normal-hitnormal.wav
329,192,44837,1,0,0:0:0:30:normal-hitnormal.wav
182,192,44931,1,0,0:0:0:30:normal-hitnormal.wav
475,192,45025,1,0,0:0:0:30:normal-hitnormal.wav
329,192,45025,1,0,0:0:0:70:0L.wav
109,192,45025,1,0,0:0:0:30:normal-hitnormal.wav
109,192,45118,1,0,0:0:0:30:normal-hitnormal.wav
256,192,45212,1,0,0:0:0:30:normal-hitnormal.wav
256,192,45306,1,0,0:0:0:30:normal-hitnormal.wav
109,192,45400,128,0,46150:0:0:0:70:VL.wav
329,192,45400,128,0,46150:0:0:0:30:normal-hitnormal.wav
182,192,45400,128,0,46900:0:0:0:30:normal-hitnormal.wav
475,192,45400,1,0,0:0:0:30:normal-hitnormal.wav
36,192,45400,1,0,0:0:0:70:0K.wav
475,192,45493,1,0,0:0:0:30:normal-hitnormal.wav
402,192,45587,1,0,0:0:0:30:normal-hitnormal.wav
256,192,45775,1,0,0:0:0:30:normal-hitnormal.wav
402,192,45775,1,0,0:0:0:70:0L.wav
475,192,45962,1,0,0:0:0:30:normal-hitnormal.wav
475,192,46056,1,0,0:0:0:70:0K.wav
402,192,46056,1,0,0:0:0:30:normal-hitnormal.wav
36,192,46150,128,0,46900:0:0:0:70:VM.wav
256,192,46150,128,0,47650:0:0:0:30:normal-hitnormal.wav
402,192,46150,1,0,0:0:0:30:normal-hitnormal.wav
402,192,46337,1,0,0:0:0:30:normal-hitnormal.wav
329,192,46337,1,0,0:0:0:70:0K.wav
109,192,46525,1,0,0:0:0:30:normal-hitnormal.wav
475,192,46525,1,0,0:0:0:70:0L.wav
109,192,46618,1,0,0:0:0:30:normal-hitnormal.wav
402,192,46712,1,0,0:0:0:30:normal-hitnormal.wav
402,192,46806,1,0,0:0:0:30:normal-hitnormal.wav
109,192,46900,128,0,48400:0:0:0:30:normal-hitnormal.wav
475,192,46900,128,0,47650:0:0:0:70:VN.wav
329,192,46900,1,0,0:0:0:70:0K.wav
329,192,46993,1,0,0:0:0:30:normal-hitnormal.wav
402,192,47087,1,0,0:0:0:30:normal-hitnormal.wav
36,192,47181,1,0,0:0:0:70:0K.wav
182,192,47275,1,0,0:0:0:30:normal-hitnormal.wav
402,192,47275,1,0,0:0:0:70:0L.wav
182,192,47462,1,0,0:0:0:30:normal-hitnormal.wav
182,192,47556,1,0,0:0:0:70:0K.wav
402,192,47556,1,0,0:0:0:30:normal-hitnormal.wav
36,192,47650,128,0,49150:0:0:0:30:normal-hitnormal.wav
329,192,47650,128,0,48400:0:0:0:70:VO.wav
402,192,47650,1,0,0:0:0:30:normal-hitnormal.wav
182,192,47837,1,0,0:0:0:70:0K.wav
256,192,47837,1,0,0:0:0:30:normal-hitnormal.wav
475,192,48025,1,0,0:0:0:30:normal-hitnormal.wav
256,192,48025,1,0,0:0:0:70:0L.wav
475,192,48118,1,0,0:0:0:30:normal-hitnormal.wav
402,192,48212,1,0,0:0:0:30:normal-hitnormal.wav
402,192,48306,1,0,0:0:0:30:normal-hitnormal.wav
182,192,48400,128,0,51025:0:0:0:70:VP.wav
475,192,48400,128,0,50275:0:0:0:30:normal-hitnormal.wav
256,192,48400,1,0,0:0:0:70:0K.wav
256,192,48493,1,0,0:0:0:30:normal-hitnormal.wav
109,192,48587,1,0,0:0:0:30:normal-hitnormal.wav
402,192,48775,1,0,0:0:0:30:normal-hitnormal.wav
329,192,48775,1,0,0:0:0:70:0L.wav
402,192,48962,1,0,0:0:0:30:normal-hitnormal.wav
402,192,49056,1,0,0:0:0:30:normal-hitnormal.wav
256,192,49056,1,0,0:0:0:70:0K.wav
109,192,49150,128,0,49525:0:0:0:70:VQ.wav
329,192,49150,1,0,0:0:0:30:normal-hitnormal.wav
256,192,49150,1,0,0:0:0:70:0K.wav
256,192,49337,1,0,0:0:0:70:0K.wav
36,192,49337,1,0,0:0:0:30:normal-hitnormal.wav
256,192,49431,1,0,0:0:0:30:normal-hitnormal.wav
402,192,49525,128,0,49900:0:0:0:70:VR.wav
329,192,49525,1,0,0:0:0:70:0L.wav
329,192,49618,1,0,0:0:0:30:normal-hitnormal.wav
109,192,49712,1,0,0:0:0:30:normal-hitnormal.wav
256,192,49712,1,0,0:0:0:70:0K.wav
109,192,49806,1,0,0:0:0:30:normal-hitnormal.wav
329,192,49900,128,0,50650:0:0:0:70:VS.wav
256,192,49900,1,0,0:0:0:70:0K.wav
36,192,49900,1,0,0:0:0:30:normal-hitnormal.wav
256,192,49993,1,0,0:0:0:70:0K.wav
109,192,49993,1,0,0:0:0:30:normal-hitnormal.wav
36,192,50087,1,0,0:0:0:30:normal-hitnormal.wav
109,192,50181,1,0,0:0:0:70:0K.wav
256,192,50275,1,0,0:0:0:30:normal-hitnormal.wav
402,192,50275,1,0,0:0:0:70:0L.wav
109,192,50368,1,0,0:0:0:70:0K.wav
256,192,50462,1,0,0:0:0:30:normal-hitnormal.wav
256,192,50556,1,0,0:0:0:30:normal-hitnormal.wav
109,192,50556,1,0,0:0:0:70:0K.wav
36,192,50650,1,0,0:0:0:70:0K.wav
402,192,50650,1,0,0:0:0:30:normal-hitnormal.wav
475,192,50650,1,0,0:0:0:30:normal-hitnormal.wav
256,192,50837,1,0,0:0:0:30:normal-hitnormal.wav
475,192,50931,1,0,0:0:0:70:0K.wav
256,192,50931,1,0,0:0:0:30:normal-hitnormal.wav
36,192,51025,1,0,0:0:0:30:normal-hitnormal.wav
109,192,51025,1,0,0:0:0:30:normal-hitnormal.wav
402,192,51025,1,0,0:0:0:70:0L.wav
402,192,51118,1,0,0:0:0:30:normal-hitnormal.wav
329,192,51212,1,0,0:0:0:30:normal-hitnormal.wav
329,192,51306,1,0,0:0:0:30:normal-hitnormal.wav
256,192,51400,1,0,0:0:0:30:normal-hitnormal.wav
109,192,51400,1,0,0:0:0:30:normal-hitnormal.wav
36,192,51400,1,0,0:0:0:70:0K.wav
402,192,51400,1,0,0:0:0:30:normal-hitnormal.wav
475,192,51400,128,0,51681:0:0:0:30:normal-hitnormal.wav
182,192,51493,1,0,0:0:0:30:normal-hitnormal.wav
329,192,51587,1,0,0:0:0:30:normal-hitnormal.wav
402,192,51681,128,0,51962:0:0:0:30:normal-hitnormal.wav
256,192,51681,1,0,0:0:0:30:normal-hitnormal.wav
109,192,51775,1,0,0:0:0:30:normal-hitnormal.wav
36,192,51775,1,0,0:0:0:30:normal-hitnormal.wav
329,192,51775,1,0,0:0:0:70:0L.wav
182,192,51868,1,0,0:0:0:30:normal-hitnormal.wav
329,192,51962,128,0,54025:0:0:0:30:normal-hitnormal.wav
475,192,51962,1,0,0:0:0:30:normal-hitnormal.wav
256,192,51962,1,0,0:0:0:30:normal-hitnormal.wav
109,192,51962,1,0,0:0:0:30:normal-hitnormal.wav
36,192,52056,1,0,0:0:0:30:normal-hitnormal.wav
182,192,52056,1,0,0:0:0:70:0K.wav
402,192,52150,1,0,0:0:0:30:normal-hitnormal.wav
256,192,52150,1,0,0:0:0:70:0K.wav
182,192,52243,1,0,0:0:0:30:normal-hitnormal.wav
36,192,52337,1,0,0:0:0:70:0K.wav
109,192,52337,1,0,0:0:0:30:normal-hitnormal.wav
402,192,52337,1,0,0:0:0:30:normal-hitnormal.wav
256,192,52431,1,0,0:0:0:30:normal-hitnormal.wav
475,192,52525,1,0,0:0:0:70:0L.wav
109,192,52525,1,0,0:0:0:30:normal-hitnormal.wav
402,192,52525,1,0,0:0:0:30:normal-hitnormal.wav
182,192,52618,1,0,0:0:0:30:normal-hitnormal.wav
109,192,52712,1,0,0:0:0:30:normal-hitnormal.wav
256,192,52806,1,0,0:0:0:30:normal-hitnormal.wav
402,192,52900,1,0,0:0:0:30:normal-hitnormal.wav
475,192,52900,1,0,0:0:0:30:normal-hitnormal.wav
36,192,52900,1,0,0:0:0:70:0K.wav
182,192,52993,1,0,0:0:0:30:normal-hitnormal.wav
36,192,53087,1,0,0:0:0:30:normal-hitnormal.wav
256,192,53181,1,0,0:0:0:30:normal-hitnormal.wav
475,192,53181,1,0,0:0:0:30:normal-hitnormal.wav
182,192,53181,1,0,0:0:0:70:0K.wav
109,192,53275,1,0,0:0:0:30:normal-hitnormal.wav
402,192,53275,1,0,0:0:0:70:0L.wav
36,192,53275,1,0,0:0:0:30:normal-hitnormal.wav
475,192,53368,1,0,0:0:0:30:normal-hitnormal.wav
256,192,53462,1,0,0:0:0:30:normal-hitnormal.wav
182,192,53556,1,0,0:0:0:30:normal-hitnormal.wav
475,192,53556,1,0,0:0:0:30:normal-hitnormal.wav
109,192,53556,1,0,0:0:0:70:0K.wav
402,192,53650,1,0,0:0:0:30:normal-hitnormal.wav
256,192,53650,1,0,0:0:0:70:0K.wav
36,192,53650,1,0,0:0:0:30:normal-hitnormal.wav
182,192,53743,1,0,0:0:0:30:normal-hitnormal.wav
475,192,53743,1,0,0:0:0:30:normal-hitnormal.wav
109,192,53837,1,0,0:0:0:30:normal-hitnormal.wav
36,192,53837,1,0,0:0:0:70:0K.wav
402,192,53837,1,0,0:0:0:30:normal-hitnormal.wav
182,192,53931,1,0,0:0:0:30:normal-hitnormal.wav
475,192,53931,1,0,0:0:0:30:normal-hitnormal.wav
475,192,54025,128,0,54400:0:0:0:30:normal-hitnormal.wav
256,192,54025,1,0,0:0:0:30:normal-hitnormal.wav
402,192,54025,1,0,0:0:0:70:0L.wav
36,192,54025,1,0,0:0:0:30:normal-hitnormal.wav
109,192,54118,1,0,0:0:0:30:normal-hitnormal.wav
182,192,54118,1,0,0:0:0:30:normal-hitnormal.wav
329,192,54212,1,0,0:0:0:30:normal-hitnormal.wav
36,192,54212,1,0,0:0:0:30:normal-hitnormal.wav
256,192,54306,1,0,0:0:0:30:normal-hitnormal.wav
402,192,54306,1,0,0:0:0:30:normal-hitnormal.wav
109,192,54400,128,0,57025:0:0:0:30:normal-hitnormal.wav
329,192,54400,1,0,0:0:0:30:normal-hitnormal.wav
36,192,54400,1,0,0:0:0:70:0K.wav
182,192,54400,128,0,54493:0:0:0:30:normal-hitnormal.wav
402,192,54493,128,0,54587:0:0:0:30:normal-hitnormal.wav
475,192,54587,128,0,54681:0:0:0:30:normal-hitnormal.wav
329,192,54587,1,0,0:0:0:30:normal-hitnormal.wav
182,192,54681,128,0,54775:0:0:0:30:normal-hitnormal.wav
256,192,54775,1,0,0:0:0:70:0L.wav
329,192,54775,1,0,0:0:0:30:normal-hitnormal.wav
402,192,54868,128,0,54962:0:0:0:30:normal-hitnormal.wav
182,192,54868,1,0,0:0:0:30:normal-hitnormal.wav
475,192,54962,1,0,0:0:0:30:normal-hitnormal.wav
329,192,54962,1,0,0:0:0:30:normal-hitnormal.wav
182,192,55056,128,0,55150:0:0:0:30:normal-hitnormal.wav
256,192,55056,1,0,0:0:0:30:normal-hitnormal.wav
36,192,55056,1,0,0:0:0:70:0K.wav
402,192,55150,1,0,0:0:0:70:0K.wav
256,192,55243,128,0,55337:0:0:0:30:normal-hitnormal.wav
329,192,55243,1,0,0:0:0:30:normal-hitnormal.wav
402,192,55337,128,0,55431:0:0:0:30:normal-hitnormal.wav
475,192,55337,1,0,0:0:0:30:normal-hitnormal.wav
182,192,55337,1,0,0:0:0:70:0K.wav
329,192,55431,128,0,55525:0:0:0:30:normal-hitnormal.wav
36,192,55525,128,0,55618:0:0:0:30:normal-hitnormal.wav
256,192,55525,1,0,0:0:0:30:normal-hitnormal.wav
475,192,55525,1,0,0:0:0:70:0L.wav
182,192,55618,128,0,55712:0:0:0:30:normal-hitnormal.wav
402,192,55712,128,0,55806:0:0:0:30:normal-hitnormal.wav
329,192,55712,1,0,0:0:0:30:normal-hitnormal.wav
256,192,55806,128,0,55900:0:0:0:30:normal-hitnormal.wav
329,192,55900,128,0,55993:0:0:0:30:normal-hitnormal.wav
182,192,55900,1,0,0:0:0:30:normal-hitnormal.wav
36,192,55900,1,0,0:0:0:70:0K.wav
475,192,55993,128,0,56087:0:0:0:30:normal-hitnormal.wav
182,192,55993,1,0,0:0:0:30:normal-hitnormal.wav
256,192,56087,128,0,56181:0:0:0:30:normal-hitnormal.wav
402,192,56087,1,0,0:0:0:30:normal-hitnormal.wav
182,192,56181,128,0,56275:0:0:0:30:normal-hitnormal.wav
329,192,56181,1,0,0:0:0:70:0K.wav
475,192,56181,1,0,0:0:0:30:normal-hitnormal.wav
36,192,56275,128,0,56368:0:0:0:30:normal-hitnormal.wav
256,192,56275,1,0,0:0:0:30:normal-hitnormal.wav
402,192,56275,1,0,0:0:0:70:0L.wav
329,192,56368,128,0,56462:0:0:0:30:normal-hitnormal.wav
475,192,56368,1,0,0:0:0:30:normal-hitnormal.wav
182,192,56462,128,0,56556:0:0:0:30:normal-hitnormal.wav
256,192,56462,1,0,0:0:0:30:normal-hitnormal.wav
402,192,56556,128,0,56650:0:0:0:30:normal-hitnormal.wav
36,192,56556,1,0,0:0:0:70:0K.wav
329,192,56556,1,0,0:0:0:30:normal-hitnormal.wav
256,192,56650,128,0,56743:0:0:0:30:normal-hitnormal.wav
475,192,56650,1,0,0:0:0:30:normal-hitnormal.wav
36,192,56650,1,0,0:0:0:70:0K.wav
475,192,56743,1,0,0:0:0:30:normal-hitnormal.wav
182,192,56743,1,0,0:0:0:30:normal-hitnormal.wav
329,192,56743,128,0,56837:0:0:0:30:normal-hitnormal.wav
256,192,56837,1,0,0:0:0:70:0K.wav
402,192,56837,128,0,56931:0:0:0:30:normal-hitnormal.wav
329,192,56931,1,0,0:0:0:30:normal-hitnormal.wav
182,192,56931,128,0,57025:0:0:0:30:normal-hitnormal.wav
36,192,57025,1,0,0:0:0:70:0L.wav
402,192,57025,128,0,57212:0:0:0:30:normal-hitnormal.wav
475,192,57025,128,0,57118:0:0:0:30:normal-hitnormal.wav
256,192,57025,1,0,0:0:0:30:normal-hitnormal.wav
329,192,57118,128,0,57306:0:0:0:30:normal-hitnormal.wav
182,192,57118,1,0,0:0:0:30:normal-hitnormal.wav
256,192,57212,128,0,57400:0:0:0:30:normal-hitnormal.wav
109,192,57212,1,0,0:0:0:30:normal-hitnormal.wav
182,192,57306,128,0,57400:0:0:0:30:normal-hitnormal.wav
36,192,57306,1,0,0:0:0:30:normal-hitnormal.wav
475,192,57306,1,0,0:0:0:30:normal-hitnormal.wav
109,192,57400,128,0,57493:0:0:0:30:normal-hitnormal.wav
402,192,57400,128,0,57493:0:0:0:30:normal-hitnormal.wav
475,192,57400,1,0,0:0:0:70:0K.wav
329,192,57400,1,0,0:0:0:70:0K.wav
182,192,57587,128,0,57681:0:0:0:30:normal-hitnormal.wav
256,192,57587,128,0,57681:0:0:0:30:normal-hitnormal.wav
329,192,57587,1,0,0:0:0:30:normal-hitnormal.wav
36,192,57775,128,0,57868:0:0:0:30:normal-hitnormal.wav
329,192,57775,128,0,57868:0:0:0:30:normal-hitnormal.wav
475,192,57775,1,0,0:0:0:70:0L.wav
256,192,57775,1,0,0:0:0:70:0L.wav
109,192,57868,128,0,57962:0:0:0:30:normal-hitnormal.wav
402,192,57868,128,0,57962:0:0:0:30:normal-hitnormal.wav
256,192,58056,128,0,58150:0:0:0:30:normal-hitnormal.wav
36,192,58056,128,0,58150:0:0:0:30:normal-hitnormal.wav
329,192,58056,1,0,0:0:0:70:0K.wav
182,192,58056,1,0,0:0:0:70:0K.wav
36,192,58337,128,0,58431:0:0:0:30:normal-hitnormal.wav
256,192,58337,128,0,58431:0:0:0:30:normal-hitnormal.wav
109,192,58337,1,0,0:0:0:70:0K.wav
329,192,58337,1,0,0:0:0:70:0K.wav
109,192,58525,128,0,58618:0:0:0:30:normal-hitnormal.wav
329,192,58525,128,0,58618:0:0:0:30:normal-hitnormal.wav
256,192,58525,1,0,0:0:0:70:0L.wav
475,192,58525,1,0,0:0:0:70:0L.wav
182,192,58618,128,0,58712:0:0:0:30:normal-hitnormal.wav
402,192,58618,128,0,58712:0:0:0:30:normal-hitnormal.wav
109,192,58900,128,0,58993:0:0:0:30:normal-hitnormal.wav
256,192,58900,128,0,58993:0:0:0:30:normal-hitnormal.wav
329,192,58900,1,0,0:0:0:70:0K.wav
36,192,58900,1,0,0:0:0:70:0K.wav
182,192,59087,128,0,59181:0:0:0:30:normal-hitnormal.wav
402,192,59087,128,0,59181:0:0:0:30:normal-hitnormal.wav
109,192,59181,1,0,0:0:0:70:0K.wav
36,192,59275,128,0,59368:0:0:0:30:normal-hitnormal.wav
329,192,59275,128,0,59368:0:0:0:30:normal-hitnormal.wav
402,192,59275,1,0,0:0:0:70:0L.wav
256,192,59275,1,0,0:0:0:70:0L.wav
182,192,59368,128,0,59462:0:0:0:30:normal-hitnormal.wav
475,192,59368,128,0,59462:0:0:0:30:normal-hitnormal.wav
109,192,59556,128,0,59650:0:0:0:30:normal-hitnormal.wav
256,192,59556,128,0,59650:0:0:0:30:normal-hitnormal.wav
329,192,59556,1,0,0:0:0:70:0K.wav
402,192,59556,1,0,0:0:0:70:0K.wav
182,192,59650,1,0,0:0:0:30:normal-hitnormal.wav
475,192,59650,1,0,0:0:0:30:normal-hitnormal.wav
402,192,59743,1,0,0:0:0:30:normal-hitnormal.wav
36,192,59743,1,0,0:0:0:30:normal-hitnormal.wav
329,192,59837,1,0,0:0:0:70:0K.wav
109,192,59837,128,0,59931:0:0:0:30:normal-hitnormal.wav
256,192,59837,1,0,0:0:0:70:0K.wav
475,192,59931,1,0,0:0:0:30:normal-hitnormal.wav
182,192,59931,128,0,60025:0:0:0:30:normal-hitnormal.wav
329,192,60025,1,0,0:0:0:70:0L.wav
36,192,60025,128,0,60118:0:0:0:30:normal-hitnormal.wav
256,192,60118,1,0,0:0:0:30:normal-hitnormal.wav
109,192,60118,128,0,60212:0:0:0:30:normal-hitnormal.wav
329,192,60212,128,0,60306:0:0:0:30:normal-hitnormal.wav
402,192,60212,1,0,0:0:0:30:normal-hitnormal.wav
182,192,60306,128,0,60400:0:0:0:30:normal-hitnormal.wav
109,192,60306,1,0,0:0:0:30:normal-hitnormal.wav
402,192,60400,128,0,61150:0:0:0:30:normal-hitnormal.wav
256,192,60400,1,0,0:0:0:30:normal-hitnormal.wav
36,192,60400,1,0,0:0:0:70:0K.wav
475,192,60400,1,0,0:0:0:30:normal-hitnormal.wav
109,192,60493,1,0,0:0:0:30:normal-hitnormal.wav
329,192,60493,1,0,0:0:0:30:normal-hitnormal.wav
182,192,60587,1,0,0:0:0:30:normal-hitnormal.wav
475,192,60587,1,0,0:0:0:30:normal-hitnormal.wav
329,192,60681,1,0,0:0:0:30:normal-hitnormal.wav
109,192,60681,1,0,0:0:0:30:normal-hitnormal.wav
256,192,60775,1,0,0:0:0:30:normal-hitnormal.wav
36,192,60775,128,0,60868:0:0:0:30:normal-hitnormal.wav
475,192,60775,1,0,0:0:0:70:0L.wav
182,192,60775,1,0,0:0:0:30:normal-hitnormal.wav
329,192,60868,1,0,0:0:0:30:normal-hitnormal.wav
109,192,60868,128,0,60962:0:0:0:30:normal-hitnormal.wav
256,192,60962,128,0,61056:0:0:0:30:normal-hitnormal.wav
182,192,61056,128,0,61150:0:0:0:30:normal-hitnormal.wav
329,192,61056,1,0,0:0:0:30:normal-hitnormal.wav
36,192,61056,1,0,0:0:0:70:0K.wav
109,192,61150,128,0,61900:0:0:0:30:normal-hitnormal.wav
36,192,61150,1,0,0:0:0:70:0K.wav
475,192,61150,128,0,61243:0:0:0:30:normal-hitnormal.wav
329,192,61243,128,0,61337:0:0:0:30:normal-hitnormal.wav
256,192,61243,1,0,0:0:0:30:normal-hitnormal.wav
182,192,61337,128,0,61431:0:0:0:30:normal-hitnormal.wav
36,192,61337,1,0,0:0:0:70:0K.wav
475,192,61337,1,0,0:0:0:30:normal-hitnormal.wav
402,192,61431,128,0,61525:0:0:0:30:normal-hitnormal.wav
329,192,61431,1,0,0:0:0:30:normal-hitnormal.wav
256,192,61525,128,0,61618:0:0:0:30:normal-hitnormal.wav
475,192,61525,1,0,0:0:0:70:0L.wav
182,192,61525,1,0,0:0:0:30:normal-hitnormal.wav
36,192,61618,128,0,61712:0:0:0:30:normal-hitnormal.wav
402,192,61618,1,0,0:0:0:30:normal-hitnormal.wav
475,192,61712,128,0,61806:0:0:0:30:normal-hitnormal.wav
329,192,61712,1,0,0:0:0:30:normal-hitnormal.wav
182,192,61712,1,0,0:0:0:70:0K.wav
402,192,61806,128,0,61900:0:0:0:30:normal-hitnormal.wav
256,192,61806,1,0,0:0:0:30:normal-hitnormal.wav
329,192,61900,128,0,62650:0:0:0:30:normal-hitnormal.wav
182,192,61900,1,0,0:0:0:70:0K.wav
36,192,61900,1,0,0:0:0:70:0K.wav
182,192,61993,1,0,0:0:0:70:0K.wav
36,192,61993,1,0,0:0:0:70:0K.wav
402,192,62087,1,0,0:0:0:30:normal-hitnormal.wav
256,192,62181,1,0,0:0:0:70:0K.wav
109,192,62181,1,0,0:0:0:70:0K.wav
256,192,62275,1,0,0:0:0:70:0L.wav
109,192,62275,1,0,0:0:0:70:0L.wav
475,192,62368,1,0,0:0:0:70:0K.wav
36,192,62368,1,0,0:0:0:70:0K.wav
182,192,62462,128,0,62556:0:0:0:30:normal-hitnormal.wav
402,192,62462,1,0,0:0:0:30:normal-hitnormal.wav
109,192,62556,128,0,62650:0:0:0:30:normal-hitnormal.wav
402,192,62556,1,0,0:0:0:70:0K.wav
36,192,62650,128,0,63400:0:0:0:30:normal-hitnormal.wav
256,192,62650,1,0,0:0:0:70:0K.wav
256,192,62837,1,0,0:0:0:70:0K.wav
475,192,62837,1,0,0:0:0:70:0K.wav
256,192,62931,1,0,0:0:0:70:0K.wav
475,192,62931,1,0,0:0:0:70:0K.wav
182,192,63025,1,0,0:0:0:70:0L.wav
329,192,63025,1,0,0:0:0:30:normal-hitnormal.wav
402,192,63025,1,0,0:0:0:70:0L.wav
109,192,63025,128,0,63400:0:0:0:70:01.wav
256,192,63118,1,0,0:0:0:30:normal-hitnormal.wav
329,192,63212,1,0,0:0:0:30:normal-hitnormal.wav
402,192,63306,1,0,0:0:0:30:normal-hitnormal.wav
182,192,63400,1,0,0:0:0:70:0K.wav
329,192,63400,1,0,0:0:0:70:0K.wav
475,192,63400,1,0,0:0:0:70:0K.wav
109,192,63775,1,0,0:0:0:30:normal-hitnormal.wav
329,192,63775,1,0,0:0:0:30:normal-hitnormal.wav
329,192,63868,1,0,0:0:0:30:normal-hitnormal.wav
256,192,64150,1,0,0:0:0:30:normal-hitnormal.wav
475,192,64150,1,0,0:0:0:30:normal-hitnormal.wav
475,192,64243,1,0,0:0:0:30:normal-hitnormal.wav
402,192,64525,1,0,0:0:0:30:normal-hitnormal.wav
182,192,64525,1,0,0:0:0:30:normal-hitnormal.wav
402,192,64618,128,0,64900:0:0:0:30:normal-hitnormal.wav
256,192,64900,1,0,0:0:0:30:normal-hitnormal.wav
36,192,64900,1,0,0:0:0:30:normal-hitnormal.wav
475,192,65275,1,0,0:0:0:30:normal-hitnormal.wav
109,192,65275,1,0,0:0:0:30:normal-hitnormal.wav
475,192,65368,1,0,0:0:0:30:normal-hitnormal.wav
36,192,65650,1,0,0:0:0:30:normal-hitnormal.wav
402,192,65650,1,0,0:0:0:30:normal-hitnormal.wav
402,192,65743,1,0,0:0:0:30:normal-hitnormal.wav
256,192,66025,1,0,0:0:0:30:normal-hitnormal.wav
182,192,66025,1,0,0:0:0:30:normal-hitnormal.wav
256,192,66118,128,0,66400:0:0:0:30:normal-hitnormal.wav
109,192,66400,1,0,0:0:0:70:0K.wav
402,192,66400,1,0,0:0:0:70:0K.wav
475,192,66400,1,0,0:0:0:70:0K.wav
36,192,66775,1,0,0:0:0:30:normal-hitnormal.wav
182,192,66775,1,0,0:0:0:30:normal-hitnormal.wav
182,192,66868,1,0,0:0:0:30:normal-hitnormal.wav
256,192,67150,1,0,0:0:0:30:normal-hitnormal.wav
402,192,67150,1,0,0:0:0:30:normal-hitnormal.wav
402,192,67243,1,0,0:0:0:30:normal-hitnormal.wav
475,192,67525,1,0,0:0:0:30:normal-hitnormal.wav
329,192,67525,1,0,0:0:0:30:normal-hitnormal.wav
475,192,67618,1,0,0:0:0:30:normal-hitnormal.wav
402,192,67900,1,0,0:0:0:70:0K.wav
109,192,67900,1,0,0:0:0:70:0K.wav
182,192,68275,1,0,0:0:0:70:0K.wav
36,192,68275,1,0,0:0:0:70:0K.wav
109,192,68650,1,0,0:0:0:70:0K.wav
256,192,68650,1,0,0:0:0:70:0K.wav
329,192,68743,1,0,0:0:0:30:normal-hitnormal.wav
256,192,68837,1,0,0:0:0:30:normal-hitnormal.wav
182,192,68931,1,0,0:0:0:30:normal-hitnormal.wav
256,192,69025,1,0,0:0:0:70:0K.wav
36,192,69025,1,0,0:0:0:70:0K.wav
329,192,69150,1,0,0:0:0:30:normal-hitnormal.wav
402,192,69275,1,0,0:0:0:30:normal-hitnormal.wav
475,192,69400,1,0,0:0:0:70:0K.wav
36,192,69400,1,0,0:0:0:70:0K.wav
256,192,69400,1,0,0:0:0:70:0K.wav
109,192,69775,128,0,70150:0:0:0:30:normal-hitnormal.wav
182,192,69775,128,0,70150:0:0:0:30:normal-hitnormal.wav
36,192,69775,1,0,0:0:0:30:normal-hitnormal.wav
329,192,69775,1,0,0:0:0:30:normal-hitnormal.wav
256,192,70150,128,0,70525:0:0:0:30:normal-hitnormal.wav
475,192,70150,1,0,0:0:0:30:normal-hitnormal.wav
329,192,70150,128,0,70525:0:0:0:30:normal-hitnormal.wav
36,192,70150,1,0,0:0:0:30:normal-hitnormal.wav
475,192,70525,128,0,70900:0:0:0:30:normal-hitnormal.wav
402,192,70525,128,0,70900:0:0:0:30:normal-hitnormal.wav
109,192,70525,1,0,0:0:0:30:normal-hitnormal.wav
182,192,70525,1,0,0:0:0:30:normal-hitnormal.wav
256,192,70900,1,0,0:0:0:30:normal-hitnormal.wav
36,192,70900,1,0,0:0:0:30:normal-hitnormal.wav
36,192,71275,128,0,71650:0:0:0:30:normal-hitnormal.wav
182,192,71275,1,0,0:0:0:30:normal-hitnormal.wav
329,192,71275,1,0,0:0:0:30:normal-hitnormal.wav
109,192,71275,128,0,71650:0:0:0:30:normal-hitnormal.wav
182,192,71650,128,0,72025:0:0:0:30:normal-hitnormal.wav
329,192,71650,1,0,0:0:0:30:normal-hitnormal.wav
475,192,71650,1,0,0:0:0:30:normal-hitnormal.wav
256,192,71650,128,0,72025:0:0:0:30:normal-hitnormal.wav
402,192,72025,128,0,72400:0:0:0:30:normal-hitnormal.wav
109,192,72025,1,0,0:0:0:30:normal-hitnormal.wav
329,192,72025,1,0,0:0:0:30:normal-hitnormal.wav
475,192,72025,128,0,72400:0:0:0:70:01.wav
256,192,72400,1,0,0:0:0:30:normal-hitnormal.wav
36,192,72400,1,0,0:0:0:30:normal-hitnormal.wav
182,192,72400,1,0,0:0:0:30:normal-hitnormal.wav
109,192,72775,128,0,73150:0:0:0:30:normal-hitnormal.wav
256,192,72775,1,0,0:0:0:30:normal-hitnormal.wav
475,192,72775,1,0,0:0:0:30:normal-hitnormal.wav
36,192,72775,128,0,73150:0:0:0:30:normal-hitnormal.wav
475,192,73150,1,0,0:0:0:30:normal-hitnormal.wav
256,192,73150,128,0,73525:0:0:0:30:normal-hitnormal.wav
182,192,73150,128,0,73525:0:0:0:30:normal-hitnormal.wav
402,192,73150,1,0,0:0:0:30:normal-hitnormal.wav
475,192,73525,128,0,73900:0:0:0:30:normal-hitnormal.wav
329,192,73525,128,0,73900:0:0:0:30:normal-hitnormal.wav
36,192,73525,1,0,0:0:0:30:normal-hitnormal.wav
109,192,73525,1,0,0:0:0:30:normal-hitnormal.wav
402,192,73900,128,0,75025:0:0:0:30:normal-hitnormal.wav
109,192,73900,128,0,73993:0:0:0:30:normal-hitnormal.wav
256,192,73900,1,0,0:0:0:30:normal-hitnormal.wav
36,192,73900,1,0,0:0:0:30:normal-hitnormal.wav
182,192,74181,128,0,74275:0:0:0:30:normal-hitnormal.wav
36,192,74368,128,0,74462:0:0:0:30:normal-hitnormal.wav
256,192,74556,128,0,74650:0:0:0:30:normal-hitnormal.wav
329,192,74650,128,0,74743:0:0:0:30:normal-hitnormal.wav
182,192,74743,128,0,74837:0:0:0:30:normal-hitnormal.wav
109,192,74837,128,0,74931:0:0:0:30:normal-hitnormal.wav
36,192,74931,128,0,75025:0:0:0:30:normal-hitnormal.wav
329,192,74931,1,0,0:0:0:70:0K.wav
256,192,75025,1,0,0:0:0:70:0L.wav
182,192,75025,1,0,0:0:0:30:normal-hitnormal.wav
475,192,75025,128,0,75118:0:0:0:30:normal-hitnormal.wav
402,192,75118,128,0,75212:0:0:0:30:normal-hitnormal.wav
329,192,75212,128,0,75306:0:0:0:30:normal-hitnormal.wav
36,192,75212,128,0,75400:0:0:0:70:01.wav
182,192,75306,128,0,75400:0:0:0:30:normal-hitnormal.wav
402,192,75400,128,0,75681:0:0:0:30:normal-hitnormal.wav
256,192,75400,1,0,0:0:0:30:normal-hitnormal.wav
475,192,75400,1,0,0:0:0:30:normal-hitnormal.wav
109,192,75400,1,0,0:0:0:70:0K.wav
329,192,75493,1,0,0:0:0:30:normal-hitnormal.wav
182,192,75587,1,0,0:0:0:30:normal-hitnormal.wav
256,192,75681,128,0,75962:0:0:0:30:normal-hitnormal.wav
109,192,75681,1,0,0:0:0:30:normal-hitnormal.wav
475,192,75681,1,0,0:0:0:30:normal-hitnormal.wav
36,192,75775,1,0,0:0:0:30:normal-hitnormal.wav
329,192,75775,1,0,0:0:0:70:0L.wav
182,192,75868,1,0,0:0:0:30:normal-hitnormal.wav
402,192,75962,128,0,76150:0:0:0:30:normal-hitnormal.wav
475,192,75962,1,0,0:0:0:30:normal-hitnormal.wav
329,192,76056,1,0,0:0:0:30:normal-hitnormal.wav
109,192,76056,1,0,0:0:0:70:0K.wav
109,192,76150,1,0,0:0:0:70:0K.wav
36,192,76150,128,0,76712:0:0:0:30:normal-hitnormal.wav
256,192,76150,1,0,0:0:0:30:normal-hitnormal.wav
182,192,76150,1,0,0:0:0:30:normal-hitnormal.wav
329,192,76243,1,0,0:0:0:30:normal-hitnormal.wav
182,192,76337,1,0,0:0:0:70:0K.wav
256,192,76337,1,0,0:0:0:30:normal-hitnormal.wav
475,192,76337,1,0,0:0:0:30:normal-hitnormal.wav
402,192,76431,1,0,0:0:0:30:normal-hitnormal.wav
329,192,76525,1,0,0:0:0:30:normal-hitnormal.wav
109,192,76525,1,0,0:0:0:70:0L.wav
256,192,76525,1,0,0:0:0:30:normal-hitnormal.wav
475,192,76618,1,0,0:0:0:30:normal-hitnormal.wav
402,192,76712,128,0,76900:0:0:0:30:normal-hitnormal.wav
329,192,76712,1,0,0:0:0:30:normal-hitnormal.wav
182,192,76712,1,0,0:0:0:30:normal-hitnormal.wav
109,192,76806,1,0,0:0:0:30:normal-hitnormal.wav
256,192,76900,128,0,77181:0:0:0:30:normal-hitnormal.wav
36,192,76900,1,0,0:0:0:30:normal-hitnormal.wav
182,192,76900,1,0,0:0:0:70:0K.wav
475,192,76900,1,0,0:0:0:30:normal-hitnormal.wav
329,192,76993,1,0,0:0:0:30:normal-hitnormal.wav
109,192,77087,1,0,0:0:0:30:normal-hitnormal.wav
402,192,77181,128,0,77462:0:0:0:30:normal-hitnormal.wav
475,192,77181,1,0,0:0:0:30:normal-hitnormal.wav
182,192,77181,1,0,0:0:0:70:0K.wav
36,192,77275,1,0,0:0:0:30:normal-hitnormal.wav
329,192,77275,1,0,0:0:0:70:0L.wav
182,192,77275,1,0,0:0:0:30:normal-hitnormal.wav
256,192,77368,1,0,0:0:0:30:normal-hitnormal.wav
475,192,77462,128,0,77837:0:0:0:30:normal-hitnormal.wav
109,192,77462,1,0,0:0:0:30:normal-hitnormal.wav
256,192,77556,1,0,0:0:0:30:normal-hitnormal.wav
329,192,77556,1,0,0:0:0:70:0K.wav
36,192,77556,1,0,0:0:0:30:normal-hitnormal.wav
182,192,77650,1,0,0:0:0:30:normal-hitnormal.wav
329,192,77650,1,0,0:0:0:70:0K.wav
109,192,77743,1,0,0:0:0:30:normal-hitnormal.wav
402,192,77837,128,0,78118:0:0:0:30:normal-hitnormal.wav
329,192,77837,1,0,0:0:0:30:normal-hitnormal.wav
256,192,77837,1,0,0:0:0:70:0K.wav
36,192,77837,1,0,0:0:0:30:normal-hitnormal.wav
182,192,77931,1,0,0:0:0:30:normal-hitnormal.wav
329,192,78025,1,0,0:0:0:30:normal-hitnormal.wav
109,192,78025,1,0,0:0:0:30:normal-hitnormal.wav
36,192,78025,1,0,0:0:0:70:0L.wav
256,192,78118,128,0,78400:0:0:0:30:normal-hitnormal.wav
475,192,78118,1,0,0:0:0:30:normal-hitnormal.wav
329,192,78212,1,0,0:0:0:30:normal-hitnormal.wav
36,192,78212,1,0,0:0:0:30:normal-hitnormal.wav
109,192,78306,1,0,0:0:0:30:normal-hitnormal.wav
402,192,78400,128,0,78681:0:0:0:30:normal-hitnormal.wav
329,192,78400,1,0,0:0:0:70:0K.wav
475,192,78400,1,0,0:0:0:30:normal-hitnormal.wav
182,192,78400,1,0,0:0:0:30:normal-hitnormal.wav
36,192,78493,1,0,0:0:0:30:normal-hitnormal.wav
182,192,78587,1,0,0:0:0:30:normal-hitnormal.wav
329,192,78681,128,0,78962:0:0:0:30:normal-hitnormal.wav
475,192,78681,1,0,0:0:0:30:normal-hitnormal.wav
109,192,78681,1,0,0:0:0:30:normal-hitnormal.wav
36,192,78775,1,0,0:0:0:30:normal-hitnormal.wav
256,192,78775,1,0,0:0:0:70:0L.wav
182,192,78868,1,0,0:0:0:30:normal-hitnormal.wav
402,192,78962,128,0,79150:0:0:0:30:normal-hitnormal.wav
256,192,78962,1,0,0:0:0:30:normal-hitnormal.wav
109,192,79056,1,0,0:0:0:70:0K.wav
182,192,79056,1,0,0:0:0:30:normal-hitnormal.wav
36,192,79150,128,0,79525:0:0:0:30:normal-hitnormal.wav
109,192,79150,1,0,0:0:0:70:0K.wav
329,192,79150,1,0,0:0:0:30:normal-hitnormal.wav
475,192,79150,1,0,0:0:0:30:normal-hitnormal.wav
182,192,79243,1,0,0:0:0:30:normal-hitnormal.wav
256,192,79337,1,0,0:0:0:30:normal-hitnormal.wav
402,192,79337,1,0,0:0:0:30:normal-hitnormal.wav
475,192,79337,1,0,0:0:0:70:0K.wav
329,192,79431,1,0,0:0:0:30:normal-hitnormal.wav
109,192,79525,128,0,79900:0:0:0:30:normal-hitnormal.wav
182,192,79525,1,0,0:0:0:30:normal-hitnormal.wav
256,192,79525,1,0,0:0:0:70:0L.wav
402,192,79525,1,0,0:0:0:30:normal-hitnormal.wav
475,192,79618,1,0,0:0:0:30:normal-hitnormal.wav
402,192,79712,1,0,0:0:0:30:normal-hitnormal.wav
182,192,79712,1,0,0:0:0:30:normal-hitnormal.wav
329,192,79806,1,0,0:0:0:30:normal-hitnormal.wav
182,192,79900,128,0,80462:0:0:0:30:normal-hitnormal.wav
475,192,79900,1,0,0:0:0:30:normal-hitnormal.wav
256,192,79900,1,0,0:0:0:30:normal-hitnormal.wav
36,192,79900,1,0,0:0:0:70:0K.wav
402,192,79993,1,0,0:0:0:30:normal-hitnormal.wav
329,192,80087,1,0,0:0:0:30:normal-hitnormal.wav
109,192,80087,1,0,0:0:0:30:normal-hitnormal.wav
475,192,80181,1,0,0:0:0:30:normal-hitnormal.wav
402,192,80181,1,0,0:0:0:70:0K.wav
475,192,80275,1,0,0:0:0:70:0L.wav
109,192,80275,1,0,0:0:0:30:normal-hitnormal.wav
36,192,80275,1,0,0:0:0:30:normal-hitnormal.wav
329,192,80275,1,0,0:0:0:30:normal-hitnormal.wav
402,192,80368,1,0,0:0:0:30:normal-hitnormal.wav
329,192,80462,128,0,81025:0:0:0:30:normal-hitnormal.wav
256,192,80462,1,0,0:0:0:30:normal-hitnormal.wav
36,192,80462,1,0,0:0:0:30:normal-hitnormal.wav
109,192,80556,1,0,0:0:0:30:normal-hitnormal.wav
182,192,80556,1,0,0:0:0:70:0K.wav
36,192,80650,1,0,0:0:0:30:normal-hitnormal.wav
475,192,80650,1,0,0:0:0:30:normal-hitnormal.wav
182,192,80650,1,0,0:0:0:70:0K.wav
256,192,80650,1,0,0:0:0:30:normal-hitnormal.wav
402,192,80743,1,0,0:0:0:30:normal-hitnormal.wav
256,192,80837,1,0,0:0:0:30:normal-hitnormal.wav
109,192,80837,1,0,0:0:0:70:0K.wav
182,192,80931,1,0,0:0:0:30:normal-hitnormal.wav
109,192,81025,1,0,0:0:0:30:normal-hitnormal.wav
475,192,81025,1,0,0:0:0:70:0L.wav
36,192,81025,128,0,81400:0:0:0:30:normal-hitnormal.wav
256,192,81118,1,0,0:0:0:30:normal-hitnormal.wav
402,192,81118,1,0,0:0:0:30:normal-hitnormal.wav
182,192,81212,1,0,0:0:0:30:normal-hitnormal.wav
329,192,81212,1,0,0:0:0:30:normal-hitnormal.wav
109,192,81306,1,0,0:0:0:30:normal-hitnormal.wav
256,192,81306,1,0,0:0:0:30:normal-hitnormal.wav
182,192,81400,1,0,0:0:0:30:normal-hitnormal.wav
329,192,81400,1,0,0:0:0:30:normal-hitnormal.wav
475,192,81400,1,0,0:0:0:30:normal-hitnormal.wav
402,192,81493,1,0,0:0:0:30:normal-hitnormal.wav
256,192,81493,1,0,0:0:0:30:normal-hitnormal.wav
109,192,81587,1,0,0:0:0:30:normal-hitnormal.wav
329,192,81587,1,0,0:0:0:30:normal-hitnormal.wav
475,192,81587,1,0,0:0:0:30:normal-hitnormal.wav
256,192,81681,1,0,0:0:0:30:normal-hitnormal.wav
36,192,81681,1,0,0:0:0:30:normal-hitnormal.wav
182,192,81775,1,0,0:0:0:30:normal-hitnormal.wav
329,192,81775,1,0,0:0:0:30:normal-hitnormal.wav
402,192,81775,1,0,0:0:0:30:normal-hitnormal.wav
475,192,81775,1,0,0:0:0:30:normal-hitnormal.wav
329,192,81868,1,0,0:0:0:30:normal-hitnormal.wav
109,192,81868,1,0,0:0:0:30:normal-hitnormal.wav
402,192,81868,1,0,0:0:0:30:normal-hitnormal.wav
475,192,81868,1,0,0:0:0:30:normal-hitnormal.wav
109,192,82150,1,0,0:0:0:30:normal-hitnormal.wav
475,192,82150,1,0,0:0:0:30:normal-hitnormal.wav
256,192,82150,1,0,0:0:0:30:normal-hitnormal.wav
329,192,82243,1,0,0:0:0:30:normal-hitnormal.wav
182,192,82243,1,0,0:0:0:30:normal-hitnormal.wav
256,192,82337,1,0,0:0:0:30:normal-hitnormal.wav
402,192,82337,1,0,0:0:0:30:normal-hitnormal.wav
109,192,82337,1,0,0:0:0:30:normal-hitnormal.wav
36,192,82431,1,0,0:0:0:30:normal-hitnormal.wav
329,192,82431,1,0,0:0:0:30:normal-hitnormal.wav
182,192,82525,1,0,0:0:0:30:normal-hitnormal.wav
256,192,82525,1,0,0:0:0:30:normal-hitnormal.wav
402,192,82525,1,0,0:0:0:30:normal-hitnormal.wav
109,192,82525,1,0,0:0:0:30:normal-hitnormal.wav
475,192,82618,1,0,0:0:0:30:normal-hitnormal.wav
182,192,82618,1,0,0:0:0:30:normal-hitnormal.wav
256,192,82618,1,0,0:0:0:30:normal-hitnormal.wav
109,192,82618,1,0,0:0:0:30:normal-hitnormal.wav
182,192,82900,1,0,0:0:0:30:normal-hitnormal.wav
402,192,82900,1,0,0:0:0:30:normal-hitnormal.wav
36,192,82900,1,0,0:0:0:30:normal-hitnormal.wav
256,192,82993,1,0,0:0:0:30:normal-hitnormal.wav
329,192,82993,1,0,0:0:0:30:normal-hitnormal.wav
475,192,83087,1,0,0:0:0:30:normal-hitnormal.wav
182,192,83087,1,0,0:0:0:30:normal-hitnormal.wav
36,192,83087,1,0,0:0:0:30:normal-hitnormal.wav
402,192,83181,1,0,0:0:0:30:normal-hitnormal.wav
256,192,83181,1,0,0:0:0:30:normal-hitnormal.wav
109,192,83181,1,0,0:0:0:30:normal-hitnormal.wav
475,192,83275,1,0,0:0:0:30:normal-hitnormal.wav
329,192,83275,1,0,0:0:0:30:normal-hitnormal.wav
182,192,83275,1,0,0:0:0:30:normal-hitnormal.wav
36,192,83275,1,0,0:0:0:30:normal-hitnormal.wav
329,192,83368,1,0,0:0:0:30:normal-hitnormal.wav
109,192,83368,1,0,0:0:0:30:normal-hitnormal.wav
475,192,83368,1,0,0:0:0:30:normal-hitnormal.wav
182,192,83368,1,0,0:0:0:30:normal-hitnormal.wav
109,192,83650,1,0,0:0:0:70:0K.wav
329,192,83650,1,0,0:0:0:30:normal-hitnormal.wav
182,192,83650,1,0,0:0:0:30:normal-hitnormal.wav
256,192,83743,1,0,0:0:0:30:normal-hitnormal.wav
475,192,83743,1,0,0:0:0:30:normal-hitnormal.wav
402,192,83837,1,0,0:0:0:30:normal-hitnormal.wav
36,192,83837,1,0,0:0:0:30:normal-hitnormal.wav
182,192,83837,1,0,0:0:0:70:0K.wav
109,192,83931,1,0,0:0:0:30:normal-hitnormal.wav
329,192,83931,1,0,0:0:0:30:normal-hitnormal.wav
256,192,84025,1,0,0:0:0:70:0L.wav
475,192,84025,1,0,0:0:0:30:normal-hitnormal.wav
182,192,84025,1,0,0:0:0:30:normal-hitnormal.wav
402,192,84118,1,0,0:0:0:30:normal-hitnormal.wav
36,192,84118,1,0,0:0:0:30:normal-hitnormal.wav
182,192,84212,1,0,0:0:0:30:normal-hitnormal.wav
329,192,84212,1,0,0:0:0:30:normal-hitnormal.wav
256,192,84212,1,0,0:0:0:30:normal-hitnormal.wav
109,192,84306,1,0,0:0:0:30:normal-hitnormal.wav
475,192,84306,1,0,0:0:0:30:normal-hitnormal.wav
402,192,84400,1,0,0:0:0:30:normal-hitnormal.wav
256,192,84400,1,0,0:0:0:70:0K.wav
36,192,84400,1,0,0:0:0:30:normal-hitnormal.wav
182,192,84493,1,0,0:0:0:30:normal-hitnormal.wav
329,192,84493,1,0,0:0:0:30:normal-hitnormal.wav
109,192,84587,1,0,0:0:0:30:normal-hitnormal.wav
475,192,84587,1,0,0:0:0:30:normal-hitnormal.wav
402,192,84587,1,0,0:0:0:30:normal-hitnormal.wav
256,192,84681,1,0,0:0:0:30:normal-hitnormal.wav
36,192,84681,1,0,0:0:0:30:normal-hitnormal.wav
402,192,84775,1,0,0:0:0:70:0L.wav
182,192,84775,1,0,0:0:0:30:normal-hitnormal.wav
329,192,84775,1,0,0:0:0:30:normal-hitnormal.wav
109,192,84868,1,0,0:0:0:30:normal-hitnormal.wav
475,192,84868,1,0,0:0:0:30:normal-hitnormal.wav
402,192,84962,1,0,0:0:0:30:normal-hitnormal.wav
256,192,84962,1,0,0:0:0:30:normal-hitnormal.wav
329,192,85056,1,0,0:0:0:30:normal-hitnormal.wav
182,192,85056,1,0,0:0:0:30:normal-hitnormal.wav
36,192,85056,1,0,0:0:0:70:0K.wav
36,192,85150,1,0,0:0:0:70:0K.wav
256,192,85150,1,0,0:0:0:30:normal-hitnormal.wav
475,192,85150,1,0,0:0:0:30:normal-hitnormal.wav
402,192,85243,1,0,0:0:0:30:normal-hitnormal.wav
182,192,85243,1,0,0:0:0:30:normal-hitnormal.wav
329,192,85337,1,0,0:0:0:30:normal-hitnormal.wav
256,192,85337,1,0,0:0:0:70:0K.wav
109,192,85337,1,0,0:0:0:30:normal-hitnormal.wav
402,192,85431,1,0,0:0:0:30:normal-hitnormal.wav
475,192,85431,1,0,0:0:0:30:normal-hitnormal.wav
256,192,85525,1,0,0:0:0:70:01.wav
182,192,85525,1,0,0:0:0:70:0L.wav
36,192,85525,1,0,0:0:0:30:normal-hitnormal.wav
329,192,85618,1,0,0:0:0:30:normal-hitnormal.wav
109,192,85618,1,0,0:0:0:30:normal-hitnormal.wav
475,192,85712,1,0,0:0:0:30:normal-hitnormal.wav
256,192,85712,1,0,0:0:0:30:normal-hitnormal.wav
329,192,85806,1,0,0:0:0:30:normal-hitnormal.wav
182,192,85806,1,0,0:0:0:30:normal-hitnormal.wav
109,192,85900,1,0,0:0:0:30:normal-hitnormal.wav
36,192,85900,1,0,0:0:0:70:0K.wav
402,192,85900,1,0,0:0:0:30:normal-hitnormal.wav
256,192,85993,1,0,0:0:0:30:normal-hitnormal.wav
475,192,85993,1,0,0:0:0:30:normal-hitnormal.wav
329,192,85993,1,0,0:0:0:30:normal-hitnormal.wav
402,192,86087,1,0,0:0:0:30:normal-hitnormal.wav
182,192,86087,1,0,0:0:0:30:normal-hitnormal.wav
109,192,86087,1,0,0:0:0:30:normal-hitnormal.wav
329,192,86181,1,0,0:0:0:70:0K.wav
256,192,86181,1,0,0:0:0:30:normal-hitnormal.wav
36,192,86181,1,0,0:0:0:30:normal-hitnormal.wav
329,192,86275,1,0,0:0:0:30:normal-hitnormal.wav
475,192,86275,1,0,0:0:0:70:0L.wav
109,192,86275,1,0,0:0:0:30:normal-hitnormal.wav
402,192,86368,1,0,0:0:0:30:normal-hitnormal.wav
182,192,86368,1,0,0:0:0:30:normal-hitnormal.wav
256,192,86368,1,0,0:0:0:30:normal-hitnormal.wav
36,192,86462,1,0,0:0:0:30:normal-hitnormal.wav
329,192,86462,1,0,0:0:0:30:normal-hitnormal.wav
475,192,86462,1,0,0:0:0:30:normal-hitnormal.wav
182,192,86556,1,0,0:0:0:30:normal-hitnormal.wav
402,192,86556,1,0,0:0:0:30:normal-hitnormal.wav
109,192,86556,1,0,0:0:0:70:0K.wav
109,192,86650,1,0,0:0:0:70:0K.wav
256,192,86650,1,0,0:0:0:30:normal-hitnormal.wav
475,192,86650,1,0,0:0:0:30:normal-hitnormal.wav
329,192,86743,1,0,0:0:0:30:normal-hitnormal.wav
36,192,86743,1,0,0:0:0:30:normal-hitnormal.wav
402,192,86743,1,0,0:0:0:30:normal-hitnormal.wav
182,192,86837,1,0,0:0:0:30:normal-hitnormal.wav
256,192,86837,1,0,0:0:0:70:0K.wav
475,192,86837,1,0,0:0:0:30:normal-hitnormal.wav
402,192,86931,1,0,0:0:0:30:normal-hitnormal.wav
109,192,86931,1,0,0:0:0:30:normal-hitnormal.wav
329,192,86931,1,0,0:0:0:30:normal-hitnormal.wav
256,192,87025,1,0,0:0:0:30:normal-hitnormal.wav
182,192,87025,1,0,0:0:0:70:0L.wav
36,192,87025,1,0,0:0:0:30:normal-hitnormal.wav
475,192,87118,1,0,0:0:0:30:normal-hitnormal.wav
329,192,87118,1,0,0:0:0:30:normal-hitnormal.wav
109,192,87118,1,0,0:0:0:30:normal-hitnormal.wav
402,192,87212,1,0,0:0:0:30:normal-hitnormal.wav
256,192,87212,1,0,0:0:0:30:normal-hitnormal.wav
36,192,87212,128,0,87400:0:0:0:30:normal-hitnormal.wav
182,192,87306,1,0,0:0:0:30:normal-hitnormal.wav
329,192,87306,1,0,0:0:0:30:normal-hitnormal.wav
402,192,87400,128,0,87681:0:0:0:30:normal-hitnormal.wav
256,192,87400,1,0,0:0:0:30:normal-hitnormal.wav
475,192,87400,1,0,0:0:0:70:0K.wav
109,192,87400,1,0,0:0:0:30:normal-hitnormal.wav
182,192,87493,1,0,0:0:0:30:normal-hitnormal.wav
36,192,87587,1,0,0:0:0:30:normal-hitnormal.wav
256,192,87681,128,0,87962:0:0:0:30:normal-hitnormal.wav
109,192,87681,1,0,0:0:0:30:normal-hitnormal.wav
329,192,87681,1,0,0:0:0:30:normal-hitnormal.wav
36,192,87775,1,0,0:0:0:30:normal-hitnormal.wav
182,192,87775,1,0,0:0:0:30:normal-hitnormal.wav
475,192,87775,1,0,0:0:0:70:0L.wav
109,192,87868,1,0,0:0:0:30:normal-hitnormal.wav
329,192,87962,1,0,0:0:0:30:normal-hitnormal.wav
402,192,87962,128,0,88150:0:0:0:30:normal-hitnormal.wav
182,192,87962,1,0,0:0:0:30:normal-hitnormal.wav
109,192,88056,1,0,0:0:0:70:0K.wav
256,192,88056,1,0,0:0:0:30:normal-hitnormal.wav
36,192,88150,128,0,88712:0:0:0:30:normal-hitnormal.wav
475,192,88150,1,0,0:0:0:30:normal-hitnormal.wav
329,192,88150,1,0,0:0:0:30:normal-hitnormal.wav
182,192,88150,1,0,0:0:0:70:0K.wav
256,192,88243,1,0,0:0:0:30:normal-hitnormal.wav
402,192,88337,1,0,0:0:0:30:normal-hitnormal.wav
182,192,88337,1,0,0:0:0:30:normal-hitnormal.wav
109,192,88337,1,0,0:0:0:70:0K.wav
329,192,88431,1,0,0:0:0:30:normal-hitnormal.wav
256,192,88525,1,0,0:0:0:30:normal-hitnormal.wav
182,192,88525,1,0,0:0:0:30:normal-hitnormal.wav
475,192,88525,1,0,0:0:0:70:0L.wav
329,192,88618,1,0,0:0:0:30:normal-hitnormal.wav
402,192,88712,128,0,88900:0:0:0:30:normal-hitnormal.wav
109,192,88712,1,0,0:0:0:30:normal-hitnormal.wav
256,192,88712,1,0,0:0:0:30:normal-hitnormal.wav
182,192,88806,1,0,0:0:0:30:normal-hitnormal.wav
256,192,88900,128,0,89181:0:0:0:30:normal-hitnormal.wav
329,192,88900,1,0,0:0:0:30:normal-hitnormal.wav
475,192,88900,1,0,0:0:0:30:normal-hitnormal.wav
36,192,88900,1,0,0:0:0:70:0K.wav
182,192,88993,1,0,0:0:0:30:normal-hitnormal.wav
109,192,89087,1,0,0:0:0:30:normal-hitnormal.wav
402,192,89181,128,0,89462:0:0:0:30:normal-hitnormal.wav
36,192,89181,1,0,0:0:0:30:normal-hitnormal.wav
182,192,89181,1,0,0:0:0:70:0K.wav
475,192,89181,1,0,0:0:0:30:normal-hitnormal.wav
329,192,89275,1,0,0:0:0:30:normal-hitnormal.wav
256,192,89275,1,0,0:0:0:70:0L.wav
109,192,89275,1,0,0:0:0:30:normal-hitnormal.wav
182,192,89368,1,0,0:0:0:30:normal-hitnormal.wav
475,192,89462,128,0,89837:0:0:0:30:normal-hitnormal.wav
329,192,89462,1,0,0:0:0:30:normal-hitnormal.wav
109,192,89556,1,0,0:0:0:30:normal-hitnormal.wav
256,192,89556,1,0,0:0:0:70:0K.wav
182,192,89556,1,0,0:0:0:30:normal-hitnormal.wav
36,192,89650,1,0,0:0:0:30:normal-hitnormal.wav
329,192,89650,1,0,0:0:0:30:normal-hitnormal.wav
402,192,89650,1,0,0:0:0:70:0K.wav
109,192,89743,1,0,0:0:0:30:normal-hitnormal.wav
402,192,89837,128,0,90118:0:0:0:30:normal-hitnormal.wav
256,192,89837,1,0,0:0:0:30:normal-hitnormal.wav
182,192,89837,1,0,0:0:0:30:normal-hitnormal.wav
329,192,89837,1,0,0:0:0:70:0K.wav
109,192,89931,1,0,0:0:0:30:normal-hitnormal.wav
36,192,90025,1,0,0:0:0:30:normal-hitnormal.wav
329,192,90025,1,0,0:0:0:30:normal-hitnormal.wav
182,192,90025,1,0,0:0:0:70:0L.wav
256,192,90118,128,0,90400:0:0:0:30:normal-hitnormal.wav
109,192,90118,1,0,0:0:0:30:normal-hitnormal.wav
475,192,90118,1,0,0:0:0:30:normal-hitnormal.wav
329,192,90212,1,0,0:0:0:30:normal-hitnormal.wav
109,192,90306,1,0,0:0:0:30:normal-hitnormal.wav
36,192,90400,1,0,0:0:0:70:0K.wav
182,192,90400,1,0,0:0:0:70:0K.wav
402,192,90400,1,0,0:0:0:30:normal-hitnormal.wav
475,192,90400,128,0,90775:0:0:0:30:normal-hitnormal.wav
109,192,90446,1,0,0:0:0:30:normal-hitnormal.wav
182,192,90493,1,0,0:0:0:30:normal-hitnormal.wav
329,192,90493,1,0,0:0:0:30:normal-hitnormal.wav
256,192,90540,1,0,0:0:0:30:normal-hitnormal.wav
109,192,90587,1,0,0:0:0:30:normal-hitnormal.wav
182,192,90587,1,0,0:0:0:0:
256,192,90634,1,0,0:0:0:30:normal-hitnormal.wav
182,192,90681,1,0,0:0:0:30:normal-hitnormal.wav
329,192,90681,1,0,0:0:0:30:normal-hitnormal.wav
402,192,90728,1,0,0:0:0:30:normal-hitnormal.wav
329,192,90775,1,0,0:0:0:30:normal-hitnormal.wav
109,192,90775,1,0,0:0:0:70:0K.wav
36,192,90775,1,0,0:0:0:70:0K.wav
256,192,90775,1,0,0:0:0:30:normal-hitnormal.wav
182,192,90775,1,0,0:0:0:30:normal-hitnormal.wav
36,192,91150,1,0,0:0:0:70:0K.wav
109,192,91150,1,0,0:0:0:70:0K.wav
182,192,91150,1,0,0:0:0:30:normal-hitnormal.wav
329,192,91150,1,0,0:0:0:30:normal-hitnormal.wav
402,192,91150,1,0,0:0:0:30:normal-hitnormal.wav
36,192,91431,1,0,0:0:0:30:normal-hitnormal.wav
109,192,91431,1,0,0:0:0:30:normal-hitnormal.wav
256,192,91431,1,0,0:0:0:30:normal-hitnormal.wav
402,192,91431,1,0,0:0:0:70:0K.wav
475,192,91431,1,0,0:0:0:70:0K.wav
109,192,91712,1,0,0:0:0:70:0K.wav
182,192,91712,1,0,0:0:0:70:0K.wav
329,192,91712,1,0,0:0:0:30:normal-hitnormal.wav
402,192,91712,1,0,0:0:0:30:normal-hitnormal.wav
475,192,91712,1,0,0:0:0:30:normal-hitnormal.wav
36,192,91993,1,0,0:0:0:30:normal-hitnormal.wav
182,192,91993,1,0,0:0:0:30:normal-hitnormal.wav
256,192,91993,1,0,0:0:0:30:normal-hitnormal.wav
402,192,91993,1,0,0:0:0:70:0K.wav
475,192,91993,1,0,0:0:0:70:0K.wav
109,192,92275,1,0,0:0:0:70:0K.wav
256,192,92275,1,0,0:0:0:30:normal-hitnormal.wav
36,192,92275,1,0,0:0:0:70:0K.wav
182,192,92275,1,0,0:0:0:30:normal-hitnormal.wav
402,192,92275,1,0,0:0:0:30:normal-hitnormal.wav
109,192,92556,1,0,0:0:0:30:normal-hitnormal.wav
329,192,92556,1,0,0:0:0:30:normal-hitnormal.wav
256,192,92556,1,0,0:0:0:30:normal-hitnormal.wav
402,192,92556,1,0,0:0:0:30:normal-hitnormal.wav
475,192,92556,1,0,0:0:0:30:normal-hitnormal.wav
36,192,92837,1,0,0:0:0:30:normal-hitnormal.wav
182,192,92837,1,0,0:0:0:30:normal-hitnormal.wav
329,192,92837,1,0,0:0:0:30:normal-hitnormal.wav
402,192,92837,1,0,0:0:0:30:normal-hitnormal.wav
475,192,92837,1,0,0:0:0:30:normal-hitnormal.wav
36,192,93025,1,0,0:0:0:30:normal-hitnormal.wav
109,192,93025,1,0,0:0:0:30:normal-hitnormal.wav
329,192,93025,1,0,0:0:0:30:normal-hitnormal.wav
256,192,93025,1,0,0:0:0:30:normal-hitnormal.wav
109,192,93150,1,0,0:0:0:30:normal-hitnormal.wav
182,192,93150,1,0,0:0:0:30:normal-hitnormal.wav
329,192,93150,1,0,0:0:0:30:normal-hitnormal.wav
402,192,93150,1,0,0:0:0:30:normal-hitnormal.wav
182,192,93275,1,0,0:0:0:30:normal-hitnormal.wav
329,192,93275,1,0,0:0:0:30:normal-hitnormal.wav
256,192,93275,1,0,0:0:0:30:normal-hitnormal.wav
475,192,93275,1,0,0:0:0:30:normal-hitnormal.wav
475,192,93400,1,0,0:0:0:70:0K.wav
402,192,93400,1,0,0:0:0:70:0K.wav
256,192,93400,1,0,0:0:0:30:normal-hitnormal.wav
109,192,93400,1,0,0:0:0:30:normal-hitnormal.wav
36,192,93400,128,0,93775:0:0:0:70:GF.wav
182,192,93493,1,0,0:0:0:30:normal-hitnormal.wav
256,192,93587,1,0,0:0:0:30:normal-hitnormal.wav
329,192,93681,1,0,0:0:0:30:normal-hitnormal.wav
109,192,93775,1,0,0:0:0:30:normal-hitnormal.wav
402,192,93775,128,0,94150:0:0:0:70:GG.wav
182,192,93775,1,0,0:0:0:30:normal-hitnormal.wav
256,192,93868,1,0,0:0:0:30:normal-hitnormal.wav
329,192,93962,1,0,0:0:0:30:normal-hitnormal.wav
475,192,94056,1,0,0:0:0:30:normal-hitnormal.wav
36,192,94150,1,0,0:0:0:30:normal-hitnormal.wav
182,192,94150,128,0,94525:0:0:0:70:GH.wav
256,192,94150,1,0,0:0:0:70:0K.wav
329,192,94150,1,0,0:0:0:30:normal-hitnormal.wav
109,192,94243,1,0,0:0:0:30:normal-hitnormal.wav
329,192,94337,1,0,0:0:0:30:normal-hitnormal.wav
475,192,94337,1,0,0:0:0:30:normal-hitnormal.wav
256,192,94337,1,0,0:0:0:70:0K.wav
402,192,94431,1,0,0:0:0:30:normal-hitnormal.wav
329,192,94525,128,0,94900:0:0:0:70:GI.wav
109,192,94525,1,0,0:0:0:30:normal-hitnormal.wav
36,192,94525,1,0,0:0:0:70:0L.wav
475,192,94525,1,0,0:0:0:30:normal-hitnormal.wav
256,192,94618,1,0,0:0:0:30:normal-hitnormal.wav
182,192,94618,1,0,0:0:0:70:0K.wav
402,192,94712,1,0,0:0:0:30:normal-hitnormal.wav
475,192,94806,1,0,0:0:0:30:normal-hitnormal.wav
109,192,94806,1,0,0:0:0:30:normal-hitnormal.wav
402,192,94900,128,0,95275:0:0:0:70:GJ.wav
36,192,94900,1,0,0:0:0:30:normal-hitnormal.wav
256,192,94900,1,0,0:0:0:70:0K.wav
182,192,94900,1,0,0:0:0:70:0K.wav
109,192,94993,1,0,0:0:0:30:normal-hitnormal.wav
182,192,95087,1,0,0:0:0:30:normal-hitnormal.wav
329,192,95181,1,0,0:0:0:30:normal-hitnormal.wav
109,192,95275,128,0,95650:0:0:0:70:GK.wav
475,192,95275,1,0,0:0:0:30:normal-hitnormal.wav
36,192,95275,1,0,0:0:0:30:normal-hitnormal.wav
182,192,95368,1,0,0:0:0:30:normal-hitnormal.wav
329,192,95462,1,0,0:0:0:30:normal-hitnormal.wav
402,192,95556,1,0,0:0:0:30:normal-hitnormal.wav
256,192,95650,128,0,96025:0:0:0:70:GL.wav
36,192,95650,1,0,0:0:0:30:normal-hitnormal.wav
329,192,95650,1,0,0:0:0:70:0K.wav
109,192,95743,1,0,0:0:0:30:normal-hitnormal.wav
402,192,95743,1,0,0:0:0:70:0K.wav
182,192,95837,1,0,0:0:0:30:normal-hitnormal.wav
475,192,95837,1,0,0:0:0:70:0K.wav
329,192,95931,1,0,0:0:0:30:normal-hitnormal.wav
402,192,96025,128,0,96400:0:0:0:70:GM.wav
475,192,96025,1,0,0:0:0:30:normal-hitnormal.wav
36,192,96025,1,0,0:0:0:70:0L.wav
182,192,96118,1,0,0:0:0:30:normal-hitnormal.wav
109,192,96118,1,0,0:0:0:70:0K.wav
256,192,96212,1,0,0:0:0:30:normal-hitnormal.wav
36,192,96306,1,0,0:0:0:30:normal-hitnormal.wav
329,192,96306,1,0,0:0:0:30:normal-hitnormal.wav
256,192,96400,1,0,0:0:0:30:normal-hitnormal.wav
475,192,96400,1,0,0:0:0:30:normal-hitnormal.wav
109,192,96400,128,0,96775:0:0:0:70:GN.wav
329,192,96493,1,0,0:0:0:30:normal-hitnormal.wav
182,192,96493,1,0,0:0:0:30:normal-hitnormal.wav
402,192,96587,1,0,0:0:0:30:normal-hitnormal.wav
256,192,96587,1,0,0:0:0:30:normal-hitnormal.wav
475,192,96681,1,0,0:0:0:30:normal-hitnormal.wav
329,192,96681,1,0,0:0:0:30:normal-hitnormal.wav
182,192,96775,128,0,97150:0:0:0:70:GO.wav
36,192,96775,1,0,0:0:0:30:normal-hitnormal.wav
402,192,96775,1,0,0:0:0:30:normal-hitnormal.wav
256,192,96775,1,0,0:0:0:30:normal-hitnormal.wav
109,192,96868,1,0,0:0:0:30:normal-hitnormal.wav
329,192,96868,1,0,0:0:0:30:normal-hitnormal.wav
402,192,96962,1,0,0:0:0:30:normal-hitnormal.wav
256,192,96962,1,0,0:0:0:30:normal-hitnormal.wav
475,192,97056,1,0,0:0:0:30:normal-hitnormal.wav
329,192,97056,1,0,0:0:0:30:normal-hitnormal.wav
36,192,97150,128,0,97525:0:0:0:70:GP.wav
402,192,97150,1,0,0:0:0:30:normal-hitnormal.wav
109,192,97150,1,0,0:0:0:70:0K.wav
256,192,97150,1,0,0:0:0:30:normal-hitnormal.wav
256,192,97243,1,0,0:0:0:30:normal-hitnormal.wav
109,192,97243,1,0,0:0:0:70:0K.wav
329,192,97337,1,0,0:0:0:30:normal-hitnormal.wav
182,192,97337,1,0,0:0:0:70:0K.wav
402,192,97431,1,0,0:0:0:30:normal-hitnormal.wav
256,192,97431,1,0,0:0:0:30:normal-hitnormal.wav
329,192,97525,128,0,97900:0:0:0:70:GQ.wav
475,192,97525,1,0,0:0:0:30:normal-hitnormal.wav
109,192,97525,1,0,0:0:0:70:0L.wav
182,192,97618,1,0,0:0:0:70:0K.wav
402,192,97618,1,0,0:0:0:30:normal-hitnormal.wav
109,192,97618,1,0,0:0:0:30:normal-hitnormal.wav
256,192,97712,1,0,0:0:0:30:normal-hitnormal.wav
475,192,97712,1,0,0:0:0:30:normal-hitnormal.wav
36,192,97806,1,0,0:0:0:70:0K.wav
182,192,97806,1,0,0:0:0:30:normal-hitnormal.wav
402,192,97806,1,0,0:0:0:30:normal-hitnormal.wav
109,192,97900,1,0,0:0:0:30:normal-hitnormal.wav
256,192,97900,1,0,0:0:0:30:normal-hitnormal.wav
475,192,97900,128,0,98275:0:0:0:70:GR.wav
36,192,97900,1,0,0:0:0:70:0K.wav
329,192,97993,1,0,0:0:0:30:normal-hitnormal.wav
182,192,97993,1,0,0:0:0:30:normal-hitnormal.wav
256,192,98087,1,0,0:0:0:30:normal-hitnormal.wav
109,192,98087,1,0,0:0:0:30:normal-hitnormal.wav
402,192,98087,1,0,0:0:0:30:normal-hitnormal.wav
182,192,98181,1,0,0:0:0:30:normal-hitnormal.wav
329,192,98181,1,0,0:0:0:30:normal-hitnormal.wav
36,192,98275,128,0,98650:0:0:0:70:GS.wav
256,192,98275,1,0,0:0:0:30:normal-hitnormal.wav
402,192,98275,1,0,0:0:0:30:normal-hitnormal.wav
109,192,98275,1,0,0:0:0:30:normal-hitnormal.wav
182,192,98368,1,0,0:0:0:30:normal-hitnormal.wav
475,192,98368,1,0,0:0:0:30:normal-hitnormal.wav
329,192,98462,1,0,0:0:0:30:normal-hitnormal.wav
109,192,98462,1,0,0:0:0:30:normal-hitnormal.wav
402,192,98462,1,0,0:0:0:30:normal-hitnormal.wav
256,192,98556,1,0,0:0:0:30:normal-hitnormal.wav
402,192,98650,1,0,0:0:0:70:J1.wav
182,192,98650,1,0,0:0:0:30:normal-hitnormal.wav
475,192,98650,128,0,99400:0:0:0:70:GT.wav
329,192,98743,1,0,0:0:0:70:J2.wav
402,192,98743,128,0,98931:0:0:0:30:normal-hitnormal.wav
109,192,98743,1,0,0:0:0:30:normal-hitnormal.wav
256,192,98837,1,0,0:0:0:70:J3.wav
329,192,98837,128,0,99025:0:0:0:30:normal-hitnormal.wav
36,192,98837,1,0,0:0:0:30:normal-hitnormal.wav
182,192,98931,1,0,0:0:0:70:J4.wav
256,192,98931,128,0,99118:0:0:0:30:normal-hitnormal.wav
109,192,99025,1,0,0:0:0:70:J5.wav
182,192,99025,128,0,99212:0:0:0:30:normal-hitnormal.wav
402,192,99025,128,0,99400:0:0:0:30:normal-hitnormal.wav
36,192,99118,1,0,0:0:0:70:J6.wav
109,192,99118,128,0,99306:0:0:0:30:normal-hitnormal.wav
329,192,99118,128,0,99400:0:0:0:30:normal-hitnormal.wav
36,192,99212,128,0,99400:0:0:0:30:normal-hitnormal.wav
256,192,99212,128,0,99400:0:0:0:70:J7.wav
182,192,99306,128,0,99400:0:0:0:70:J8.wav
109,192,99400,1,0,0:0:0:70:0K.wav
256,192,101275,1,0,0:0:0:30:normal-hitnormal.wav
256,192,101462,1,0,0:0:0:30:normal-hitnormal.wav
329,192,101556,1,0,0:0:0:30:normal-hitnormal.wav
182,192,101650,1,0,0:0:0:30:normal-hitnormal.wav
109,192,101837,1,0,0:0:0:30:normal-hitnormal.wav
36,192,102025,1,0,0:0:0:30:normal-hitnormal.wav
109,192,102212,1,0,0:0:0:30:normal-hitnormal.wav
182,192,102400,1,0,0:0:0:30:normal-hitnormal.wav
256,192,102400,1,0,0:0:0:30:normal-hitnormal.wav
475,192,102400,1,0,0:0:0:30:normal-hitnormal.wav
109,192,103150,1,0,0:0:0:30:normal-hitnormal.wav
256,192,103150,1,0,0:0:0:30:normal-hitnormal.wav
475,192,103150,1,0,0:0:0:30:normal-hitnormal.wav
402,192,103337,1,0,0:0:0:30:normal-hitnormal.wav
36,192,103525,1,0,0:0:0:30:normal-hitnormal.wav
182,192,103712,1,0,0:0:0:30:normal-hitnormal.wav
475,192,103712,1,0,0:0:0:30:normal-hitnormal.wav
475,192,103900,1,0,0:0:0:30:normal-hitnormal.wav
256,192,103900,1,0,0:0:0:30:normal-hitnormal.wav
36,192,103900,1,0,0:0:0:30:normal-hitnormal.wav
36,192,104650,1,0,0:0:0:30:normal-hitnormal.wav
109,192,104743,1,0,0:0:0:30:normal-hitnormal.wav
182,192,104837,1,0,0:0:0:30:normal-hitnormal.wav
256,192,104931,1,0,0:0:0:30:normal-hitnormal.wav
475,192,105025,1,0,0:0:0:30:normal-hitnormal.wav
402,192,105150,1,0,0:0:0:30:normal-hitnormal.wav
329,192,105275,1,0,0:0:0:30:normal-hitnormal.wav
256,192,105400,1,0,0:0:0:70:0K.wav
36,192,105400,1,0,0:0:0:70:0K.wav
475,192,105400,1,0,0:0:0:70:0K.wav
109,192,105681,1,0,0:0:0:30:normal-hitnormal.wav
256,192,105775,1,0,0:0:0:30:normal-hitnormal.wav
36,192,105962,1,0,0:0:0:30:normal-hitnormal.wav
475,192,106150,1,0,0:0:0:30:normal-hitnormal.wav
109,192,106525,1,0,0:0:0:30:normal-hitnormal.wav
182,192,106618,1,0,0:0:0:30:normal-hitnormal.wav
256,192,106712,1,0,0:0:0:30:normal-hitnormal.wav
329,192,106806,1,0,0:0:0:30:normal-hitnormal.wav
109,192,106900,1,0,0:0:0:30:normal-hitnormal.wav
36,192,106900,1,0,0:0:0:30:normal-hitnormal.wav
109,192,107181,1,0,0:0:0:30:normal-hitnormal.wav
256,192,107275,1,0,0:0:0:30:normal-hitnormal.wav
36,192,107462,1,0,0:0:0:30:normal-hitnormal.wav
329,192,107462,1,0,0:0:0:30:normal-hitnormal.wav
475,192,107650,1,0,0:0:0:30:normal-hitnormal.wav
109,192,107931,1,0,0:0:0:30:normal-hitnormal.wav
256,192,108025,1,0,0:0:0:30:normal-hitnormal.wav
402,192,108025,1,0,0:0:0:30:normal-hitnormal.wav
182,192,108212,1,0,0:0:0:30:normal-hitnormal.wav
36,192,108400,1,0,0:0:0:30:normal-hitnormal.wav
329,192,108400,1,0,0:0:0:30:normal-hitnormal.wav
109,192,108681,1,0,0:0:0:30:normal-hitnormal.wav
329,192,108775,1,0,0:0:0:30:normal-hitnormal.wav
256,192,108775,1,0,0:0:0:30:normal-hitnormal.wav
475,192,108962,1,0,0:0:0:30:normal-hitnormal.wav
36,192,108962,1,0,0:0:0:30:normal-hitnormal.wav
329,192,109150,1,0,0:0:0:30:normal-hitnormal.wav
475,192,109337,1,0,0:0:0:30:normal-hitnormal.wav
109,192,109853,1,0,0:0:0:30:normal-hitnormal.wav
182,192,109876,1,0,0:0:0:30:normal-hitnormal.wav
256,192,109900,1,0,0:0:0:30:normal-hitnormal.wav
402,192,109900,1,0,0:0:0:30:normal-hitnormal.wav
109,192,110181,1,0,0:0:0:30:normal-hitnormal.wav
256,192,110275,1,0,0:0:0:30:normal-hitnormal.wav
402,192,110275,1,0,0:0:0:30:normal-hitnormal.wav
36,192,110462,1,0,0:0:0:30:normal-hitnormal.wav
329,192,110462,1,0,0:0:0:30:normal-hitnormal.wav
475,192,110650,1,0,0:0:0:70:0K.wav
182,192,110650,1,0,0:0:0:30:normal-hitnormal.wav
109,192,110837,1,0,0:0:0:30:normal-hitnormal.wav
475,192,110837,1,0,0:0:0:70:0K.wav
402,192,111025,1,0,0:0:0:70:0L.wav
256,192,111025,1,0,0:0:0:30:normal-hitnormal.wav
329,192,111118,1,0,0:0:0:70:0K.wav
182,192,111118,1,0,0:0:0:30:normal-hitnormal.wav
256,192,111400,1,0,0:0:0:70:0K.wav
109,192,111400,1,0,0:0:0:30:normal-hitnormal.wav
36,192,111400,1,0,0:0:0:70:0K.wav
402,192,111400,1,0,0:0:0:30:normal-hitnormal.wav
475,192,111400,1,0,0:0:0:70:0K.wav
256,192,111775,1,0,0:0:0:30:normal-hitnormal.wav
182,192,112150,1,0,0:0:0:30:normal-hitnormal.wav
329,192,112150,1,0,0:0:0:30:normal-hitnormal.wav
402,192,112150,1,0,0:0:0:30:normal-hitnormal.wav
109,192,112150,1,0,0:0:0:30:normal-hitnormal.wav
329,192,112525,1,0,0:0:0:30:normal-hitnormal.wav
182,192,112900,1,0,0:0:0:70:0K.wav
36,192,112900,1,0,0:0:0:70:0K.wav
329,192,112900,1,0,0:0:0:70:0K.wav
402,192,112900,1,0,0:0:0:30:normal-hitnormal.wav
475,192,112900,1,0,0:0:0:30:normal-hitnormal.wav
182,192,113275,1,0,0:0:0:30:normal-hitnormal.wav
256,192,113650,1,0,0:0:0:30:normal-hitnormal.wav
36,192,113650,1,0,0:0:0:30:normal-hitnormal.wav
329,192,113650,1,0,0:0:0:30:normal-hitnormal.wav
109,192,113650,1,0,0:0:0:30:normal-hitnormal.wav
329,192,114025,1,0,0:0:0:30:normal-hitnormal.wav
36,192,114400,1,0,0:0:0:70:0K.wav
182,192,114400,1,0,0:0:0:30:normal-hitnormal.wav
475,192,114400,1,0,0:0:0:70:0K.wav
256,192,114493,1,0,0:0:0:30:normal-hitnormal.wav
329,192,114587,1,0,0:0:0:30:normal-hitnormal.wav
402,192,114681,1,0,0:0:0:30:normal-hitnormal.wav
256,192,114775,1,0,0:0:0:30:normal-hitnormal.wav
329,192,114868,1,0,0:0:0:30:normal-hitnormal.wav
402,192,114962,1,0,0:0:0:30:normal-hitnormal.wav
475,192,115056,1,0,0:0:0:30:normal-hitnormal.wav
36,192,115150,1,0,0:0:0:30:normal-hitnormal.wav
256,192,115150,1,0,0:0:0:30:normal-hitnormal.wav
109,192,115243,1,0,0:0:0:30:normal-hitnormal.wav
329,192,115243,1,0,0:0:0:30:normal-hitnormal.wav
182,192,115337,1,0,0:0:0:30:normal-hitnormal.wav
402,192,115337,1,0,0:0:0:30:normal-hitnormal.wav
256,192,115431,1,0,0:0:0:30:normal-hitnormal.wav
475,192,115431,1,0,0:0:0:30:normal-hitnormal.wav
402,192,115525,1,0,0:0:0:30:normal-hitnormal.wav
182,192,115525,1,0,0:0:0:30:normal-hitnormal.wav
475,192,115618,1,0,0:0:0:30:normal-hitnormal.wav
256,192,115618,1,0,0:0:0:30:normal-hitnormal.wav
402,192,115712,1,0,0:0:0:30:normal-hitnormal.wav
182,192,115712,1,0,0:0:0:30:normal-hitnormal.wav
329,192,115806,1,0,0:0:0:30:normal-hitnormal.wav
109,192,115806,1,0,0:0:0:30:normal-hitnormal.wav
256,192,115900,1,0,0:0:0:30:normal-hitnormal.wav
36,192,115900,1,0,0:0:0:30:normal-hitnormal.wav
182,192,115900,1,0,0:0:0:30:normal-hitnormal.wav
329,192,115993,1,0,0:0:0:30:normal-hitnormal.wav
182,192,116087,1,0,0:0:0:30:normal-hitnormal.wav
329,192,116181,1,0,0:0:0:30:normal-hitnormal.wav
182,192,116275,1,0,0:0:0:30:normal-hitnormal.wav
329,192,116368,1,0,0:0:0:30:normal-hitnormal.wav
182,192,116462,1,0,0:0:0:30:normal-hitnormal.wav
329,192,116556,1,0,0:0:0:30:normal-hitnormal.wav
256,192,116650,1,0,0:0:0:30:normal-hitnormal.wav
475,192,116650,1,0,0:0:0:30:normal-hitnormal.wav
36,192,116650,1,0,0:0:0:30:normal-hitnormal.wav
36,192,116931,1,0,0:0:0:70:0K.wav
256,192,116931,1,0,0:0:0:70:0K.wav
109,192,117025,128,0,117400:0:0:0:30:normal-hitnormal.wav
329,192,117025,128,0,117400:0:0:0:30:normal-hitnormal.wav
182,192,117400,1,0,0:0:0:70:0K.wav
256,192,117400,1,0,0:0:0:70:0K.wav
402,192,117400,1,0,0:0:0:70:0K.wav
475,192,117400,1,0,0:0:0:70:0K.wav
