osu file format v9

[General]
AudioFilename: yey.mp3
AudioLeadIn: 2000
PreviewTime: 51523
Countdown: 0
SampleSet: Soft
StackLeniency: 0.8
Mode: 0
LetterboxInBreaks: 0

[Editor]
DistanceSpacing: 0.8
BeatDivisor: 4
GridSize: 4

[Metadata]
Title:AXION
Artist:sakuzyo
Creator:iMercurial
Version:Normal
Source:BMS
Tags:magic mash man new genuine magicial girl deadblue238 Darksonic ikari_kyon Regou Jenny Catch the beat

[Difficulty]
HPDrainRate:3
CircleSize:3
OverallDifficulty:4
ApproachRate:5
SliderMultiplier:1.6
SliderTickRate:2

[Events]
//Background and Video events
0,0,"abstractthing.jpg"
Video,0,"checkmate.flv"
//Break Periods
2,26223,26323
2,63723,68323
2,99723,104323
//Storyboard Layer 0 (Background)
//Storyboard Layer 1 (Fail)
//Storyboard Layer 2 (Pass)
//Storyboard Layer 3 (Foreground)
//Storyboard Sound Samples
//Background Colour Transformations
3,100,163,162,255

[TimingPoints]
2023,375,4,2,0,55,1,0
51523,-100,4,2,0,70,0,1
57523,-100,4,2,0,55,0,0
112273,-100,4,1,0,55,0,1
112366,-100,4,2,0,55,0,0
113773,-100,4,1,0,55,0,1
113866,-100,4,2,0,55,0,0

[Colours]
Combo1 : 255,128,0
Combo2 : 0,0,255
Combo3 : 255,0,0
Combo4 : 128,0,128

[HitObjects]
132,112,2023,2,0,B|224:112|256:28|256:28|288:112|384:112,1,320,4|0
380,272,3523,2,0,B|288:272|256:356|256:356|224:272|128:272,1,320,0|0
132,140,5023,6,0,B|236:140|236:44,2,160
132,240,6148,1,0
224,240,6523,2,0,B|317:239|317:343,2,160
220,144,8023,5,0
292,80,8773,1,0
364,144,9523,1,0
292,208,10273,1,0
184,340,11023,6,0,B|84:340|84:240,1,160
180,244,11773,1,0
328,44,12523,2,0,B|428:44|428:144,1,160
332,140,13273,1,0
236,264,14023,6,0,B|156:264|156:264|92:216,2,160
276,120,15523,2,0,B|356:120|356:120|420:168,2,160
60,144,17023,6,0,B|60:48|164:48,1,160
164,144,17773,1,0
452,240,18523,2,0,B|452:336|348:336,1,160
348,240,19273,1,0
141,170,20023,6,0,B|276:84,1,160
256,192,20773,1,0
370,213,21523,2,0,B|236:300,1,160
256,192,22273,1,0
160,192,23023,6,0,B|160:112|160:112|236:88,1,160
352,192,23773,2,0,B|352:272|352:272|276:296,1,160
216,228,24523,2,0,B|216:140,2,80
296,228,25273,2,0,B|296:148,2,80
256,312,26023,5,4
140,168,27523,5,0
224,128,27898,2,0,B|292:96|380:96,1,160
380,180,28648,1,0
328,256,29023,2,0,B|256:296|256:296|180:296,2,160
380,180,30148,1,0
328,104,30523,6,0,B|208:104|188:48,1,160
188,164,31273,2,0,B|168:108|48:108,1,160
48,192,32023,1,0
104,264,32398,1,0
196,264,32773,1,0
252,192,33148,1,0
344,192,33523,6,0,B|396:128|396:128|340:72,1,160
248,72,34273,2,0,B|196:136|196:136|252:192,1,160
252,280,35023,2,0,B|352:280|352:180,1,160
348,92,35773,2,0,B|248:92|248:192,1,160
156,192,36523,5,0
176,92,36898,1,0
268,48,37273,1,0
368,56,37648,1,0
380,156,38023,2,0,B|380:252|272:252,3,160
188,252,39523,6,0,B|116:212|68:148|68:148|120:80|192:44,1,320
321,44,41023,2,0,B|392:80|444:148|444:148|396:212|324:252,1,320
392,288,42523,6,0,B|336:364|256:364|172:364|112:288,1,320
120,96,44023,2,0,B|176:20|256:20|340:20|400:96,1,320
432,296,45523,6,0,B|352:296|352:296|296:236,1,160
212,140,46273,2,0,B|157:81|157:81|77:81,1,160
80,296,47023,2,0,B|160:296|160:296|216:236,1,160
300,140,47773,2,0,B|354:81|354:81|434:81,1,160
456,208,48523,6,0,B|468:296|392:344,2,160
368,244,49648,1,0
280,284,50023,2,0,B|268:196|344:148,3,160
396,32,51523,6,0,B|316:32|316:32|264:96,1,160
212,208,52273,2,0,B|156:264|156:264|76:264,1,160
72,136,53023,2,0,B|72:40|176:40,1,160
256,136,53773,1,0
256,264,54148,1,0
336,344,54523,6,0,B|440:344|440:248,1,160
324,192,55273,1,0
196,192,55648,1,0
68,176,56023,2,0,B|148:316,1,160
264,264,56773,2,0,B|188:124,1,160
280,32,57523,6,0,B|200:32,2,80
280,132,58273,2,0,B|360:132,2,80
276,260,59023,6,0,B|276:300|276:300|244:324,1,80
180,324,59398,1,0
180,232,59773,2,0,B|180:192|180:192|212:168,1,80
284,168,60148,1,0
336,52,60523,6,0,B|256:52|176:52,3,160
176,180,62023,2,0,B|256:180|340:180,3,160
256,80,63523,5,4
220,96,69523,6,0,B|116:96|116:192,1,160
120,280,70273,2,0,B|224:280|224:184,1,160
312,185,71023,2,0,B|312:92|416:92,1,160
419,182,71773,2,0,B|420:276|316:276,1,160
228,276,72523,6,0,B|148:276|148:276|88:220,1,160
88,140,73273,1,0
180,140,73648,1,0
272,140,74023,1,0
364,140,74398,1,0
360,224,74773,2,0,B|296:276|296:276|220:276,1,160
132,276,75523,5,0
80,204,75898,1,0
80,112,76273,1,0
136,40,76648,1,0
228,40,77023,2,0,B|308:112|308:112|308:164,1,160
308,164,77773,2,0,B|308:216|308:216|220:280,1,160
104,228,78523,6,0,B|104:128|212:128,2,160
232,232,79648,1,0
360,228,80023,2,0,B|360:128|252:128,2,160
232,232,81148,1,0
312,316,81523,5,0
344,280,81898,1,0
376,244,82273,1,0
408,208,82648,1,0
408,160,83023,5,0
372,128,83398,1,0
332,100,83773,1,0
292,72,84148,1,0
200,68,84523,6,0,B|120:68,3,80
120,144,85273,2,0,B|200:144,3,80
120,224,86023,6,0,B|120:304,3,80
192,304,86773,2,0,B|192:224,3,80
272,220,87523,6,0,B|276:124|376:124,1,160
376,208,88273,2,0,B|372:304|272:304,1,160
188,304,89023,2,0,B|92:300|92:200,1,160
96,112,89773,2,0,B|192:116|192:216,2,160
92,240,90898,5,0
92,368,91273,2,0,B|196:308,1,120
172,216,91835,2,0,B|276:156,1,120
320,244,92398,2,0,B|424:184,1,120
452,92,92960,6,0,B|380:52,3,80
256,32,93898,2,0,B|180:32|92:68|56:152|56:236,1,320
256,352,95398,2,0,B|332:352|420:316|456:232|456:148,1,320
384,116,96898,6,0,B|344:36|256:36|256:36|160:36|120:120,1,320
128,268,98398,2,0,B|168:348|256:348|256:348|352:348|392:264,1,320
256,192,99523,5,4
96,40,105523,6,0,B|196:40|196:140,1,160
252,192,106085,1,0
316,244,106273,2,0,B|316:344|416:344,1,160
460,264,107023,6,0,B|460:192|332:192,1,160
252,192,107585,1,0
167,191,107773,2,0,B|44:192|44:120,1,160
116,72,108523,5,0
208,72,108898,2,0,B|288:72,2,80
208,164,109648,1,0
208,252,110023,5,0
296,256,110398,2,0,B|376:256,2,80
296,344,111148,1,0
204,348,111523,5,0
112,348,111898,2,0,B|112:268|112:268|168:208,1,160,0|8
352,208,113023,6,0,B|452:208|452:108,1,160
360,112,113773,1,8
168,112,114523,6,0,B|168:192,3,80
168,268,115273,2,0,B|252:268,3,80
324,268,116023,6,0,B|324:188,3,80
324,112,116773,2,0,B|240:112,2,80
256,220,117523,5,4
