osu file format v9

[General]
AudioFilename: yey.mp3
AudioLeadIn: 2000
PreviewTime: 51523
Countdown: 0
SampleSet: Normal
StackLeniency: 0.7
Mode: 0
LetterboxInBreaks: 0

[Editor]
DistanceSpacing: 2
BeatDivisor: 6
GridSize: 4

[Metadata]
Title:AXION
Artist:sakuzyo
Creator:iMercurial
Version:Hyper
Source:BMS
Tags:magic mash man new genuine magicial girl deadblue238 Darksonic ikari_kyon Regou Jenny Catch the beat

[Difficulty]
HPDrainRate:6
CircleSize:4
OverallDifficulty:6
ApproachRate:7
SliderMultiplier:1.7
SliderTickRate:1

[Events]
//Background and Video events
0,0,"abstractthing.jpg"
Video,0,"checkmate.flv"
//Break Periods
2,26223,26623
2,99722,100685
//Storyboard Layer 0 (Background)
//Storyboard Layer 1 (Fail)
//Storyboard Layer 2 (Pass)
//Storyboard Layer 3 (Foreground)
//Storyboard Sound Samples
//Background Colour Transformations
3,100,163,162,255

[TimingPoints]
2023,375,4,1,0,70,1,0
2210,-100,4,2,0,40,0,0
8023,-100,4,1,0,40,0,0
8210,-100,4,2,0,40,0,0
14023,-100,4,1,0,70,0,0
14210,-100,4,2,0,40,0,0
17023,-100,4,1,0,30,0,0
17210,-100,4,2,0,40,0,0
20023,-100,4,1,0,30,0,0
20210,-100,4,2,0,40,0,0
23023,-100,4,1,0,30,0,0
23116,-100,4,2,0,40,0,0
24523,-100,4,2,1,40,0,0
24898,-100,4,2,1,60,0,0
26023,-100,4,1,0,60,0,1
26116,-100,4,1,0,60,0,0
27523,-100,4,1,1,30,0,0
39523,-100,4,1,1,40,0,0
49835,-100,4,1,1,70,0,0
50023,-100,4,1,1,90,0,0
50304,-100,4,1,1,70,0,0
50398,-100,4,1,1,90,0,0
50679,-100,4,1,1,70,0,0
50773,-100,4,1,1,90,0,0
51523,-100,4,1,1,70,0,1
59960,-100,4,1,2,70,0,1
60148,-100,4,1,2,90,0,1
60523,-200,4,1,2,70,0,1
60898,-100,4,1,1,70,0,1
63523,-100,4,1,0,100,0,0
63616,-200,4,1,0,40,0,0
75054,-100,4,1,1,40,0,0
75523,-100,4,1,1,60,0,1
90898,-100,4,1,1,70,0,0
93523,-100,4,1,1,70,0,1
93616,-133.333333333333,4,1,1,60,0,0
99335,-133.333333333333,4,1,1,70,0,0
99523,-133.333333333333,4,2,0,40,0,1
105523,-133.333333333333,4,1,0,70,0,1
105898,-133.333333333333,4,2,0,40,0,1
107023,-200,4,2,0,40,0,1
107585,-133.333333333333,4,2,0,40,0,1
110773,-100,4,1,1,60,0,1
111523,-200,4,1,1,60,0,1
111616,-200,4,1,1,40,0,1
117429,-200,4,1,1,40,0,0
117523,-100,4,1,1,60,0,1
117616,-100,4,1,1,60,0,0

[Colours]
Combo1 : 255,128,0
Combo2 : 0,0,255
Combo3 : 255,0,0
Combo4 : 128,0,128

[HitObjects]
72,164,2023,2,0,B|128:92|240:92,1,170,4|0
288,44,2585,2,0,B|336:128|440:128,1,170
388,204,3148,1,0
460,252,3335,2,0,B|404:324,1,85
336,276,3710,2,0,B|264:336|156:280,2,170
388,204,4648,1,0
388,204,4835,1,0
460,252,5023,2,0,B|480:76,1,170
408,40,5585,2,0,B|332:88|236:32,1,170
160,28,6148,2,0,B|200:116,1,85
108,104,6523,2,0,B|148:192,1,85
132,264,6898,1,0
212,232,7085,2,0,B|284:168|384:224,2,170
188,148,8023,6,0,B|328:36,1,170,0|0
312,152,8585,2,0,B|452:40,1,170,0|0
504,108,9148,2,0,B|516:152|496:192,1,85
416,212,9523,2,0,B|404:256|424:296,2,85
332,232,10085,2,0,B|252:292|164:228,1,170
120,304,10648,2,0,B|88:212,1,85
32,284,11023,2,0,B|0:192,1,85
28,120,11398,1,0
108,144,11585,2,0,B|196:196|284:136,2,170
28,120,12523,1,0
92,64,12710,2,0,B|188:16,1,85
276,56,13085,2,0,B|120:136,2,170
356,28,14023,6,0,B|408:120|340:208,1,170,4|0
284,240,14585,2,0,B|368:196|464:272,1,170
488,332,15148,1,0
408,360,15335,2,0,B|312:376,1,85
256,324,15710,2,0,B|160:340,1,85
168,252,16085,2,0,B|124:168|16:184,1,170
4,100,16648,1,0
72,48,16835,1,0
156,68,17023,2,0,B|232:136|324:88,1,170,0|0
376,36,17585,2,0,B|320:112|384:212,1,170
440,252,18148,1,0
484,180,18335,2,0,B|392:132|312:192,1,170
260,244,18898,1,0
216,172,19085,2,0,B|160:252|56:204,1,170
12,140,19648,2,0,B|60:64,1,85
180,32,20023,6,0,B|132:108,1,85,0|0
92,176,20398,1,0
156,232,20585,2,0,B|240:176|328:232,1,170
380,168,21148,1,0
448,216,21335,2,0,B|500:48,1,170
412,64,21898,1,0
344,12,22085,2,0,B|260:68|176:20,1,170
108,68,22648,1,0
160,136,22835,1,0
112,204,23023,6,0,B|164:296|276:244,1,170,0|0
324,304,23585,2,0,B|412:140,1,170
484,124,24148,2,0,B|512:172|488:224,1,85
416,236,24523,2,8,B|388:188|412:136,2,85,8|0|8
472,300,25085,1,0
472,300,25179,1,0
472,300,25273,1,8
404,352,25460,1,8
348,288,25648,2,0,B|300:304|256:280,2,85,0|0|4
104,156,27523,6,0,B|200:192|268:108,1,170
308,52,28085,2,0,B|276:16,2,42.5
368,116,28460,1,0
424,52,28648,2,0,B|492:120|448:228,1,170
348,280,29304,5,0
348,280,29398,2,0,B|264:232|184:280,1,170
136,212,29960,1,0
56,240,30148,2,0,B|4:160|52:64,2,170
164,312,31179,5,0
164,312,31273,2,0,B|260:348,2,85
108,152,32023,6,0,B|160:104|232:128,1,127.5
264,104,32398,2,0,B|316:168|388:136,1,127.5
416,156,32773,2,0,B|464:84,2,85
256,220,33523,6,0,B|352:180|428:256,1,170
472,128,34179,1,0
440,96,34273,2,0,B|368:24,1,85
300,68,34648,1,0
196,204,35023,6,0,B|148:268|64:244,1,127.5
48,228,35398,1,0
128,328,35679,1,0
168,344,35773,2,0,B|216:368|264:344,1,85
316,296,36148,1,0
444,188,36523,6,0,B|340:220|284:120,1,170
168,116,37179,1,0
204,96,37273,2,0,B|236:64|232:8,2,85
112,240,38023,6,0,B|204:196|272:256,1,170
392,212,38679,1,0
356,192,38773,2,0,B|324:160|328:104,2,85
216,96,39523,6,0,B|112:80|64:172,1,170
104,284,40179,1,0
144,304,40273,2,0,B|192:324|232:312,2,85
308,352,41023,6,0,B|368:312|348:224,1,127.5
328,204,41398,1,0
292,128,41585,1,0
336,56,41773,2,0,B|372:28,2,42.5
256,20,42148,1,0
116,112,42523,6,0,B|216:96|264:176,1,170
244,300,43179,1,0
244,300,43273,1,0
192,232,43460,2,0,B|136:228|112:284,1,85
52,112,44023,5,0
160,40,44304,2,0,B|192:76,1,42.5
120,180,44679,2,0,B|60:204,3,42.5
132,264,45148,1,0
292,320,45523,5,0
292,320,45898,2,0,B|336:272|316:200,1,127.5
276,180,46273,2,0,B|296:92,2,85
148,64,47023,6,0,B|120:132|144:188,1,127.5
116,220,47398,2,0,B|172:296,1,85
208,300,47679,2,0,B|156:348|88:316,1,127.5
40,248,48148,1,0
164,132,48523,5,0
328,84,48898,1,0
300,208,49179,1,0
300,208,49273,1,0
352,276,49460,1,0
436,292,49648,1,0
508,248,49835,6,0,B|528:204,3,42.5,0|0|2|0
452,168,50304,2,0,B|440:108,2,42.5,0|2|0
368,156,50679,2,0,B|328:116,1,42.5,0|2
212,132,51054,2,0,B|256:148,1,42.5,0|0
296,220,51335,1,0
244,288,51523,1,4
84,340,51898,6,0,B|44:284|76:212,1,127.5
100,184,52273,1,0
196,132,52460,1,0
120,52,52648,2,0,B|208:8|288:60,1,170
282,56,53116,1,0
388,28,53304,1,0
388,28,53398,2,0,B|360:112|436:168,1,127.5
448,164,53773,1,0
380,252,53960,1,0
436,348,54148,1,0
268,316,54523,6,0,B|216:240|112:264,1,170
28,172,55179,1,0
28,172,55273,2,0,B|92:188|132:144,2,85
20,60,55835,2,0,B|-4:16,2,42.5
128,76,56210,1,0
128,76,56304,1,0
128,76,56398,2,0,B|184:136|260:104,1,127.5
276,84,56773,2,0,B|364:128,2,85
224,152,57335,6,0,B|184:204,1,42.5
156,188,57523,2,0,B|116:232|140:292,1,85
200,316,57898,1,0
284,308,58085,1,0
360,348,58273,1,0
424,300,58460,2,0,B|476:280,4,42.5
392,220,59023,6,0,B|404:128,1,85
348,72,59398,1,0
348,72,59491,2,0,B|308:108|244:80,1,85
152,40,59960,2,0,B|140:80,1,42.5,2|0
172,108,60148,2,0,B|160:148,1,42.5,2|2
196,168,60335,2,0,B|184:208,1,42.5,0|2
216,236,60523,6,0,B|192:316,1,85,2|0
68,348,61179,5,0
68,348,61273,2,0,B|48:312|56:264,1,85
140,264,61648,2,0,B|147:217|127:181,1,85
172,108,62023,2,0,B|192:72,1,42.5,0|0
268,36,62304,2,0,B|280:88,3,42.5,0|0|0|0
352,40,62773,2,0,B|392:12,1,42.5,0|0
464,48,63054,2,0,B|452:96,2,42.5,0|0|0
412,116,63335,1,0
444,196,63523,1,4
120,296,65023,5,0
348,44,66523,5,4
32,172,68023,5,0
324,348,69523,5,4
348,268,69898,1,0
328,184,70273,1,0
272,120,70648,1,0
164,252,71023,5,4
140,172,71398,1,0
164,92,71773,1,0
236,44,72148,1,0
304,200,72523,5,4
380,164,72898,1,0
412,84,73273,1,0
376,8,73648,1,0
376,8,74023,1,4
256,192,74116,12,0,75148
88,156,75523,6,0,B|144:84|248:112,1,170
328,204,76085,1,0
328,204,76179,1,0
328,204,76273,2,0,B|364:172|360:120,2,85
244,212,76835,1,0
296,280,77023,2,0,B|344:332|420:304,1,127.5
452,320,77398,2,0,B|484:208,1,85
475,238,77679,1,0
475,238,77773,1,0
440,160,77960,1,0
364,200,78148,2,0,B|292:136|336:36,1,170
412,12,78710,5,0
468,76,78898,1,0
392,112,79085,1,0
392,112,79179,2,0,B|320:156|240:100,1,127.5
256,108,79554,1,0
180,40,79835,1,0
124,104,80023,2,0,B|92:176|156:232,1,127.5
160,228,80398,1,0
236,264,80585,2,0,B|284:288,2,42.5
168,316,80960,1,0
80,312,81148,2,0,B|8:252|44:148,1,170
52,144,81616,5,0
64,132,81710,1,0
80,124,81804,1,0
96,120,81898,2,0,B|128:108|160:124,1,42.5
184,192,82272,1,0
200,188,82366,1,0
216,180,82460,1,0
228,168,82554,1,0
239,154,82648,2,0,B|251:131|247:99,1,42.5
348,32,83023,6,0,B|360:84,5,42.5
432,112,83679,1,0
412,124,83772,2,0,B|376:148,3,42.5
376,192,84148,2,0,B|400:252,1,42.5
360,260,84335,2,0,B|340:308,1,42.5
304,316,84523,6,0,B|256:340,3,42.5
224,328,84898,2,0,B|164:304,3,42.5
148,336,85273,2,0,B|108:344,3,42.5
64,344,85648,2,0,B|16:324,3,42.5
12,288,86023,6,0,B|4:244,1,42.5
44,228,86210,2,0,B|68:184,1,42.5
48,152,86398,2,0,B|44:104,1,42.5
80,88,86585,2,0,B|112:44,1,42.5
168,36,86773,6,0,B|196:72,1,42.5
164,124,86960,2,0,B|144:172,1,42.5
204,192,87148,2,0,B|244:208,1,42.5
292,168,87335,2,0,B|316:208,1,42.5
324,268,87523,6,0,B|420:316|492:236,1,170,4|0
500,164,88085,1,0
476,140,88179,1,0
452,116,88273,2,0,B|384:48,1,85
308,60,88648,2,0,B|264:80|212:52,2,85
340,140,89210,5,0
328,172,89304,1,0
316,204,89398,2,0,B|280:292,1,85
200,268,89772,1,0
184,300,89866,2,0,B|160:348,1,42.5
96,288,90148,2,0,B|60:188,1,85
36,128,90523,1,0
20,96,90616,1,0
4,64,90710,1,0
124,24,90898,5,0
292,56,91273,1,0
152,148,91554,1,0
256,276,91835,1,0
396,188,92116,1,0
292,56,92398,1,0
152,148,92679,1,0
256,276,92960,1,0
156,320,93148,2,0,B|104:268,2,56.6666666666667
172,336,93523,1,4
344,112,94273,6,0,B|364:184,1,63.749998100102
408,188,94648,1,0
424,208,94741,1,0
424,232,94835,2,0,B|388:284|316:264,1,95.624997150153
268,244,95398,1,0
216,180,95773,2,0,B|192:152,2,31.874999050051
152,232,96148,2,0,B|120:236,2,31.874999050051
100,168,96523,6,0,B|72:96|128:24,2,127.499996200204
100,168,97366,1,0
100,168,97460,1,0
64,244,97648,1,0
64,244,97741,1,0
64,244,97835,1,0
148,232,98023,2,0,B|216:212,2,63.749998100102
244,52,98773,5,0
268,64,98866,1,0
284,84,98960,1,0
292,108,99054,1,0
292,132,99148,2,0,B|288:160,8,15.9374995250255,0|0|0|0|0|0|0|0|4
172,84,101585,6,0,B|152:52,2,31.874999050051,2|2|2
220,136,101960,1,0
284,160,102148,1,0
352,148,102335,1,0
404,100,102523,2,0,B|480:108|488:188,1,127.499996200204
448,240,103085,1,0
380,252,103273,1,0
316,224,103460,1,0
284,160,103648,2,0,B|260:96|172:88,1,127.499996200204,0|2
88,268,104773,6,0,B|72:308,3,31.874999050051,2|0|0|0
88,320,105148,2,0,B|96:352,3,31.874999050051,2|0|0|0
116,364,105523,1,4
404,264,106648,6,0,B|444:248,3,31.874999050051,2|0|0|0
448,236,107023,1,0
472,164,107585,1,0
460,88,108148,1,0
400,40,108523,1,4
324,56,108898,1,2
324,56,109085,1,0
288,124,109460,1,0
288,124,109648,1,2
324,192,110023,1,4
80,312,110773,5,2
56,232,110960,1,2
164,260,111148,1,2
164,260,111241,1,0
212,140,111523,1,6
360,80,112273,5,0
124,324,113023,1,4
48,172,113773,5,0
204,240,114523,2,0,B|228:264,2,21.25
208,196,114804,2,0,B|240:180,2,21.25
176,168,115085,2,0,B|184:136,2,21.25
136,176,115366,2,0,B|116:152,2,21.25
120,216,115648,2,0,B|96:232,3,21.25
92,256,116023,1,0
108,328,116210,1,0
256,192,116304,12,0,117148
256,180,117523,53,4
