osu file format v9

[General]
AudioFilename: yey.mp3
AudioLeadIn: 2000
PreviewTime: 51523
Countdown: 0
SampleSet: Normal
StackLeniency: 0.8
Mode: 0
LetterboxInBreaks: 0

[Editor]
DistanceSpacing: 1
BeatDivisor: 4
GridSize: 4

[Metadata]
Title:AXION
Artist:sakuzyo
Creator:iMercurial
Version:Extreme
Source:BMS
Tags:magic mash man new genuine magicial girl deadblue238 Darksonic ikari_kyon Regou Jenny Catch the beat

[Difficulty]
HPDrainRate:8
CircleSize:5
OverallDifficulty:8
ApproachRate:9
SliderMultiplier:2.2
SliderTickRate:1

[Events]
//Background and Video events
0,0,"abstractthing.jpg"
Video,0,"checkmate.flv"
//Break Periods
//Storyboard Layer 0 (Background)
//Storyboard Layer 1 (Fail)
//Storyboard Layer 2 (Pass)
//Storyboard Layer 3 (Foreground)
Sprite,Foreground,Centre,"x2.png",320,240 F,0,90796,90983,0,1 S,0,90796,90983,0.1,0.6284351 R,0,90796,90983,-1.18784,-0.05590064 R,0,90983,,-0.05590064 M,0,90983,92671,320,240,320,245 F,0,90983,92671,1 F,0,92671,92765,1,0 F,0,92765,,0
//Storyboard Sound Samples
//Background Colour Transformations
3,100,163,162,255

[TimingPoints]
2023,375,4,1,0,100,1,0
2116,-100,4,2,0,40,0,0
8023,-100,4,1,0,50,0,0
8116,-100,4,2,0,40,0,0
14023,-100,4,1,0,100,0,0
14116,-100,4,2,0,40,0,0
26023,-100,4,1,0,40,0,0
27523,-100,4,1,0,100,0,0
27616,-100,4,1,0,55,0,0
40648,-100,4,2,0,60,0,0
41023,-100,4,1,0,55,0,0
42148,-100,4,2,0,60,0,0
42523,-100,4,1,0,55,0,0
43648,-100,4,2,0,60,0,0
44023,-100,4,1,0,55,0,0
45148,-100,4,2,0,60,0,0
45523,-100,4,1,0,55,0,0
51523,-100,4,1,0,100,0,1
51616,-100,4,1,0,55,0,1
57523,-100,4,1,0,55,0,0
63523,-100,4,1,0,100,0,0
63616,-100,4,2,0,60,0,0
66523,-100,4,1,0,70,0,0
66616,-100,4,1,0,55,0,0
67835,-100,4,2,0,60,0,0
68023,-100,4,1,0,55,0,0
72616,-100,4,2,0,55,0,0
74023,-100,4,1,0,100,0,0
74116,-100,4,1,0,55,0,0
75616,-100,4,1,0,55,0,0
87523,-100,4,1,0,100,0,0
87616,-100,4,1,0,55,0,0
91273,-50,4,1,0,55,0,0
92960,-100,4,1,0,55,0,0
99523,-100,4,1,0,100,0,0
99616,-100,4,2,0,60,0,0
105523,-100,4,1,0,55,0,0
112273,-100,4,1,0,55,0,1
112366,-100,4,1,0,55,0,0
113773,-100,4,1,0,55,0,1
113866,-100,4,1,0,55,0,0
117523,-100,4,1,0,100,0,0

[Colours]
Combo1 : 255,128,0
Combo2 : 0,0,255
Combo3 : 255,0,0
Combo4 : 128,0,128

[HitObjects]
460,52,2023,6,0,B|460:164,1,110,4|2
396,72,2398,2,0,B|396:184,1,110,2|0
76,312,2960,5,2
180,280,3148,1,0
100,208,3335,2,0,B|108:148|180:144|180:144|156:104|160:40,1,220,0|2
256,120,3898,5,0
288,224,4085,2,0,B|292:264|340:264|340:264|356:268|356:268|360:292,1,110,2|0
224,224,4460,1,2
224,224,4554,1,0
224,224,4648,5,0
180,124,4835,1,2
332,124,5023,1,0
288,224,5210,1,2
388,156,5398,1,0
344,256,5585,2,0,B|336:296|288:308|256:288|256:288|224:308|176:296|168:256,2,220,2|2|2
352,200,6429,1,0
388,156,6523,2,0,B|412:96|472:88,1,110,0|2
328,152,6898,2,0,B|296:84|256:68,1,110,0|2
180,144,7273,6,0,B|124:152,1,55,2|0
156,196,7460,2,0,B|100:204,1,55,2|0
132,248,7648,2,0,B|76:256,2,55,2|0|2
180,272,7929,1,0
256,236,8023,6,0,B|256:12,1,220,4|2
288,179,8585,2,0,B|336:211|352:307|256:355|160:307|176:211|224:179,1,330,2|2
176,148,9241,1,0
156,96,9335,2,0,B|192:48|256:56,2,110,2|0|2
336,148,9898,1,0
368,192,9991,1,0
420,172,10085,1,2
356,96,10273,5,0
308,128,10366,1,0
256,144,10460,1,2
204,128,10554,1,0
156,96,10648,2,0,B|96:120|80:184,1,110,2|2
300,352,11023,6,0,B|296:316|320:296|320:296|348:296|356:268,1,110,0|2
256,208,11398,1,2
212,352,11585,2,0,B|216:316|192:272|156:268|156:268|140:224|88:224|72:260,1,220,0|2
84,312,12054,1,0
36,340,12148,2,0,B|-8:300|8:232,1,110,2|0
112,112,12523,6,0,B|164:84|216:112,1,110,2|0
360,192,12898,2,0,B|308:220|256:192,1,110,2|0
404,120,13273,2,0,B|456:92|508:120,1,110,2|0
344,132,13648,5,2
344,132,13741,1,2
344,132,13835,1,2
344,132,13929,1,2
344,132,14023,2,0,B|288:128|256:72|256:72|224:128|168:132,1,220,4|0
152,240,14585,2,0,B|208:224|232:248|232:248|256:232|280:248|280:248|304:224|360:240,2,220,2|2|2
152,240,15429,1,0
152,240,15523,1,2
256,176,15710,5,0
256,176,15804,1,0
256,176,15898,1,2
200,272,16085,1,0
220,324,16179,1,0
256,368,16273,1,2
292,324,16366,1,0
312,272,16460,1,2
152,240,16648,5,2
360,240,16835,1,2
204,204,17023,6,0,B|184:148|239:120|239:120|188:84|200:16,1,220,0|2
308,204,17585,2,0,B|328:148|273:120|273:120|324:84|312:16,1,220,0|2
311,14,18054,1,0
311,14,18148,1,0
256,224,18335,5,2
232,272,18429,1,0
244,324,18523,1,0
292,348,18616,1,0
344,332,18710,2,0,B|396:292|380:228,2,110,2|2|2
256,224,19273,6,0,B|208:192,1,55
232,272,19460,2,0,B|172:252,1,55
244,324,19648,2,0,B|180:328,2,55,2|0|2
292,224,20023,6,0,B|324:176|320:112|320:112|376:116|400:60,1,220,0|2
256,112,20585,1,0
220,224,20773,2,0,B|188:176|192:112|192:112|136:116|112:60,1,220,0|2
100,168,21335,6,0,B|132:168|132:168|136:232|164:288|236:308,1,220,0|2
256,320,21804,1,0
275,308,21898,2,0,B|348:288|376:232|380:168|380:168|412:168,1,220,0|2
304,192,22460,5,0
256,92,22648,1,2
208,192,22835,1,2
136,108,23023,6,0,B|196:128|196:128|184:64|256:44|328:64|316:128|316:128|376:108,1,330,0|2
420,208,23773,2,0,B|396:164|396:164|312:192|312:192|312:248|288:288|288:288|312:376,1,330,0|2
200,376,24523,2,0,B|224:288|224:288|200:248|200:192|200:192|116:164|116:164|92:208,1,330,0|2
91,208,25179,1,0
91,208,25273,1,0
184,112,25460,5,2
256,200,25648,1,2
256,200,25741,1,2
256,200,25835,1,2
328,112,26023,1,0
176,192,26210,5,0
205,167,26304,1,0
336,192,26491,1,0
307,167,26585,1,0
328,240,26773,5,0
296,256,26866,1,0
256,264,26960,1,0
216,256,27054,1,0
184,240,27148,2,0,B|128:272|112:352,1,110,4|0
256,320,27523,5,4
256,264,27616,1,0
256,208,27710,1,0
256,152,27804,1,0
256,96,27898,2,0,B|304:48|392:64,1,110,8|0
360,112,28179,2,0,B|400:120|400:160|400:160|416:200,1,110
360,208,28460,1,0
336,256,28554,1,0
368,296,28648,2,0,B|432:304|432:304|440:368,2,110,8|0|0
312,304,29116,5,0
272,264,29210,1,0
240,224,29304,1,0
216,272,29398,2,0,B|152:288|96:272,1,110,8|0
156,340,29679,2,0,B|90:344|37:319,1,110
12,252,29960,6,0,B|0:192,1,55
64,140,30148,2,0,B|74:193,1,55,8|0
140,148,30335,2,0,B|128:88,1,55,8|0
204,80,30523,6,0,B|252:104|332:84,1,110
368,88,30804,1,0
372,32,30898,2,0,B|324:8|264:23,1,110,8|0
208,20,31179,1,0
160,44,31273,1,0
152,100,31366,1,0
192,136,31460,2,0,B|248:168|304:136,2,110,0|8|0
216,244,32023,6,0,B|228:284|228:284|208:304|208:304|224:336|224:336|192:364|228:384,1,165
285,382,32398,2,0,B|320:364|288:336|288:336|304:304|304:304|284:284|284:284|296:244,1,165,8|0
256,204,32773,1,0
180,100,32960,1,0
332,100,33148,1,8
332,100,33241,1,0
332,100,33335,1,8
228,240,33523,6,0,B|212:296,1,55
172,256,33710,2,0,B|156:312,1,55
120,268,33898,2,0,B|52:264|40:224|40:224|56:180|56:180|32:152|56:80,2,220,8|0|8
132,216,34741,1,0
160,168,34835,1,0
212,152,34929,1,0
256,184,35023,1,0
400,124,35210,5,0
344,124,35304,1,0
304,88,35398,1,8
328,232,35585,5,0
360,276,35679,1,0
412,260,35773,1,0
408,204,35866,1,0
356,188,35960,2,0,B|288:176|256:116,2,110,0|8|8
256,64,36523,5,0
256,64,36616,1,0
256,64,36710,2,0,B|188:76|172:136,2,110,0|8|0
312,72,37179,2,0,B|380:84|396:144,1,110
364,184,37460,1,0
372,240,37554,1,0
328,276,37648,2,0,B|268:260|216:304,1,110,8|0
256,64,38023,5,0
148,184,38210,1,0
364,184,38398,1,8
228,144,38585,1,0
184,112,38679,1,0
284,144,38866,1,0
328,112,38960,1,0
376,84,39054,1,0
416,124,39148,2,0,B|444:148|444:148|452:188|500:200,1,110,8|8
280,240,39523,6,0,B|328:240|360:296|328:344|280:344,1,165
232,344,39898,2,0,B|184:344|152:296|184:240|232:240,1,165,8|0
256,192,40273,2,0,B|256:128,2,55
176,80,40648,5,2
336,80,40835,1,2
200,216,41023,5,0
208,272,41116,1,0
256,304,41210,1,0
304,272,41304,1,0
312,216,41398,2,0,B|328:160|400:152,1,110,8|0
424,200,41679,2,0,B|424:232|424:232|456:264|456:312|456:312|416:336,1,165
416,336,42054,1,0
416,336,42148,1,2
256,240,42335,5,2
216,128,42523,2,0,B|200:64,1,55
256,112,42710,2,0,B|256:56,1,55
296,128,42898,2,0,B|312:64,1,55,8|0
256,16,43085,5,0
208,152,43273,1,0
256,176,43366,1,0
304,152,43460,1,0
176,232,43648,1,2
336,232,43835,1,2
256,312,44023,5,0
210,341,44116,1,0
154,344,44210,1,0
103,322,44304,1,0
66,280,44398,1,8
53,226,44491,1,0
95,260,44585,1,0
148,273,44679,1,0
203,273,44773,2,0,B|176:232|200:168,1,110
309,273,45148,2,0,B|336:232|312:168,1,110,2|2
256,64,45523,5,0
256,64,45616,1,0
256,64,45710,1,0
200,168,45898,1,8
312,168,46085,1,0
256,64,46273,5,0
256,64,46366,1,0
256,64,46460,1,0
184,208,46648,1,8
328,208,46835,1,0
256,64,47023,5,0
256,64,47116,1,0
256,64,47210,1,0
168,256,47398,1,8
344,256,47585,1,0
256,64,47773,5,0
256,64,47866,1,0
256,64,47960,1,0
298,98,48054,1,0
352,109,48148,1,8
405,99,48241,1,0
392,152,48335,1,8
418,200,48429,1,0
456,240,48523,2,0,B|448:176|504:144,2,110,0|0|8
256,160,49179,5,0
256,160,49273,1,0
328,288,49460,1,0
56,240,49648,5,8
56,240,49741,1,0
56,240,49835,1,0
56,240,49929,1,0
56,240,50023,2,0,B|88:216|88:176,1,55
120,240,50210,2,0,B|152:216|152:176,1,55
176,248,50398,6,0,B|240:248|264:312,1,110,8|0
232,352,50679,1,0
184,320,50773,2,0,B|208:240|288:240,1,110
312,256,51054,1,0
352,224,51148,2,0,B|396:188|464:180,2,110,8|8|4
352,224,51616,5,0
352,224,51710,1,0
352,224,51804,1,0
352,224,51898,1,8
256,56,52085,5,0
176,136,52273,2,0,B|240:120|272:184,1,110,8|0
220,204,52554,1,0
168,188,52648,2,0,B|112:204|104:284,2,110,8|0|8
180,240,53116,5,0
204,288,53210,1,0
256,308,53304,1,0
312,304,53398,2,0,B|368:292|400:240,1,110,8|0
452,252,53679,2,0,B|416:188|448:88,1,165,8|8
446,91,54148,5,8
446,91,54241,1,0
446,91,54335,1,8
256,192,54523,1,8
364,168,54710,1,0
332,272,54898,1,8
332,272,54991,1,0
332,272,55085,5,0
216,148,55273,1,8
384,112,55460,1,0
332,272,55648,1,8
332,272,55741,1,0
332,272,55835,5,0
180,104,56023,1,8
408,64,56210,1,0
332,272,56398,6,0,B|240:272|180:332,1,165,8|8
192,276,56773,2,0,B|100:276|40:336,1,165,0|8
20,284,57148,2,0,B|24:224|84:172,1,110,8|8
176,192,57523,5,4
256,112,57710,1,0
336,192,57898,1,8
336,192,57991,1,0
256,264,58179,2,0,B|208:288|200:368,1,110
160,320,58460,1,0
120,280,58554,1,0
112,224,58648,2,0,B|96:152|168:120,2,110,8|8|0
48,200,59116,6,0,B|16:144,1,55
64,80,59304,2,0,B|112:48,1,55,0|8
192,48,59491,2,0,B|240:104,2,55
272,24,59773,2,0,B|320:32|352:72|344:136|296:160|296:160|304:200,1,220,0|8
303,196,60241,1,0
303,196,60335,1,8
303,196,60429,1,0
303,196,60523,6,0,B|384:192|424:288,1,110
392,296,60804,1,0
336,296,60898,2,0,B|296:320|264:256|232:272,2,110,8|0|0
234,270,61460,5,0
152,192,61648,1,8
208,200,61741,1,0
256,176,61835,1,8
264,120,61929,1,0
248,64,62023,6,0,B|304:48,1,55
264,120,62210,2,0,B|336:112,1,55
256,176,62398,2,0,B|320:200,1,55,8|0
208,200,62585,2,0,B|232:256,1,55
152,192,62773,2,0,B|144:248|144:248|124:263|128:312,1,110
256,336,63148,5,8
256,336,63241,1,0
256,336,63335,1,8
256,336,63429,1,0
256,336,63523,1,4
256,192,63616,12,2,66335
88,160,66523,6,0,B|64:200|104:248|152:224|152:224|168:264|168:264|136:296|136:296|168:328|168:328|208:296|208:296|224:336|256:356|256:356|288:336|304:296|304:296|344:328|344:328|376:296|376:296|344:264|344:264|360:224|360:224|408:248|448:200|424:160,1,770,4|2
416,52,68023,2,0,B|352:96|364:164|364:164|332:164|312:184|312:184|288:232|288:232|260:240|260:240|224:232|224:232|200:184|200:184|180:164|148:164|148:164|160:96|96:52,1,550
96,52,69148,5,0
95,51,69241,1,0
256,56,69430,1,0
256,56,69523,2,0,B|196:76|188:204,1,165
176,244,69898,2,0,B|256:212|336:244,1,165
323,196,70273,2,0,B|316:76|256:56,1,165
256,104,70648,1,0
256,104,70741,1,0
256,104,70835,1,0
236,200,71023,6,0,B|224:224|224:224|228:248|228:248|192:244|196:284|196:284|152:320,1,165
184,356,71398,2,0,B|256:284|328:356,1,165
360,320,71773,2,0,B|316:284|316:284|320:244|284:248|284:248|288:224|288:224|276:200,1,165
256,156,72148,1,0
256,156,72241,1,0
256,156,72335,1,0
256,32,72523,5,0
256,192,72616,12,2,73835
168,230,74023,6,0,B|172:304|232:304,1,110,4|0
256,304,74304,1,0
280,304,74398,2,0,B|340:304|343:230,2,110
256,248,74866,5,0
256,200,74960,1,0
256,152,75054,1,0
256,96,75148,2,0,B|224:148|156:152,1,110
68,148,75523,6,2,B|100:204|72:280,1,110,6|0
80,312,75804,2,2,B|140:292|192:320,1,110,2|0
186,317,76085,1,2
186,317,76179,1,0
186,317,76273,6,2,B|176:264|208:248|208:248|208:208,1,110,2|2
325,317,76648,1,2
334,263,76741,1,0
304,216,76835,2,0,B|300:160|356:104,1,110,2|2
300,80,77116,2,0,B|256:140|212:80,1,110,0|2
164,56,77398,2,0,B|92:40|64:100,2,110,2|0|2
164,56,77866,5,0
144,100,77960,1,0
144,148,78054,1,0
168,192,78148,2,2,B|204:236|176:304,1,110,2|2
256,376,78523,6,0,B|256:312|256:312|312:312|344:256,1,165,2|2
339,263,78898,1,2
256,216,79085,1,2
256,104,79273,1,2
256,104,79366,1,0
256,104,79460,1,0
256,104,79554,1,0
256,104,79648,2,0,B|312:112|368:88,2,110,2|2|2
208,124,80116,6,0,B|224:184|164:236,1,110
196,276,80398,2,0,B|256:284|300:240,2,110,2|2|2
180,328,80866,1,0
160,380,80960,1,0
132,332,81054,1,0
84,304,81148,2,0,B|32:252|40:176,1,110,2|2
200,192,81523,5,2
312,192,81710,1,0
256,288,81898,1,2
256,276,81991,1,0
256,264,82085,1,0
172,217,82273,5,2
340,217,82460,1,0
256,73,82648,1,2
256,91,82741,1,0
256,109,82835,1,0
129,128,83023,5,2
382,128,83210,1,0
256,345,83398,1,2
256,318,83491,1,0
256,291,83585,1,0
97,283,83773,5,2
414,283,83960,1,0
256,12,84148,1,2
256,46,84241,1,0
256,80,84335,1,0
256,112,84429,1,0
256,144,84523,2,0,B|200:168|208:204|208:204|224:240|208:288,1,165,2|0
302,283,84898,2,0,B|288:240|304:204|304:204|312:168|256:144,1,165,2|0
152,96,85273,5,2
360,96,85460,1,2
196,96,85648,1,2
316,96,85835,1,2
148,184,86023,5,2
196,208,86116,1,0
222,256,86210,1,0
216,310,86304,1,0
177,349,86398,1,2
230,334,86491,1,0
285,331,86585,1,0
339,337,86679,1,0
361,286,86773,2,0,B|381:226,1,55,2|0
323,232,86960,2,0,B|343:172,1,55
284,185,87148,2,0,B|304:125,3,55,2|0|0|0
256,104,87523,6,0,B|176:80|80:104,2,165,4|2|0
196,196,88273,1,2
316,196,88460,1,0
256,104,88648,1,2
256,104,88741,1,0
256,104,88835,1,0
256,280,89023,6,0,B|176:304|80:280,2,165,2|2|2
196,188,89773,1,0
316,188,89960,1,2
256,280,90148,1,0
256,280,90241,1,0
256,280,90335,1,0
308,256,90429,1,0
364,256,90523,2,0,B|436:256|416:176|416:176|424:124|496:88,1,220,2|2
232,72,91273,6,0,B|176:84|176:84|136:136|136:136|96:136|96:136|108:216|108:216|64:236|64:236|64:308,1,330,0|2
280,72,91835,2,0,B|336:84|336:84|376:136|376:136|416:136|416:136|404:216|404:216|448:236|448:236|448:308,1,330,0|2
116,288,92398,2,0,B|200:288|200:288|192:328|256:352|320:328|312:288|312:288|396:288,1,330,0|2
256,192,92960,5,0
176,116,93148,2,0,B|92:104,1,55,2|0
148,160,93335,2,0,B|64:156,1,55,2|0
132,204,93523,2,0,B|200:236|200:236|184:280|256:316|328:280|312:236|312:236|380:204,1,330,4|0
312,144,94273,2,0,B|344:100|440:108|456:192|456:192|440:228,1,220,0|0
256,192,94835,1,0
68,220,95023,2,0,B|56:192|56:192|72:108|168:100|200:144,1,220
168,248,95585,6,0,B|208:256|208:256|192:304|192:352|256:384|320:352|320:304|304:256|304:256|344:248,1,330
341,248,96241,1,0
340,248,96335,1,0
196,148,96523,6,0,B|164:112|164:112|144:108|144:108|132:84|132:84|124:68,1,110
256,144,96898,2,0,B|256:16,1,110
316,148,97273,2,0,B|348:112|348:112|368:108|368:108|380:84|380:84|388:68,1,110
248,200,97648,1,0
248,200,97741,1,0
248,200,97835,1,0
188,308,98023,5,0
324,308,98210,1,0
160,264,98398,1,0
352,264,98585,1,0
136,224,98773,1,0
376,224,98960,1,0
276,104,99148,6,0,B|304:136,3,27.5
240,108,99335,2,0,B|200:140,3,27.5
256,76,99523,1,4
256,192,99616,12,2,102523
180,264,102898,5,0
180,264,103085,1,2
332,264,103460,1,0
304,245,103554,1,0
304,212,103648,2,0,B|288:120|316:88,1,110,2|0
208,212,104023,2,0,B|224:120|196:88,1,110,2|0
256,36,104398,5,2
284,52,104491,1,0
315,61,104585,1,2
346,70,104679,1,2
378,74,104773,2,0,B|326:126|334:218,1,110,2|0
178,172,105148,2,0,B|186:126|134:74,1,110,2|2
216,228,105523,6,0,B|180:281|224:324|288:324|331:280|296:228,1,220,4|0
256,68,106085,1,0
256,224,106273,1,0
180,44,106648,5,0
180,44,106741,1,0
180,44,106835,1,0
180,44,106929,1,0
180,44,107023,2,0,B|140:136|140:136|104:152|108:192|108:192|76:240,1,220
256,68,107585,1,0
256,224,107773,1,0
332,340,108148,5,0
332,340,108241,1,0
332,340,108335,1,0
332,340,108429,1,0
332,340,108523,2,0,B|372:248|372:248|408:232|404:192|404:192|436:144,1,220
256,316,109085,1,0
256,160,109273,1,0
152,92,109460,5,0
152,92,109648,2,0,B|108:136|108:136|120:196|80:228,1,165
79,228,110023,2,0,B|168:216|212:248|212:248|228:312|228:312|216:360|256:368,1,275
256,368,110585,1,0
360,92,110773,6,0,B|404:136|404:136|392:196|432:228,1,165
468,272,111148,1,0
456,324,111241,1,0
408,352,111335,1,0
360,248,111523,6,0,B|304:232|288:192|288:192|304:160|256:96|208:160|224:192|224:192|208:232|152:248,1,330
120,136,112273,2,0,B|160:160|168:136|168:136|200:72|256:72|312:72|344:136|344:136|352:160|392:136,1,330
352,240,113023,2,0,B|376:336|256:388|136:336|160:240,1,330
156,128,113773,2,0,B|184:152|184:152|208:120|208:120|240:168|240:168|272:124|272:124|300:160|300:160|316:120|316:120|340:140|340:140|356:128,1,330
256,256,114523,5,0
256,256,114616,1,0
256,256,114710,1,0
152,192,114898,1,0
152,192,114991,1,0
152,192,115085,1,0
360,192,115273,1,0
360,192,115366,1,0
360,192,115460,1,0
360,192,115554,1,0
360,192,115648,2,0,B|384:136|448:144,1,110
448,144,115929,5,0
384,56,116116,1,0
384,56,116210,1,0
272,64,116398,1,0
292,116,116491,1,0
272,168,116585,1,0
228,200,116679,1,0
172,204,116773,2,0,B|232:208|256:268,1,110
340,204,117148,2,0,B|280:208|256:268,1,110
204,116,117523,5,4
