osu file format v9

[General]
AudioFilename: yey.mp3
AudioLeadIn: 2000
PreviewTime: 51523
Countdown: 0
SampleSet: Soft
StackLeniency: 0.8
Mode: 0
LetterboxInBreaks: 0

[Editor]
DistanceSpacing: 0.7
BeatDivisor: 4
GridSize: 4

[Metadata]
Title:AXION
Artist:sakuzyo
Creator:iMercurial
Version:Beginner
Source:BMS
Tags:magic mash man new genuine magicial girl deadblue238 Darksonic ikari_kyon Regou Jenny Catch the beat

[Difficulty]
HPDrainRate:2
CircleSize:3
OverallDifficulty:2
ApproachRate:2
SliderMultiplier:1
SliderTickRate:2

[Events]
//Background and Video events
0,0,"abstractthing.jpg"
Video,0,"checkmate.flv"
//Break Periods
2,99723,100963
//Storyboard Layer 0 (Background)
//Storyboard Layer 1 (Fail)
//Storyboard Layer 2 (Pass)
//Storyboard Layer 3 (Foreground)
//Storyboard Sound Samples
//Background Colour Transformations
3,100,163,162,255

[TimingPoints]
2023,375,4,2,0,60,1,0
8023,-100,4,1,0,55,0,0
8773,-100,4,2,0,60,0,0
14023,-100,4,1,0,55,0,0
14773,-100,4,2,0,60,0,0
20023,-100,4,1,0,55,0,0
20773,-100,4,2,0,60,0,0
23023,-100,4,1,0,55,0,0
23116,-100,4,2,0,60,0,0
38023,-100,4,1,0,55,0,0
38773,-100,4,2,0,60,0,0
51523,-100,4,2,0,60,0,1
57523,-100,4,2,0,60,0,0
99523,-100,4,1,0,55,0,0
102523,-100,4,2,0,60,0,0
112273,-100,4,2,0,60,0,1
112366,-100,4,2,0,60,0,0
113773,-100,4,2,0,60,0,1
113866,-100,4,2,0,60,0,0

[Colours]
Combo1 : 255,128,0
Combo2 : 0,0,255
Combo3 : 255,0,0
Combo4 : 128,0,128

[HitObjects]
256,64,2023,2,0,B|148:64|148:64|82:129,1,200,4|2
82,268,3523,2,0,B|190:268|190:268|255:202,1,200,0|2
336,88,5023,6,0,B|440:124|472:172|472:172|472:210,1,200,0|2
472,352,6523,2,0,B|368:316|336:268|336:268|336:229,1,200,0|2
256,116,8023,1,0
200,244,8773,6,0,B|152:184|56:184|56:184|56:144,2,200,2|2|2
256,116,11023,1,0
312,244,11773,2,0,B|360:184|456:184|456:184|456:144,2,200,2|2|2
256,372,14023,1,4
256,232,14773,6,0,B|184:224|148:152|148:152|94:123,1,200,0|2
208,40,16273,2,0,B|328:40|392:105,1,200,0|2
392,244,17773,2,0,B|272:244|207:178,1,200,0|2
72,144,19273,2,0,B|72:244,2,100,0|2|0
172,48,20773,6,0,B|172:112|172:112|140:144|172:176|172:176|172:240,1,200,0|2
256,352,22273,1,2
338,239,23023,2,0,B|338:175|338:175|370:143|338:111|338:111|338:47,1,200,0|2
256,192,24523,12,4,27523
256,100,28273,5,2
173,213,29023,2,0,B|207:263|255:273|303:263|338:213,1,200,0|2
339,72,30523,2,0,B|304:21|256:11|208:21|173:72,1,200,0|2
152,212,32023,2,0,B|208:225|256:176|256:176|341:176,2,200,0|2|0
256,304,34273,5,2
384,244,35023,1,0
384,104,35773,2,0,B|304:104|304:104|232:124|200:161,1,200,2|0
64,192,37273,6,0,B|64:92,2,100,2|2|4
184,264,38773,2,0,B|284:264,2,100,2|2|4
100,152,40273,6,0,B|176:152|176:152|176:76|221:41,1,200,0|2
332,128,41773,2,0,B|256:128|256:128|256:204|210:238,1,200,0|2
76,200,43273,2,0,B|107:297|211:337,1,200,0|2
256,204,44773,2,0,B|353:172|393:68,1,200,0|2
256,52,46273,5,0
168,160,47023,1,2
256,268,47773,1,0
344,160,48523,1,2
436,52,49273,6,0,B|460:124|460:124|408:172|411:234,1,200,0|2
492,348,50773,2,0,B|432:280|364:344|364:344|327:305,1,200,0|4
255,183,52273,6,0,B|160:144|60:174,1,200,8|2
60,244,53398,1,0
60,312,53773,2,0,B|155:351|255:321,1,200,8|2
388,276,55273,6,0,B|438:242|448:194|438:146|388:111,1,200,8|2
256,64,56773,1,10
188,64,57148,1,2
120,64,57523,6,0,B|70:98|60:146|70:194|120:229,1,200,4|2
256,268,59023,2,0,B|326:268|326:268|370:216|440:216,2,200,0|2|0
256,128,61273,6,0,B|185:128|185:128|141:76|71:76,2,200,0|2|0
324,128,63148,1,2
392,128,63523,1,4
340,256,64273,6,0,B|296:284|256:352|216:284|169:255,1,200,0|2
72,140,65773,2,0,B|116:112|156:44|196:112|243:141,1,200,0|6
380,140,67273,6,0,B|480:140,2,100,0|0|2
328,96,68398,1,0
268,64,68773,1,2
208,96,69148,2,0,B|117:139,1,100,0|6
184,260,70273,6,0,B|274:216,2,100,2|2|2
320,288,71773,1,2
388,288,72148,1,2
456,288,72523,1,6
388,164,73273,6,0,B|388:64,2,100,0|2|4
248,164,74773,2,0,B|200:136|146:168,2,100,0|2|4
340,268,76273,5,8
456,192,77023,2,0,B|408:100|313:56,1,200,2|8
272,192,78523,2,0,B|180:240|136:334,1,200,2|10
136,191,80023,2,0,B|184:152|184:152|164:104|184:56|233:39,2,200,2|8|2
256,116,82273,5,2
372,192,83023,1,2
256,272,83773,1,2
200,232,84148,1,0
144,188,84523,2,0,B|176:96|297:76,1,200,2|2
376,192,86023,5,4
336,328,86773,2,0,B|336:280|296:272|296:272|296:247,1,100,0|2
224,248,87523,6,0,B|160:192|160:192|160:128|119:87,1,200,6|10
252,40,89023,2,0,B|316:96|316:96|316:160|356:200,1,200,2|10
256,192,90523,12,4,93523
256,48,95023,5,2
256,328,96523,1,2
288,192,97273,2,0,B|388:192,2,100,0|2|4
184,96,98773,5,0
236,144,99148,1,2
288,192,99523,1,4
396,192,102523,5,2
116,192,104023,1,2
188,312,104773,1,0
256,312,105148,1,0
324,312,105523,1,6
460,276,106273,6,0,B|424:248|408:236|408:236|373:230,2,100,2|2|2
472,136,107773,1,0
368,44,108523,1,2
260,136,109273,1,0
256,276,110023,2,0,B|196:272|172:196|172:196|147:183,1,150,2|2
316,228,111523,5,4
218,130,112273,1,8
316,31,113023,1,4
415,130,113773,1,8
256,192,114523,12,4,117523
