osu file format v9

[General]
AudioFilename: yey.mp3
AudioLeadIn: 2000
PreviewTime: 51523
Countdown: 0
SampleSet: Normal
StackLeniency: 0.8
Mode: 0
LetterboxInBreaks: 0

[Editor]
DistanceSpacing: 0.8
BeatDivisor: 4
GridSize: 4

[Metadata]
Title:AXION
Artist:sakuzyo
Creator:iMercurial
Version:Another
Source:BMS
Tags:magic mash man new genuine magicial girl deadblue238 Darksonic ikari_kyon Regou Jenny

[Difficulty]
HPDrainRate:8
CircleSize:4
OverallDifficulty:7
ApproachRate:8
SliderMultiplier:1.8
SliderTickRate:2

[Events]
//Background and Video events
0,0,"abstractthing.jpg"
Video,0,"checkmate.flv"
//Break Periods
2,63723,68773
2,99722,104773
//Storyboard Layer 0 (Background)
//Storyboard Layer 1 (Fail)
//Storyboard Layer 2 (Pass)
//Storyboard Layer 3 (Foreground)
//Storyboard Sound Samples
//Background Colour Transformations
3,100,163,162,255

[TimingPoints]
2023,375,4,1,0,60,1,0
2210,-100,4,2,0,20,0,0
13648,-100,4,2,0,30,0,0
13835,-100,4,2,0,40,0,0
14023,-100,4,1,0,55,0,0
14116,-100,4,2,0,40,0,0
15523,-100,4,1,1,35,0,0
15710,-100,4,2,0,40,0,0
16648,-100,4,1,1,35,0,0
16741,-100,4,2,0,40,0,0
17398,-100,4,1,1,35,0,0
17585,-100,4,2,0,40,0,0
18148,-100,4,1,1,35,0,0
18335,-100,4,2,0,40,0,0
18898,-100,4,1,1,35,0,0
19085,-100,4,2,0,40,0,0
19648,-100,4,1,1,35,0,0
19741,-100,4,2,0,40,0,0
20398,-100,4,1,1,35,0,0
20585,-100,4,2,0,40,0,0
21148,-100,4,1,1,35,0,0
21335,-100,4,2,0,40,0,0
21898,-100,4,1,1,35,0,0
22085,-100,4,2,0,40,0,0
22273,-100,4,1,1,40,0,0
22366,-100,4,2,0,40,0,0
22648,-100,4,1,1,40,0,0
22835,-100,4,2,0,40,0,0
23773,-100,4,1,1,35,0,0
24148,-100,4,2,1,40,0,0
24523,-100,4,1,1,35,0,0
27148,-100,4,2,0,70,0,0
27523,-100,4,1,1,55,0,0
27616,-100,4,2,1,55,0,0
29023,-100,4,1,1,55,0,0
29116,-100,4,2,1,55,0,0
29585,-100,4,1,1,55,0,0
29679,-100,4,2,1,55,0,0
29866,-100,4,1,1,55,0,0
29960,-100,4,2,1,55,0,0
31085,-100,4,1,1,55,0,0
31179,-100,4,2,1,55,0,0
31366,-100,4,1,1,55,0,0
31460,-100,4,2,1,55,0,0
32023,-100,4,1,1,55,0,0
32210,-100,4,2,1,55,0,0
32866,-100,4,1,1,55,0,0
33148,-100,4,2,1,55,0,0
33241,-100,4,1,1,55,0,0
33710,-100,4,2,1,55,0,0
34085,-100,4,1,1,55,0,0
34179,-100,4,2,1,55,0,0
34366,-100,4,1,1,55,0,0
34460,-100,4,2,1,55,0,0
35585,-100,4,1,1,55,0,0
35679,-100,4,2,1,55,0,0
35866,-100,4,1,1,55,0,0
35960,-100,4,2,1,55,0,0
36335,-100,4,1,1,55,0,0
36616,-100,4,2,1,55,0,0
37085,-100,4,1,1,55,0,0
37273,-100,4,2,1,55,0,0
38023,-100,4,1,1,55,0,0
38116,-100,4,2,1,55,0,0
38210,-100,4,1,1,55,0,0
38304,-100,4,2,1,55,0,0
38585,-100,4,1,1,55,0,0
38960,-100,4,2,1,55,0,0
39523,-100,4,2,1,70,0,0
39710,-100,4,2,1,55,0,0
40085,-100,4,1,1,55,0,0
40179,-100,4,2,1,55,0,0
40366,-100,4,1,1,55,0,0
40460,-100,4,2,1,55,0,0
41023,-100,4,1,1,55,0,0
41398,-100,4,2,1,55,0,0
42335,-100,4,1,1,55,0,0
42710,-100,4,2,1,55,0,0
43460,-100,4,1,1,55,0,0
43648,-100,4,2,1,55,0,0
43835,-100,4,1,1,55,0,0
44210,-100,4,2,1,55,0,0
44585,-100,4,1,1,55,0,0
44679,-100,4,2,1,55,0,0
44866,-100,4,1,1,55,0,0
44960,-100,4,2,1,55,0,0
45335,-100,4,1,1,55,0,0
45710,-100,4,2,1,55,0,0
46273,-100,4,1,1,55,0,0
46648,-100,4,2,1,55,0,0
47773,-100,4,1,1,55,0,0
48148,-100,4,2,1,55,0,0
48523,-100,4,1,1,55,0,0
48898,-100,4,2,1,55,0,0
49273,-100,4,1,1,55,0,0
49648,-100,4,2,1,55,0,0
49835,-100,4,1,1,55,0,0
49929,-100,4,2,1,55,0,0
50116,-100,4,1,1,55,0,0
50398,-100,4,2,1,55,0,0
50491,-100,4,1,1,55,0,0
50773,-100,4,2,1,55,0,0
51335,-100,4,1,1,55,0,0
51523,-100,4,1,0,70,0,1
53585,-100,4,2,0,70,0,1
54148,-100,4,1,0,70,0,1
54241,-100,4,2,0,70,0,1
54523,-100,4,1,0,70,0,1
55273,-100,4,1,1,70,0,1
55648,-100,4,1,0,70,0,1
55741,-100,4,1,1,70,0,1
56023,-100,4,1,0,70,0,1
56210,-100,4,1,1,70,0,1
56398,-100,4,1,0,70,0,1
56585,-100,4,1,1,70,0,1
56679,-100,4,1,0,70,0,1
57523,-100,4,2,0,70,0,0
57898,-100,4,1,0,70,0,0
57991,-100,4,1,1,70,0,0
58179,-100,4,1,2,70,0,0
58648,-100,4,1,0,70,0,0
59491,-100,4,1,1,70,0,0
59679,-100,4,1,2,70,0,0
59866,-100,4,2,0,70,0,0
60148,-100,4,1,0,70,0,0
60241,-100,4,2,0,70,0,0
60898,-100,4,1,0,70,0,0
60991,-100,4,1,1,70,0,0
61648,-100,4,1,0,70,0,0
61741,-100,4,1,1,70,0,0
62023,-100,4,1,0,70,0,0
62116,-100,4,1,1,70,0,0
62398,-100,4,1,0,70,0,0
62679,-100,4,1,1,70,0,0
63523,-100,4,2,0,50,0,0
73273,-100,4,2,0,60,0,0
74023,-100,4,2,0,70,0,0
74398,-100,4,2,0,80,0,0
75523,-100,4,1,1,70,0,0
75804,-100,4,1,0,70,0,0
75991,-100,4,1,1,70,0,0
76085,-100,4,1,0,70,0,0
76460,-100,4,1,1,70,0,0
76648,-100,4,1,0,70,0,0
77585,-100,4,1,2,70,0,0
77679,-100,4,1,0,70,0,0
77960,-100,4,1,1,70,0,0
78148,-100,4,1,0,70,0,0
78804,-100,4,1,1,70,0,0
78898,-100,4,1,0,70,0,0
78991,-100,4,1,1,70,0,0
79273,-100,4,1,0,70,0,0
79460,-100,4,1,2,70,0,0
79554,-100,4,1,0,70,0,0
81616,-100,4,2,0,70,0,0
81710,-100,4,1,0,70,0,0
81898,-100,4,2,1,80,0,0
82273,-100,4,1,0,70,0,0
82366,-100,4,2,0,70,0,0
82460,-100,4,1,0,70,0,0
82648,-100,4,2,1,70,0,0
83023,-100,4,1,0,70,0,0
83116,-100,4,2,0,70,0,0
83210,-100,4,1,0,70,0,0
83398,-100,4,2,1,70,0,0
83773,-100,4,1,0,70,0,0
83866,-100,4,2,0,70,0,0
83960,-100,4,1,0,70,0,0
84148,-100,4,2,1,70,0,0
84429,-100,4,1,1,70,0,0
84523,-100,4,1,0,70,0,0
84616,-100,4,2,1,70,0,0
85273,-100,4,1,0,70,0,0
85366,-100,4,1,1,70,0,0
85648,-100,4,2,1,70,0,0
85929,-100,4,1,1,70,0,0
86023,-100,4,1,0,70,0,0
86116,-100,4,2,0,70,0,0
86216,-100,4,1,1,70,0,0
86398,-100,4,2,1,70,0,0
86773,-100,4,1,1,70,0,0
87523,-100,4,1,0,70,0,0
88085,-100,4,1,1,70,0,0
88271,-100,4,1,0,70,0,0
88366,-100,4,1,1,70,0,0
88648,-100,4,1,0,70,0,0
89304,-100,4,1,1,70,0,0
89398,-100,4,1,0,70,0,0
89866,-100,4,1,1,70,0,0
90148,-100,4,1,0,70,0,0
90710,-100,4,1,1,70,0,0
90898,-100,4,1,0,70,0,0
92679,-100,4,1,2,70,0,0
92779,-100,4,1,0,70,0,0
93054,-100,4,1,1,70,0,0
93148,-100,4,1,0,70,0,0
93241,-100,4,1,1,70,0,0
93523,-100,4,2,1,70,0,0
94273,-100,4,1,2,50,0,0
94460,-100,4,1,1,50,0,0
95773,-100,4,1,2,50,0,0
95866,-100,4,1,1,50,0,0
96523,-100,4,2,0,50,0,0
97273,-100,4,1,2,50,0,0
97366,-100,4,1,1,50,0,0
98023,-100,4,2,0,50,0,0
98773,-100,4,1,2,50,0,0
105523,-100,4,1,0,50,0,0
105710,-100,4,2,0,50,0,0
106273,-100,4,1,1,50,0,0
106648,-100,4,2,0,50,0,0
106929,-100,4,1,1,50,0,0
107398,-100,4,2,0,50,0,0
109085,-100,4,1,1,50,0,0
109648,-100,4,2,0,50,0,0
109835,-100,4,1,1,50,0,0
110023,-100,4,2,0,50,0,0
110773,-100,4,1,1,50,0,0
112273,-100,4,1,0,55,0,1
112366,-100,4,2,0,55,0,0
113773,-100,4,1,0,55,0,1
113866,-100,4,2,0,70,0,0
114523,-100,4,2,0,70,0,0

[Colours]
Combo1 : 255,128,0
Combo2 : 0,0,255
Combo3 : 255,0,0
Combo4 : 128,0,128

[HitObjects]
84,48,2022,1,4
80,144,2210,1,0
172,104,2398,1,2
80,144,2585,2,0,B|104:192|160:216|232:204|272:172|288:112|268:68,1,270,0|2
172,104,3335,6,0,B|224:296,1,180
256,372,3898,1,2
292,277,4085,2,0,B|340:104,1,180
252,32,4648,1,2
172,104,4835,1,0
340,104,5023,6,0,B|308:148|304:208|344:264|408:300|480:264,2,270,0|0|2
416,176,6335,1,0
416,176,6710,5,0
340,104,6898,1,2
312,200,7085,1,0
132,248,7273,5,0
240,284,7460,1,0
156,352,7648,1,2
56,320,7835,1,0
36,220,8023,6,0,B|44:176|88:144|148:140|192:164,1,180,0|2
280,180,8585,2,0,B|314:199|374:195|418:163|426:119,1,180,0|0
328,104,9148,1,2
280,180,9335,2,0,B|264:228|276:276,1,90
360,320,9710,1,0
274,268,9898,2,0,B|216:264|168:288,1,90,2|0
185,280,10460,5,0
92,312,10648,1,2
64,220,10835,1,0
160,192,11023,2,0,B|204:168|224:120|212:64|188:24,1,180,0|2
124,104,11585,2,0,B|320:120,1,180
303,118,12335,1,2
400,88,12523,5,0
412,104,12616,1,0
424,120,12710,1,0
352,200,12898,1,0
448,232,13085,1,0
444,252,13179,1,0
440,272,13273,1,2
360,336,13460,1,0
324,304,13554,1,0
280,284,13648,1,0
236,276,13741,1,0
188,280,13835,1,2
144,292,13929,1,0
108,320,14023,6,0,B|60:304|40:232,1,90,4|0
72,156,14398,1,2
180,164,14585,1,0
180,164,14679,2,0,B|216:168|216:168|224:164|224:164|276:172,1,90
284,172,14960,1,0
344,88,15148,1,2
396,180,15335,1,0
396,180,15429,1,0
396,180,15523,6,0,B|420:224|404:276,1,90,0|0
316,244,15898,1,2
164,336,16085,1,0
164,349,16179,2,0,B|152:308|164:260,1,90
176,244,16460,1,0
188,224,16554,1,0
192,204,16648,2,0,B|204:156|196:88,1,90,0|0
104,156,17023,5,4
284,248,17210,1,0
372,296,17398,2,0,B|416:304|468:296,1,90,0|0
480,288,17679,1,0
424,200,17866,1,0
416,184,17960,1,0
412,164,18054,1,0
412,144,18148,2,0,B|368:180|292:172,1,90,0|0
256,108,18523,6,0,B|212:120|212:120|156:116,1,90
256,276,18898,2,0,B|300:264|300:264|356:268,1,90,0|0
104,352,19273,1,0
92,336,19366,1,0
80,320,19460,1,2
68,304,19554,1,0
56,288,19648,1,0
44,272,19741,1,0
32,256,19835,1,0
20,240,19929,1,0
12,224,20023,6,0,B|56:240|120:228,1,90,4|0
136,136,20398,1,0
228,88,20585,1,0
232,72,20679,1,0
228,184,20866,1,0
228,184,20960,2,0,B|264:280,1,90,0|0
344,212,21335,1,0
344,212,21616,5,0
344,212,21710,2,0,B|368:168|364:112,1,90,2|0
280,68,22085,1,0
180,84,22273,1,0
160,96,22366,1,0
140,108,22460,1,2
64,176,22648,1,0
44,80,22835,1,0
176,196,23023,6,0,B|196:240|188:292,1,90,4|0
176,304,23304,1,0
156,316,23398,1,2
92,244,23585,2,0,B|40:244,2,45
176,196,23960,1,2
272,176,24148,1,2
372,184,24335,1,0
456,240,24523,6,0,B|488:284|452:348|392:340,1,135,2|0
360,336,24898,2,0,B|248:332,1,90,10|0
196,264,25273,2,0,B|176:212,2,45,2|0|0
120,332,25648,1,8
0,204,25835,1,0
172,152,26023,5,2
192,140,26116,1,2
216,132,26210,1,2
240,128,26304,1,2
264,128,26398,1,2
288,136,26491,1,2
308,152,26585,1,2
324,168,26679,1,2
336,192,26773,6,0,B|308:100|372:44,1,135,2|0
368,52,27148,1,2
92,72,27523,5,6
76,112,27616,1,0
64,160,27710,1,0
68,208,27804,1,0
88,252,27898,1,8
172,304,28085,1,0
172,304,28179,2,0,B|200:268|200:216,1,90,2|0
176,176,28460,2,0,B|220:212|276:200,1,90,0|8
308,116,28835,1,0
392,172,29023,5,2
428,204,29116,1,0
452,244,29210,1,0
456,292,29304,1,0
448,336,29398,1,8
324,288,29585,1,0
340,280,29679,1,8
232,332,29866,1,0
216,328,29960,2,0,B|112:304,1,90,0|8
48,244,30335,1,0
40,336,30523,5,2
52,296,30616,1,0
48,244,30710,1,0
52,192,30804,1,0
76,148,30898,1,8
136,64,31085,1,0
156,76,31179,1,8
216,156,31366,1,0
240,160,31460,1,0
264,160,31554,1,0
288,156,31648,2,0,B|340:140|368:108,1,90,8|0
272,64,32023,5,0
232,260,32210,1,0
232,260,32304,1,0
232,260,32398,2,0,B|284:272|344:260,1,90,8|0
156,328,32773,1,2
144,284,32866,1,0
120,244,32960,1,0
84,212,33054,1,0
44,192,33148,2,0,B|28:144,3,45,8|0|0|0
44,192,33523,6,0,B|148:172,1,90,2|0
152,168,33804,1,0
172,156,33898,1,8
252,96,34085,1,0
236,80,34179,1,8
272,192,34366,1,0
272,192,34460,2,0,B|248:236|264:284,1,90,0|8
356,248,34835,1,0
272,192,35023,5,2
224,192,35116,1,0
176,208,35210,1,0
140,236,35304,1,0
116,276,35398,1,8
48,352,35585,1,0
36,336,35679,2,0,B|28:300|28:300|32:296|32:296|20:240,1,90,8|0
28,232,35960,2,0,B|32:184|20:136,1,90,0|8
64,56,36335,1,0
108,76,36429,1,0
156,80,36523,5,2
204,68,36616,1,0
252,64,36710,1,0
300,68,36804,1,0
344,84,36898,1,8
436,152,37085,1,0
436,152,37179,1,0
436,152,37273,2,0,B|424:196|400:208,3,45,2|0|0|0
408,216,37648,2,0,B|416:264|388:308,1,90,8|2
296,332,38023,5,2
272,316,38116,1,0
244,308,38210,1,0
216,300,38304,1,0
188,300,38398,1,8
160,304,38491,1,0
132,316,38585,1,0
108,332,38679,1,0
88,352,38773,2,0,B|64:316|68:252,1,90,2|0
96,220,39054,1,0
132,184,39148,2,0,B|152:140|140:92,1,90,8|2
44,128,39523,5,14
224,244,39710,1,0
340,216,39898,1,8
316,96,40085,1,0
316,96,40179,1,8
192,124,40366,1,0
192,124,40460,1,0
224,244,40648,2,0,B|216:300|232:360,1,90,8|0
332,292,41023,5,0
128,208,41210,1,0
108,208,41304,1,0
88,208,41398,2,0,B|97:248|65:292,1,90,8|0
20,232,41679,2,0,B|8:204|20:172,1,45,0|2
120,68,41960,1,0
168,224,42148,1,8
16,188,42335,1,0
120,68,42523,6,0,B|168:56|248:64,1,90,2|0
256,76,42804,1,0
304,96,42898,2,0,B|360:104|408:100,1,90,8|0
440,80,43179,1,0
436,132,43273,2,0,B|416:176|438:235,1,90,2|0
336,352,43648,2,0,B|348:304|336:260,1,90,8|0
256,204,44023,5,2
120,144,44210,1,0
104,360,44398,1,8
232,332,44585,1,0
252,340,44679,1,8
36,248,44866,1,0
16,240,44960,1,0
120,144,45148,2,0,B|104:88,3,45,8|0|0|0
120,144,45523,6,0,B|168:160|212:144,1,90,2|0
264,60,45898,1,8
332,264,46179,1,0
340,248,46273,1,0
356,232,46366,1,0
376,220,46460,2,8,B|400:176|392:124,1,90,2|8
300,160,46835,1,0
132,252,47023,6,0,B|116:300|128:356,1,90,2|0
224,312,47398,1,8
192,136,47679,1,0
172,128,47773,1,0
148,128,47866,1,0
124,132,47960,2,0,B|72:148|44:208,1,90,2|8
132,252,48335,1,0
236,236,48523,6,0,B|276:212|308:168|296:116|272:68,1,180,2|8
132,252,49085,1,0
132,252,49179,1,0
132,252,49273,2,0,B|148:304|184:332,1,90,0|2
280,336,49648,1,8
304,300,49741,1,0
340,276,49835,1,0
384,264,49929,1,0
432,268,50023,6,0,B|440:220,2,45,4|0|0
348,104,50398,1,8
352,124,50491,1,2
240,236,50679,1,0
244,216,50773,1,8
128,100,50960,1,2
128,100,51054,1,0
128,100,51148,2,0,B|140:152|132:196,1,90,8|2
72,244,51523,6,0,B|88:292|156:308|204:284,1,135,6|2
185,291,51898,2,0,B|236:280|284:296,1,90,8|2
364,344,52273,1,0
364,344,52366,1,2
364,344,52460,1,0
368,248,52648,1,10
432,168,52835,1,2
432,168,53023,6,0,B|388:200|328:176|288:140|300:80,1,180,2|8
196,92,53585,1,0
140,84,53679,1,0
96,112,53773,1,2
80,168,53866,1,0
96,220,53960,1,0
148,240,54054,1,0
200,232,54148,2,0,B|256:216,3,45,8|0|0|0
288,216,54523,6,0,B|384:172|464:260,1,180,2|8
208,360,55085,1,0
192,344,55179,1,0
180,328,55273,2,0,B|188:228,1,90,0|2
104,192,55648,1,8
112,168,55741,1,0
116,144,55835,1,0
108,120,55929,1,2
96,96,56023,6,0,B|148:108|196:88,1,90,2|0
244,172,56398,1,8
332,120,56585,1,0
332,120,56679,2,0,B|380:116|424:132,1,90,2|0
468,112,56960,2,0,B|420:148|420:208,1,90,0|8
420,312,57335,1,0
404,296,57429,1,0
384,288,57523,6,0,B|324:276|272:280,1,90,6|0
212,324,57898,1,8
212,324,57991,2,8,B|148:344|88:300,1,90,2|2
36,280,58366,1,0
28,300,58460,1,0
120,228,58648,1,8
128,208,58741,2,0,B|140:152|140:152|152:152|152:152|168:72,1,135,0|2
260,40,59210,5,0
256,136,59398,1,8
256,136,59491,2,0,B|288:176|368:184,1,90,2|2
440,220,59866,1,0
416,264,59960,1,2
372,288,60054,1,0
320,296,60148,1,8
272,284,60241,1,0
224,276,60335,1,2
176,284,60429,1,0
148,328,60523,6,0,B|156:248|92:184,1,135,4|2
36,180,60898,2,0,B|-12:152,3,45,8|0|0|0
131,63,61273,2,0,B|128:108,3,45,2|0|0|0
228,168,61648,2,0,B|276:144,3,45,8|0|0|0
312,128,62023,5,2
332,124,62116,1,0
352,120,62210,1,0
436,68,62398,1,8
444,164,62585,1,2
440,188,62679,1,0
440,212,62773,1,2
368,288,62960,6,0,B|380:344,2,45,0|0|8
368,288,63335,1,2
144,288,63523,1,14
256,192,69523,12,4,72523
256,192,73273,5,4
256,192,74023,5,0
176,316,74210,1,0
376,168,74398,1,2
136,168,74585,1,0
336,316,74773,2,0,B|376:336|432:340|484:312|500:268,1,180,0|2
484,256,75241,1,0
476,232,75335,1,0
472,208,75429,1,0
476,184,75523,6,0,B|432:212|384:204,1,90,4|0
364,204,75804,1,8
224,144,75991,1,0
248,140,76085,1,0
204,248,76273,1,2
128,144,76460,1,2
208,36,76648,1,8
328,88,76835,1,2
320,216,77023,6,0,B|364:248|368:324,1,90,2|0
360,316,77304,1,2
260,348,77491,1,0
240,336,77585,1,2
216,328,77679,1,0
192,328,77773,2,0,B|136:320|96:328,1,90,2|2
24,256,78148,2,0,B|72:248|108:212|116:160|96:112,1,180,8|2
284,76,78804,5,0
280,100,78898,1,8
280,124,78991,1,0
288,152,79085,2,0,B|308:196|356:232,1,90,2|2
344,344,79460,1,2
368,352,79554,1,0
392,352,79648,2,0,B|428:316|424:250,1,90,8|0
424,168,80023,6,0,B|440:120|416:72|376:44|320:52,1,180,2|8
256,192,80585,1,2
88,168,80773,2,0,B|72:120|96:72|136:44|192:52,1,180,2|8
156,352,81523,5,4
108,348,81616,1,0
64,324,81710,1,0
40,284,81804,1,0
32,240,81898,1,8
40,192,81991,1,0
356,352,82273,5,4
404,348,82366,1,0
448,324,82460,1,0
472,284,82554,1,0
480,240,82648,1,8
472,192,82741,1,0
152,248,83023,5,4
136,204,83116,1,0
132,160,83210,1,0
144,116,83304,1,0
168,80,83398,1,8
208,56,83491,1,0
360,248,83773,5,4
376,204,83866,1,0
380,160,83960,1,0
368,116,84054,1,0
344,80,84148,1,8
304,56,84241,1,0
256,44,84335,1,0
208,56,84429,1,0
168,80,84523,6,0,B|116:64,3,45,4|0|0|0
52,168,84898,2,0,B|104:152,3,45,8|0|0|0
152,236,85273,1,0
172,256,85366,1,0
196,268,85460,1,0
224,272,85554,1,0
252,272,85648,1,8
280,268,85741,1,0
304,256,85835,1,2
324,240,85929,1,0
336,216,86023,5,4
340,192,86116,1,0
332,168,86210,1,0
328,144,86304,1,0
332,120,86398,1,8
348,100,86491,1,0
372,88,86585,1,2
396,88,86679,1,0
424,92,86773,2,0,B|476:112,7,45,2|0|0|0|8|0|0|0
424,92,87523,6,0,B|400:156|432:236,1,135,6|0
476,216,87898,2,0,B|436:228|400:276,1,90,8|0
332,336,88273,1,0
344,344,88366,1,0
244,304,88554,1,0
224,308,88648,2,0,B|116:328,1,90,8|2
44,352,89023,5,2
72,140,89304,1,0
88,132,89398,2,0,B|92:84|80:32,1,90,8|0
180,160,89773,1,2
168,176,89866,1,0
156,196,89960,2,0,B|140:232|140:288,1,90,2|8
232,244,90335,1,2
324,272,90523,5,2
376,280,90616,1,0
424,272,90710,1,0
468,248,90804,1,0
496,208,90898,1,4
16,208,91273,5,4
192,80,91554,1,4
124,284,91835,1,0
48,84,92116,1,0
240,208,92398,1,0
16,208,92679,6,0,B|80:168|172:168,1,135,2|0
184,144,93054,1,0
184,144,93148,2,0,B|200:84,3,60,0|0|0|4
400,328,94273,5,2
364,236,94460,1,0
364,236,94554,1,0
364,236,94648,2,0,B|344:188|356:128,1,90,8|0
384,52,95023,1,2
120,344,95773,5,2
124,320,95866,1,0
128,296,95960,1,0
132,272,96054,1,0
136,244,96148,2,0,B|160:52,1,180,8|6
448,280,97273,5,2
428,292,97366,1,0
408,304,97460,1,0
320,348,97648,2,0,B|280:328|220:336,1,90,8|0
136,360,98023,1,4
48,56,98773,5,2
80,96,98866,1,0
128,120,98960,1,0
180,124,99054,1,0
228,112,99148,2,0,B|268:120,6,30,10|0|0|0|0|0|0
88,344,105523,6,0,B|72:296|80:232,1,90,4|0
92,240,105804,1,2
188,224,105991,1,0
200,204,106085,1,0
200,180,106179,1,0
192,156,106273,6,0,B|276:196|372:160,1,180,0|8
392,124,106741,2,0,B|384:76,2,45
412,164,107023,6,0,B|472:244|428:336,1,180,2|8
248,288,107585,2,0,B|184:204|240:108,1,180
312,200,108148,1,8
312,200,108523,6,0,B|104:188,1,180,2|8
32,172,109085,2,0,B|24:216|40:264|92:296|140:288,1,180,0|0
236,280,109648,1,8
336,288,109835,1,0
408,360,110023,6,0,B|364:380|304:384|268:348|268:352|268:352|232:360,1,180,2|8
136,360,110585,1,0
52,312,110773,2,0,B|8:328,2,45,4|0|0
144,264,111148,1,8
144,264,111241,2,0,B|168:200|148:120,1,135,0|6
456,196,112273,5,8
144,352,113023,6,0,B|64:336|4:224|24:112|104:48,1,360,4|8
256,192,114523,5,4
256,192,114616,12,4,117523
