osu file format v14

[General]
AudioFilename: audio.mp3
AudioLeadIn: 0
PreviewTime: 82238
Countdown: 0
SampleSet: Soft
StackLeniency: 0.7
Mode: 3
LetterboxInBreaks: 0
EpilepsyWarning: 1
SpecialStyle: 0
WidescreenStoryboard: 1

[Editor]
DistanceSpacing: 0.9
BeatDivisor: 8
GridSize: 32
TimelineZoom: 1.1

[Metadata]
Title:forest of the spirits
TitleUnicode:forest of the spirits
Artist:sakuraburst
ArtistUnicode:sakuraburst
Creator:Sinnoh
Version:easy
Source:osu!
Tags:blood orange glitch dubstep wub sakura burst featured artist
BeatmapID:1571002
BeatmapSetID:667246

[Difficulty]
HPDrainRate:6
CircleSize:4
OverallDifficulty:6
ApproachRate:5
SliderMultiplier:1.4
SliderTickRate:1

[Events]
//Background and Video events
0,0,"audio.jpg",0,0
//Break Periods
2,124050,143296
//Storyboard Layer 0 (Background)
//Storyboard Layer 1 (Fail)
//Storyboard Layer 2 (Pass)
//Storyboard Layer 3 (Foreground)
//Storyboard Sound Samples

[TimingPoints]
-20,645.161290322581,4,2,1,50,1,0
121270,-100,4,2,1,40,0,0
122721,-100,4,2,1,40,0,0
144818,-100,4,2,2,50,0,0
162560,-100,4,2,1,50,0,0
165141,-100,4,2,1,70,0,1
174818,-100,4,2,1,70,0,0
175463,-100,4,2,1,70,0,1
185141,-100,4,2,1,70,0,0
185786,-100,4,2,1,70,0,1
195463,-100,4,2,1,70,0,0
196109,-100,4,2,1,70,0,1
205141,-100,4,2,1,70,0,0
206431,-100,4,2,1,70,0,1
206512,-100,4,2,1,70,0,0

[HitObjects]
64,192,81270,5,8,0:0:0:0:
64,192,82560,5,4,0:0:0:0:
448,192,82560,1,2,0:0:0:0:
320,192,83205,1,8,0:0:0:0:
192,192,83205,1,0,0:0:0:0:
448,192,83528,1,2,0:0:0:0:
320,192,83689,1,2,0:0:0:0:
64,192,84173,1,2,0:0:0:0:
192,192,84334,1,0,3:3:0:0:
448,192,84496,1,0,0:0:0:0:
320,192,84496,1,8,0:0:0:0:
192,192,85141,1,2,0:0:0:0:
320,192,85786,1,8,0:0:0:0:
64,192,85786,1,0,0:0:0:0:
448,192,86431,1,2,0:0:0:0:
192,192,86915,1,2,0:0:0:0:
448,192,87076,1,0,0:0:0:0:
64,192,87076,1,8,0:3:0:0:
320,192,87721,1,2,0:0:0:0:
64,192,88367,1,0,0:0:0:0:
192,192,88367,1,8,0:0:0:0:
448,192,89334,1,2,0:0:0:0:
320,192,89496,1,0,3:3:0:0:
64,192,89657,1,8,0:0:0:0:
192,192,89657,1,0,0:0:0:0:
320,192,90302,1,2,0:0:0:0:
192,192,90947,1,0,0:0:0:0:
448,192,90947,1,8,0:0:0:0:
320,192,91270,128,0,91592:0:0:0:0:
64,192,91592,1,0,0:0:0:0:
192,192,91592,1,2,0:0:0:0:
64,192,92076,1,2,0:0:0:0:
320,192,92238,1,0,0:0:0:0:
448,192,92238,1,8,0:3:0:0:
192,192,92560,128,0,92883:3:0:0:0:
64,192,92883,1,0,0:0:0:0:
448,192,92883,1,2,0:0:0:0:
320,192,93528,1,8,0:0:0:0:
192,192,93528,1,0,0:0:0:0:
64,192,94496,1,2,0:0:0:0:
192,192,94657,1,0,3:3:0:0:
320,192,94818,1,0,0:0:0:0:
448,192,94818,1,8,0:0:0:0:
64,192,95463,1,2,0:0:0:0:
320,192,95625,1,2,0:0:0:0:
192,192,96109,1,8,0:0:0:0:
448,192,96109,1,0,0:0:0:0:
320,192,96754,1,2,0:0:0:0:
192,192,97238,1,2,0:0:0:0:
64,192,97399,1,8,0:3:0:0:
448,192,97399,1,0,0:0:0:0:
448,192,98044,128,2,98689:0:0:0:0:
192,192,98044,1,0,0:0:0:0:
320,192,98689,128,8,99334:0:0:0:0:
64,192,98689,1,0,0:0:0:0:
192,192,99334,128,0,99980:0:0:0:0:
448,192,99657,1,2,0:0:0:0:
64,192,99980,128,8,100625:0:0:0:0:
320,192,99980,1,0,0:0:0:0:
448,192,100625,128,2,101270:0:0:0:0:
64,192,101270,1,0,0:0:0:0:
192,192,101270,128,0,101592:0:0:0:0:
448,192,101754,1,8,0:0:0:0:
320,192,101915,1,2,0:0:0:0:
64,192,102560,1,2,1:3:0:0:
448,192,102560,1,0,1:2:0:0:
320,192,102883,128,0,103205:0:0:0:0:
192,192,103205,1,2,0:0:0:0:
64,192,103205,1,4,0:0:0:0:
448,192,103850,1,8,0:0:0:0:
192,192,103850,1,0,0:0:0:0:
320,192,104012,1,0,0:0:0:0:
64,191,104818,1,2,0:0:0:0:
192,192,104980,1,0,3:3:0:0:
320,192,105141,1,0,0:0:0:0:
448,192,105141,1,8,0:0:0:0:
192,192,105786,1,2,0:0:0:0:
448,193,106431,1,8,0:0:0:0:
320,193,106431,1,0,0:0:0:0:
64,193,106592,1,0,0:0:0:0:
192,192,107076,1,2,0:0:0:0:
192,192,107560,1,2,0:0:0:0:
64,192,107721,1,8,0:3:0:0:
448,192,107721,1,0,0:0:0:0:
320,192,108367,1,2,0:0:0:0:
192,192,109012,1,8,0:0:0:0:
64,192,109012,1,0,0:0:0:0:
320,192,109173,1,0,0:0:0:0:
64,192,109980,1,2,0:0:0:0:
320,192,110141,1,0,3:3:0:0:
448,192,110302,1,8,0:0:0:0:
192,192,110302,1,0,0:0:0:0:
64,192,110947,1,2,0:0:0:0:
320,192,110947,1,0,0:0:0:0:
448,192,111270,1,2,0:0:0:0:
64,192,111592,1,8,0:0:0:0:
192,192,111592,1,0,0:0:0:0:
320,192,111754,1,0,0:0:0:0:
448,192,111915,1,2,0:0:0:0:
64,192,112238,128,2,112560:0:0:0:0:
448,192,112560,128,0,112883:0:0:0:0:
192,192,112883,128,8,113205:0:3:0:0:
320,192,113205,128,2,113528:0:0:0:0:
64,192,113528,1,2,0:0:0:0:
192,192,113528,1,0,0:0:0:0:
192,192,114173,1,0,0:0:0:0:
448,192,114173,1,8,0:0:0:0:
320,192,114334,1,0,0:0:0:0:
64,192,115141,1,2,0:0:0:0:
192,192,115302,1,0,3:3:0:0:
320,192,115463,1,0,0:0:0:0:
448,192,115463,1,8,0:0:0:0:
192,192,116109,1,2,0:0:0:0:
64,192,116754,1,0,0:0:0:0:
320,192,116754,1,8,0:0:0:0:
448,192,116915,1,0,0:0:0:0:
192,192,117399,1,2,0:0:0:0:
320,192,117560,1,2,0:0:0:0:
192,192,117883,1,2,0:0:0:0:
64,192,118044,1,8,0:3:0:0:
448,192,118044,1,0,0:0:0:0:
320,192,118689,1,2,0:0:0:0:
64,192,119334,1,0,0:0:0:0:
320,192,119334,1,8,0:0:0:0:
192,192,119496,1,0,0:0:0:0:
448,192,120302,1,2,0:0:0:0:
64,192,120463,1,0,3:3:0:0:
320,192,120625,1,8,0:0:0:0:
192,192,120625,1,0,0:0:0:0:
448,192,121270,128,0,122238:0:0:0:0:
64,192,122238,128,0,123205:0:0:0:0:
320,192,123205,1,8,0:3:0:0:
448,192,123205,1,8,0:3:0:0:
192,192,123850,1,0,1:3:0:0:
448,192,144496,5,8,0:3:0:0:
64,192,144496,1,8,0:3:0:0:
192,192,144818,1,0,0:0:0:0:
448,192,145141,1,2,0:0:0:0:
64,192,145463,1,2,0:0:0:0:
320,192,145786,1,2,0:0:0:0:
192,192,146109,1,0,0:0:0:0:
64,192,146431,1,0,0:0:0:0:
448,192,146754,1,0,0:0:0:0:
64,192,147076,1,0,0:0:0:0:
192,192,147399,1,0,0:0:0:0:
448,192,147721,1,2,0:0:0:0:
320,192,148044,1,2,0:0:0:0:
192,192,148367,1,2,0:0:0:0:
448,192,148689,1,0,0:0:0:0:
64,192,149012,1,0,0:0:0:0:
448,192,149334,1,0,0:0:0:0:
192,192,149657,1,0,0:0:0:0:
320,192,149980,1,0,0:0:0:0:
192,192,150302,1,2,0:0:0:0:
64,192,150625,1,2,0:0:0:0:
448,192,150947,1,2,0:0:0:0:
192,192,151270,1,0,0:0:0:0:
320,192,151592,1,0,0:0:0:0:
64,192,151915,1,0,0:0:0:0:
448,192,152238,1,0,0:0:0:0:
320,192,152560,1,0,0:0:0:0:
64,192,152883,1,2,0:0:0:0:
448,192,153205,1,2,0:0:0:0:
192,192,153528,1,2,0:0:0:0:
320,192,153850,1,0,0:0:0:0:
64,192,154173,1,0,0:0:0:0:
448,192,154496,1,0,0:0:0:0:
320,192,154657,1,8,0:0:0:0:
192,192,154818,1,2,0:3:0:0:
64,192,154818,1,8,0:0:0:0:
320,192,155141,1,0,0:0:0:0:
448,192,155463,1,10,0:0:0:0:
192,192,155786,1,2,0:0:0:0:
64,192,156109,1,10,0:0:0:0:
320,192,156431,1,0,0:0:0:0:
192,192,156754,1,8,0:0:0:0:
448,192,157076,1,0,0:0:0:0:
64,192,157399,1,8,0:0:0:0:
192,192,157721,1,2,0:0:0:0:
448,192,158044,1,10,0:0:0:0:
64,192,158367,1,2,0:0:0:0:
320,192,158689,1,10,0:0:0:0:
192,192,159012,1,0,0:0:0:0:
64,192,159334,1,8,0:0:0:0:
448,192,159657,1,0,0:0:0:0:
192,192,159980,1,8,0:0:0:0:
64,192,159980,1,2,0:3:0:0:
192,192,160302,1,8,0:0:0:0:
320,192,160625,1,10,0:0:0:0:
448,192,160947,1,10,0:0:0:0:
64,192,161270,1,8,0:0:0:0:
64,192,161592,1,8,0:0:0:0:
320,192,161915,1,10,0:0:0:0:
448,192,162238,1,10,0:0:0:0:
320,192,162560,1,2,0:0:0:0:
192,192,162560,1,8,0:3:0:0:
320,192,163850,1,8,0:0:0:0:
448,192,165141,1,2,0:0:0:0:
64,192,165141,128,4,165463:0:0:0:0:
192,192,165786,1,2,0:0:0:0:
448,192,165786,1,8,0:3:0:0:
320,192,166109,128,0,166431:0:0:0:0:
192,192,166431,128,2,166754:0:0:0:0:
64,192,166431,1,0,0:0:0:0:
64,192,167076,1,8,0:3:0:0:
448,192,167076,1,2,0:0:0:0:
320,192,167399,128,0,167721:0:0:0:0:
448,192,167721,128,0,168044:0:0:0:0:
192,192,167721,1,2,0:0:0:0:
320,192,168367,1,8,0:3:0:0:
192,192,168367,1,2,0:0:0:0:
64,192,168689,128,0,169012:0:0:0:0:
320,192,169012,128,2,169334:0:0:0:0:
448,192,169012,1,0,0:0:0:0:
192,192,169496,1,2,0:0:0:0:
448,192,169657,128,0,170302:1:0:0:0:
64,192,169657,1,0,1:0:0:0:
192,192,170302,128,2,170625:0:0:0:0:
320,192,170302,1,0,0:0:0:0:
64,192,170947,1,8,0:3:0:0:
320,192,170947,1,2,0:0:0:0:
448,192,171270,128,0,171592:0:0:0:0:
192,192,171270,128,0,171592:0:0:0:0:
64,192,171592,128,2,171915:0:0:0:0:
320,192,172238,1,8,0:3:0:0:
448,192,172238,1,2,0:0:0:0:
448,192,172560,128,0,172883:0:0:0:0:
320,192,172883,128,2,173205:0:0:0:0:
64,192,172883,1,0,0:0:0:0:
192,192,173528,1,2,0:0:0:0:
448,192,173528,1,8,0:3:0:0:
64,192,173850,128,0,174173:0:0:0:0:
320,192,174173,1,2,0:0:0:0:
320,192,174496,1,2,0:0:0:0:
64,192,174818,1,0,1:0:0:0:
448,192,174818,128,0,175463:1:0:0:0:
192,192,174980,1,2,0:0:0:0:
192,192,175463,128,2,175786:0:0:0:0:
448,192,176109,1,8,0:3:0:0:
320,192,176109,1,2,0:0:0:0:
64,192,176431,128,0,176754:0:0:0:0:
448,192,176754,128,0,177076:0:0:0:0:
192,192,176754,1,2,0:0:0:0:
192,192,177399,1,8,0:3:0:0:
64,192,177399,1,2,0:0:0:0:
320,192,177721,128,0,178044:0:0:0:0:
64,192,178044,128,2,178367:0:0:0:0:
448,192,178044,1,0,0:0:0:0:
192,192,178689,1,2,0:0:0:0:
448,192,178689,1,8,0:3:0:0:
320,192,179012,128,0,179334:0:0:0:0:
192,192,179334,128,2,179657:0:0:0:0:
64,192,179334,1,0,0:0:0:0:
448,192,179818,1,2,0:0:0:0:
64,192,179980,128,0,180625:1:0:0:0:
320,192,179980,1,0,1:0:0:0:
448,192,180625,128,2,180947:0:0:0:0:
192,192,180625,1,0,0:0:0:0:
64,192,181270,1,2,0:0:0:0:
320,192,181270,1,8,0:3:0:0:
192,192,181592,128,0,181915:0:0:0:0:
448,192,181592,128,0,181915:0:0:0:0:
320,192,181915,128,2,182238:0:0:0:0:
64,192,182560,1,8,0:3:0:0:
448,192,182560,1,2,0:0:0:0:
64,192,182883,128,0,183205:0:0:0:0:
192,192,183205,128,2,183528:0:0:0:0:
448,192,183205,1,0,0:0:0:0:
64,192,183850,1,2,0:0:0:0:
448,192,183850,1,8,0:3:0:0:
320,192,184173,128,0,184496:0:0:0:0:
192,192,184496,1,2,0:0:0:0:
192,192,184818,1,2,0:0:0:0:
448,192,185141,1,0,1:0:0:0:
64,192,185141,1,0,1:0:0:0:
64,192,185463,1,0,1:0:0:0:
448,192,185463,1,0,1:0:0:0:
192,192,185786,128,4,186431:0:0:0:0:
320,192,185786,1,2,0:0:0:0:
448,192,186431,1,8,0:3:0:0:
64,192,186431,1,2,0:0:0:0:
320,192,186754,128,0,187076:0:0:0:0:
448,192,187076,1,0,0:0:0:0:
64,192,187076,128,2,187721:0:0:0:0:
320,192,187721,1,8,0:3:0:0:
192,192,187721,1,2,0:0:0:0:
448,192,188044,128,0,188367:0:0:0:0:
320,192,188367,128,0,189012:0:0:0:0:
64,192,188367,1,2,0:0:0:0:
64,192,189012,128,2,189657:0:0:0:0:
448,192,189012,1,8,0:3:0:0:
192,192,189334,1,0,0:0:0:0:
448,192,189657,128,2,189980:0:0:0:0:
320,192,189657,1,0,0:0:0:0:
192,192,190141,1,2,0:0:0:0:
64,192,190302,128,0,190625:1:0:0:0:
448,192,190302,1,0,0:0:0:0:
192,192,190625,128,0,190947:0:0:0:0:
448,192,190947,128,2,191592:0:0:0:0:
320,192,190947,1,0,0:0:0:0:
64,192,191592,1,2,0:0:0:0:
192,192,191592,1,8,0:3:0:0:
320,192,191915,128,0,192238:0:0:0:0:
448,192,191915,128,0,192238:0:0:0:0:
192,192,192238,128,2,192560:0:0:0:0:
64,192,192238,1,0,0:0:0:0:
64,192,192883,1,2,0:0:0:0:
320,192,192883,1,8,0:3:0:0:
320,192,193205,128,0,193528:0:0:0:0:
448,192,193528,128,0,193850:0:0:0:0:
64,192,193528,1,2,0:0:0:0:
192,192,194173,1,8,0:3:0:0:
64,192,194173,1,2,0:0:0:0:
320,192,194496,128,0,194818:0:0:0:0:
192,192,194818,1,2,0:0:0:0:
192,192,195141,1,2,0:0:0:0:
64,192,195463,128,0,196109:1:0:0:0:
448,192,195463,1,0,1:0:0:0:
320,192,195625,1,2,0:0:0:0:
448,192,196109,128,2,196754:0:0:0:0:
192,192,196109,1,0,0:0:0:0:
320,192,196754,1,8,0:3:0:0:
64,192,196754,1,2,0:0:0:0:
192,192,197076,128,0,197399:0:0:0:0:
320,192,197399,128,2,198044:0:0:0:0:
192,192,198044,1,8,0:3:0:0:
64,192,198044,1,2,0:0:0:0:
448,192,198367,1,0,0:0:0:0:
320,192,198528,1,0,0:0:0:0:
192,192,198689,128,2,199334:0:0:0:0:
64,192,198689,1,0,0:0:0:0:
320,192,199334,1,2,0:0:0:0:
448,192,199334,1,8,0:3:0:0:
64,192,199657,128,0,199980:0:0:0:0:
448,192,199980,128,2,200302:0:0:0:0:
192,192,199980,1,0,0:0:0:0:
192,192,200463,1,2,0:0:0:0:
64,192,200625,1,0,1:0:0:0:
320,192,200625,128,0,201270:1:0:0:0:
192,192,201270,128,2,201915:0:0:0:0:
448,192,201270,1,0,0:0:0:0:
448,192,201915,1,8,0:3:0:0:
320,192,201915,1,2,0:0:0:0:
64,192,202238,128,0,202560:0:0:0:0:
192,192,202238,128,0,202560:0:0:0:0:
448,192,202560,128,2,203205:0:0:0:0:
64,192,203205,1,8,0:3:0:0:
320,192,203205,1,2,0:0:0:0:
320,192,203528,128,0,203850:0:0:0:0:
448,192,203850,1,2,0:0:0:0:
192,192,203850,128,0,204496:0:0:0:0:
64,192,204496,1,2,0:0:0:0:
320,192,204496,1,8,0:3:0:0:
448,192,204818,1,0,0:0:0:0:
320,192,205141,1,2,0:0:0:0:
64,192,205141,128,0,205786:0:0:0:0:
320,192,205463,1,2,0:0:0:0:
192,192,205786,1,0,1:0:0:0:
448,192,205786,1,0,1:0:0:0:
192,192,206431,1,2,0:0:0:0:
320,192,206431,1,0,0:0:0:0:
