osu file format v14

[General]
AudioFilename: audio.mp3
AudioLeadIn: 0
PreviewTime: 36030
Countdown: 0
SampleSet: Soft
StackLeniency: 0.3
Mode: 0
LetterboxInBreaks: 0
WidescreenStoryboard: 1

[Editor]
DistanceSpacing: 0.9
BeatDivisor: 4
GridSize: 4
TimelineZoom: 2.8

[Metadata]
Title:dragonlands
TitleUnicode:dragonlands
Artist:sakuraburst
ArtistUnicode:sakuraburst
Creator:gameon123321
Version:pp farm
Source:
Tags:
BeatmapID:1398980
BeatmapSetID:643580

[Difficulty]
HPDrainRate:5
CircleSize:4
OverallDifficulty:8
ApproachRate:9
SliderMultiplier:1.6
SliderTickRate:1

[Events]
//Background and Video events
//Break Periods
2,4880,35430
2,48230,95430
2,97579,169830
//Storyboard Layer 0 (Background)
//Storyboard Layer 1 (Fail)
//Storyboard Layer 2 (Pass)
//Storyboard Layer 3 (Foreground)
//Storyboard Sound Samples

[TimingPoints]
30,300,4,2,0,49,1,0
30,-200,4,2,0,49,0,0
19230,-166.666666666667,4,2,0,49,0,0
28830,-250,4,2,0,49,0,0
36480,-166.666666666667,4,2,0,49,0,0
36930,-125,4,2,0,49,0,0
37380,-100,4,2,0,49,0,0
37830,-83.3333333333333,4,2,0,49,0,0
38430,-66.6666666666667,4,2,0,49,0,1
38880,-100,4,2,0,49,0,1
39480,-66.6666666666667,4,2,0,49,0,1
40080,-100,4,2,0,49,0,1
40530,-66.6666666666667,4,2,0,49,0,1
41430,-100,4,2,0,49,0,1
41880,-66.6666666666667,4,2,0,49,0,1
42630,-100,4,2,0,49,0,1
42930,-66.6666666666667,4,2,0,49,0,1
43680,-100,4,2,0,49,0,1
44130,-66.6666666666667,4,2,0,49,0,1
44880,-100,4,2,0,49,0,1
45330,-66.6666666666667,4,2,0,49,0,1
46230,-100,4,2,0,49,0,1
46530,-66.6666666666667,4,2,0,49,0,1
47430,-200,4,2,0,49,0,1
48180,-66.6666666666667,4,2,0,49,0,1
48630,-100,4,2,0,49,0,1
48930,-66.6666666666667,4,2,0,49,0,1
49680,-100,4,2,0,49,0,1
50130,-66.6666666666667,4,2,0,49,0,1
51030,-100,4,2,0,49,0,1
51330,-66.6666666666667,4,2,0,49,0,1
52230,-100,4,2,0,49,0,1
52530,-66.6666666666667,4,2,0,49,0,1
53280,-100,4,2,0,49,0,1
53730,-66.6666666666667,4,2,0,49,0,1
54480,-100,4,2,0,49,0,1
54930,-66.6666666666667,4,2,0,49,0,1
55830,-100,4,2,0,49,0,1
56130,-66.6666666666667,4,2,0,49,0,1
56880,-100,4,2,0,49,0,1
76830,-100,4,2,0,49,0,0
115230,-100,4,2,0,49,0,0
134430,-100,4,2,0,49,0,0
153630,-100,4,2,0,49,0,0
171630,-100,4,2,0,49,0,0
171780,-80,4,2,0,49,0,0
171930,-66.6666666666667,4,2,0,49,0,0
172080,-57.1428571428571,4,2,0,49,0,0
172230,-50,4,2,0,49,0,0
172830,-100,4,2,0,49,0,0
174030,-200,4,2,0,49,0,0
175680,-133.333333333333,4,2,0,49,0,0
176430,-66.6666666666667,4,2,0,49,0,0
177630,-100,4,2,0,49,0,0
178830,-200,4,2,0,49,0,0
180030,-200,4,2,0,49,0,0
181230,-66.6666666666667,4,2,0,49,0,0
182430,-200,4,2,0,49,0,0
183030,-100,4,2,0,49,0,0
183630,-200,4,2,0,49,0,0
184155,-200,4,2,0,49,0,0
185730,-100,4,2,0,49,0,0
186030,-66.6666666666667,4,2,0,49,0,0
187230,-100,4,2,0,49,0,0
188430,-66.6666666666667,4,2,0,49,0,0
188880,-66.6666666666667,4,2,0,49,0,0
190080,-133.333333333333,4,2,0,49,0,0
190680,-100,4,2,0,49,0,0
190830,-666.666666666667,4,2,0,49,0,0
192030,-666.666666666667,4,2,0,10,0,0
192330,-100,4,2,0,49,0,0
192930,-50,4,2,0,49,0,0
193230,-66.6666666666667,4,2,0,49,0,0

[HitObjects]
232,288,2430,6,0,L|228:240,2,40
312,160,2880,2,0,L|304:248,2,80
212,112,3630,5,0,0:0:0:0:
300,100,3780,1,0,0:0:0:0:
192,72,3930,5,0,0:0:0:0:
312,96,4080,1,0,0:0:0:0:
176,136,4230,6,0,L|172:224,1,80
104,280,4680,1,0,0:0:0:0:
200,240,36030,5,0,0:0:0:0:
200,240,36180,2,0,L|160:244,1,32
316,204,36480,5,0,0:0:0:0:
316,204,36630,2,0,L|375:209,1,47.9999985351563
176,140,36930,5,0,0:0:0:0:
176,140,37080,2,0,L|100:147,1,64
348,84,37380,5,0,0:0:0:0:
348,84,37530,2,0,L|433:92,1,80
304,260,37830,5,0,0:0:0:0:
208,124,37980,1,0,0:0:0:0:
201,308,38130,5,0,0:0:0:0:
310,75,38280,1,0,0:0:0:0:
256,364,38430,5,0,0:0:0:0:
256,20,38580,2,0,L|12:8,1,240.000009155274
412,68,39030,6,0,P|432:124|432:176,1,80
256,20,39330,5,0,0:0:0:0:
488,148,39480,2,0,P|478:88|455:33,1,120.000004577637
228,105,39780,2,0,P|238:165|261:220,1,120.000004577637
354,127,40080,1,0,0:0:0:0:
152,275,40230,6,0,L|150:362,1,80
272,228,40530,6,0,P|244:184|60:180,1,240.000009155274
285,354,40980,2,0,P|345:329|387:280,1,120
309,128,41280,5,0,0:0:0:0:
309,128,41355,1,0,0:0:0:0:
309,128,41430,2,0,L|311:41,1,80
424,101,41730,1,0,0:0:0:0:
117,207,41880,6,0,P|94:122|231:72,1,240.000009155274
144,308,42330,2,0,P|75:301|27:271,1,120.000004577637
324,190,42630,6,0,L|487:180,1,160
402,75,43080,1,0,0:0:0:0:
424,302,43230,5,0,0:0:0:0:
506,28,43380,2,0,P|449:-16|288:45,1,240.000009155274
144,124,43830,2,0,P|208:120|240:136,1,80
180,304,44130,5,0,0:0:0:0:
52,104,44280,2,0,L|40:232,1,120.000004577637
299,26,44580,2,0,L|311:154,1,120.000004577637
332,336,44880,5,0,0:0:0:0:
408,292,45030,2,0,P|380:264|340:248,1,80
66,280,45330,6,0,P|153:292|239:154,1,240.000009155274
57,37,45780,2,0,P|29:109|43:165,1,120.000004577637
252,80,46080,1,0,0:0:0:0:
252,80,46155,1,0,0:0:0:0:
252,80,46230,2,0,L|361:89,1,80
145,140,46530,5,0,0:0:0:0:
457,157,46680,2,0,P|385:143|293:290,1,240.000009155274
133,34,47130,2,0,P|165:96|169:156,1,120.000004577637
364,0,47430,6,0,P|341:62|359:167,1,160
65,298,96030,5,0,0:0:0:0:
65,298,96330,6,0,L|175:291,1,80
375,99,96630,2,0,L|265:106,1,80
340,199,96930,1,0,0:0:0:0:
220,97,97080,2,0,P|171:101|33:72,1,160
424,144,170430,6,0,P|396:152|376:152,7,40
368,240,171030,2,0,P|349:246|329:248,7,40
280,160,171630,6,0,P|261:166|241:168,1,40
180,96,171780,2,0,P|153:105|125:107,1,50
144,204,171930,2,0,P|112:214|79:218,1,60.0000022888184
32,116,172080,1,0,0:0:0:0:
128,344,172230,5,0,0:0:0:0:
272,36,172380,1,0,0:0:0:0:
444,284,172530,1,0,0:0:0:0:
96,76,172680,1,0,0:0:0:0:
96,208,173130,6,0,P|140:204|228:184,1,120
232,160,173430,1,0,0:0:0:0:
272,340,173580,5,0,0:0:0:0:
208,40,173730,5,0,0:0:0:0:
424,324,173880,5,0,0:0:0:0:
112,204,174030,2,0,P|116:124|364:232,1,480.000018310548
