osu file format v14

[General]
AudioFilename: audio.mp3
AudioLeadIn: 0
PreviewTime: 93866
Countdown: 0
SampleSet: None
StackLeniency: 0.7
Mode: 3
LetterboxInBreaks: 0
SpecialStyle: 0
WidescreenStoryboard: 1

[Editor]
Bookmarks: 60156,63544,83866,164511
DistanceSpacing: 0.9
BeatDivisor: 4
GridSize: 32
TimelineZoom: 2.1

[Metadata]
Title:deconstructing nature
TitleUnicode:deconstructing nature
Artist:sakuraburst
ArtistUnicode:【sakuraburst】
Creator:JamesHappy
Version:5K hard
Source:
Tags:experimental
BeatmapID:1255707
BeatmapSetID:590756

[Difficulty]
HPDrainRate:8
CircleSize:5
OverallDifficulty:7.6
ApproachRate:5
SliderMultiplier:1.4
SliderTickRate:1

[Events]
//Background and Video events
0,0,"Wat.jpg",0,0
//Break Periods
2,2131,7344
2,135679,141860
//Storyboard Layer 0 (Background)
//Storyboard Layer 1 (Fail)
//Storyboard Layer 2 (Pass)
//Storyboard Layer 3 (Foreground)
//Storyboard Sound Samples

[TimingPoints]
1286,322.58064516129,4,2,0,30,1,0
1306,-985.641025641026,4,2,0,15,0,0
1326,-944.936086529007,4,2,0,15,0,0
1346,-884.084636614535,4,2,0,15,0,0
1366,-810.970464135021,4,2,0,15,0,0
1386,-733.02822273074,4,2,0,15,0,0
1406,-655.972696245734,4,2,0,15,0,0
1427,-583.485124468731,4,2,0,15,0,0
1447,-517.501346257404,4,2,0,15,0,0
1467,-458.711217183771,4,2,0,15,0,0
1487,-407.030919102075,4,2,0,15,0,0
1507,-361.95856873823,4,2,0,15,0,0
1527,-322.808196170642,4,2,0,15,0,0
1548,-288.848812744214,4,2,0,15,0,0
1568,-259.379217273954,4,2,0,15,0,0
1588,-233.763074677694,4,2,0,15,0,0
1608,-211.441144114411,4,2,0,15,0,0
1628,-191.931296185341,4,2,0,15,0,0
1648,-174.822630525741,4,2,0,15,0,0
1669,-159.767248545303,4,2,0,15,0,0
1689,-146.471574455114,4,2,0,15,0,0
1709,-134.68815697267,4,2,0,15,0,0
1729,-124.208349489466,4,2,0,15,0,0
1749,-114.855981833393,4,2,0,15,0,0
1769,-106.481994459834,4,2,0,15,0,0
1790,-98.9599423334363,4,2,0,15,0,0
1810,-92.1822541966427,4,2,0,15,0,0
1830,-86.0571326229068,4,2,0,15,0,0
1850,-80.5059897796766,4,2,0,15,0,0
1870,-75.4613270514331,4,2,0,15,0,0
1890,-70.8649804586682,4,2,0,15,0,0
1911,-66.6666666666667,4,2,0,15,0,0
1931,-100,4,2,0,15,0,0
32253,-1000,4,2,0,15,0,0
32273.1578947368,-962.666666666667,4,2,0,15,0,0
32293.3157894737,-865.707434052758,4,2,0,15,0,0
32313.4736842105,-741.273100616016,4,2,0,15,0,0
32333.6315789474,-617.094017094017,4,2,0,15,0,0
32353.7894736842,-507.735583684951,4,2,0,15,0,0
32373.9473684211,-417.341040462428,4,2,0,15,0,0
32394.1052631579,-344.794651384909,4,2,0,15,0,0
32414.2631578947,-287.191726332538,4,2,0,15,0,0
32434.4210526316,-241.471571906355,4,2,0,15,0,0
32454.5789473684,-204.997160704145,4,2,0,15,0,0
32474.7368421053,-175.669099756691,4,2,0,15,0,0
32494.8947368421,-151.87210769878,4,2,0,15,0,0
32515.0526315789,-132.379904657132,4,2,0,15,0,0
32535.2105263158,-116.264090177134,4,2,0,15,0,0
32555.3684210526,-102.819709484477,4,2,0,15,0,0
32575.5263157895,-91.5082382762991,4,2,0,15,0,0
32595.6842105263,-81.9151350124801,4,2,0,15,0,0
32615.8421052632,-73.7186032264652,4,2,0,15,0,0
32636,-66.6666666666667,4,2,0,15,0,0
32656,-100,4,2,0,15,0,0
32737,-1000,4,2,0,15,0,0
32757,-962.666666666667,4,2,0,15,0,0
32777,-865.707434052758,4,2,0,15,0,0
32797,-741.273100616016,4,2,0,15,0,0
32817,-617.094017094017,4,2,0,15,0,0
32837,-507.735583684951,4,2,0,15,0,0
32857,-417.341040462428,4,2,0,15,0,0
32878,-344.794651384909,4,2,0,15,0,0
32898,-287.191726332538,4,2,0,15,0,0
32918,-241.471571906355,4,2,0,15,0,0
32938,-204.997160704145,4,2,0,15,0,0
32958,-175.669099756691,4,2,0,15,0,0
32978,-151.87210769878,4,2,0,15,0,0
32999,-132.379904657132,4,2,0,15,0,0
33019,-116.264090177134,4,2,0,15,0,0
33039,-102.819709484477,4,2,0,15,0,0
33059,-91.5082382762991,4,2,0,15,0,0
33079,-81.9151350124801,4,2,0,15,0,0
33099,-73.7186032264652,4,2,0,15,0,0
33120,-66.6666666666667,4,2,0,15,0,0
33140,-100,4,2,0,15,0,0
33221,-1000,4,2,0,15,0,0
33241.1333333333,-941.422594142259,4,2,0,15,0,0
33261.2666666667,-800.711743772242,4,2,0,15,0,0
33281.4,-641.025641025641,4,2,0,15,0,0
33301.5333333333,-501.113585746103,4,2,0,15,0,0
33321.6666666667,-391.304347826087,4,2,0,15,0,0
33341.8,-308.641975308642,4,2,0,15,0,0
33361.9333333333,-246.981339187706,4,2,0,15,0,0
33382.0666666667,-200.7136485281,4,2,0,15,0,0
33402.2,-165.562913907285,4,2,0,15,0,0
33422.3333333333,-138.461538461538,4,2,0,15,0,0
33442.4666666667,-117.248566961959,4,2,0,15,0,0
33462.6,-100.401606425703,4,2,0,15,0,0
33482.7333333333,-86.8390582786569,4,2,0,15,0,0
33502.8666666667,-75.7830919501516,4,2,0,15,0,0
33523,-66.6666666666667,4,2,0,15,0,0
33544,-100,4,2,0,15,0,0
42576,-1000,4,2,0,15,0,1
42596.1612903226,-985.641025641026,4,2,0,15,0,1
42616.3225806452,-944.936086529007,4,2,0,15,0,1
42636.4838709677,-884.084636614535,4,2,0,15,0,1
42656.6451612903,-810.970464135021,4,2,0,15,0,1
42676.8064516129,-733.02822273074,4,2,0,15,0,1
42696.9677419355,-655.972696245734,4,2,0,15,0,1
42717.1290322581,-583.485124468731,4,2,0,15,0,1
42737.2903225806,-517.501346257404,4,2,0,15,0,1
42757.4516129032,-458.711217183771,4,2,0,15,0,1
42777.6129032258,-407.030919102075,4,2,0,15,0,1
42797.7741935484,-361.95856873823,4,2,0,15,0,1
42817.935483871,-322.808196170642,4,2,0,15,0,1
42838.0967741935,-288.848812744214,4,2,0,15,0,1
42858.2580645161,-259.379217273954,4,2,0,15,0,1
42878.4193548387,-233.763074677694,4,2,0,15,0,1
42898.5806451613,-211.441144114411,4,2,0,15,0,1
42918.7419354839,-191.931296185341,4,2,0,15,0,1
42938.9032258065,-174.822630525741,4,2,0,15,0,1
42959.064516129,-159.767248545303,4,2,0,15,0,1
42979.2258064516,-146.471574455114,4,2,0,15,0,1
42999.3870967742,-134.68815697267,4,2,0,15,0,1
43019.5483870968,-124.208349489466,4,2,0,15,0,1
43039.7096774194,-114.855981833393,4,2,0,15,0,1
43059.8709677419,-106.481994459834,4,2,0,15,0,1
43080.0322580645,-98.9599423334363,4,2,0,15,0,1
43100.1935483871,-92.1822541966427,4,2,0,15,0,1
43120.3548387097,-86.0571326229068,4,2,0,15,0,1
43140.5161290323,-80.5059897796766,4,2,0,15,0,1
43160.6774193548,-75.4613270514331,4,2,0,15,0,1
43180.8387096774,-70.8649804586682,4,2,0,15,0,1
43201,-66.6666666666667,4,2,0,15,0,1
43221,-100,4,2,0,15,0,1
43544,-1000,4,2,0,15,0,1
43564.1333333333,-941.422594142259,4,2,0,15,0,1
43584.2666666667,-800.711743772242,4,2,0,15,0,1
43604.4,-641.025641025641,4,2,0,15,0,1
43624.5333333333,-501.113585746103,4,2,0,15,0,1
43644.6666666667,-391.304347826087,4,2,0,15,0,1
43664.8,-308.641975308642,4,2,0,15,0,1
43684.9333333333,-246.981339187706,4,2,0,15,0,1
43705.0666666667,-200.7136485281,4,2,0,15,0,1
43725.2,-165.562913907285,4,2,0,15,0,1
43745.3333333333,-138.461538461538,4,2,0,15,0,1
43765.4666666667,-117.248566961959,4,2,0,15,0,1
43785.6,-100.401606425703,4,2,0,15,0,1
43805.7333333333,-86.8390582786569,4,2,0,15,0,1
43825.8666666667,-75.7830919501516,4,2,0,15,0,1
43846,-66.6666666666667,4,2,0,15,0,1
43866,-100,4,2,0,15,0,1
45479,-1000,4,2,0,15,0,1
45499.1333333333,-941.422594142259,4,2,0,15,0,1
45519.2666666667,-800.711743772242,4,2,0,15,0,1
45539.4,-641.025641025641,4,2,0,15,0,1
45559.5333333333,-501.113585746103,4,2,0,15,0,1
45579.6666666667,-391.304347826087,4,2,0,15,0,1
45599.8,-308.641975308642,4,2,0,15,0,1
45619.9333333333,-246.981339187706,4,2,0,15,0,1
45640.0666666667,-200.7136485281,4,2,0,15,0,1
45660.2,-165.562913907285,4,2,0,15,0,1
45680.3333333333,-138.461538461538,4,2,0,15,0,1
45700.4666666667,-117.248566961959,4,2,0,15,0,1
45720.6,-100.401606425703,4,2,0,15,0,1
45740.7333333333,-86.8390582786569,4,2,0,15,0,1
45760.8666666667,-75.7830919501516,4,2,0,15,0,1
45781,-66.6666666666667,4,2,0,15,0,1
45802,-100,4,2,0,15,0,1
46124,-1000,4,2,0,15,0,1
46144.2,-941.422594142259,4,2,0,15,0,1
46164.4,-800.711743772242,4,2,0,15,0,1
46184.6,-641.025641025641,4,2,0,15,0,1
46204.8,-501.113585746103,4,2,0,15,0,1
46225,-391.304347826087,4,2,0,15,0,1
46245.2,-308.641975308642,4,2,0,15,0,1
46265.4,-246.981339187706,4,2,0,15,0,1
46285.6,-200.7136485281,4,2,0,15,0,1
46305.8,-165.562913907285,4,2,0,15,0,1
46326,-138.461538461538,4,2,0,15,0,1
46346.2,-117.248566961959,4,2,0,15,0,1
46366.4,-100.401606425703,4,2,0,15,0,1
46386.6,-86.8390582786569,4,2,0,15,0,1
46406.8,-75.7830919501516,4,2,0,15,0,1
46427,-66.6666666666667,4,2,0,15,0,1
46447,-100,4,2,0,15,0,1
47737,-1000,4,2,0,15,0,1
47757,-985.641025641026,4,2,0,15,0,1
47777,-944.936086529007,4,2,0,15,0,1
47797,-884.084636614535,4,2,0,15,0,1
47817,-810.970464135021,4,2,0,15,0,1
47837,-733.02822273074,4,2,0,15,0,1
47857,-655.972696245734,4,2,0,15,0,1
47878,-583.485124468731,4,2,0,15,0,1
47898,-517.501346257404,4,2,0,15,0,1
47918,-458.711217183771,4,2,0,15,0,1
47938,-407.030919102075,4,2,0,15,0,1
47958,-361.95856873823,4,2,0,15,0,1
47978,-322.808196170642,4,2,0,15,0,1
47999,-288.848812744214,4,2,0,15,0,1
48019,-259.379217273954,4,2,0,15,0,1
48039,-233.763074677694,4,2,0,15,0,1
48059,-211.441144114411,4,2,0,15,0,1
48079,-191.931296185341,4,2,0,15,0,1
48099,-174.822630525741,4,2,0,15,0,1
48120,-159.767248545303,4,2,0,15,0,1
48140,-146.471574455114,4,2,0,15,0,1
48160,-134.68815697267,4,2,0,15,0,1
48180,-124.208349489466,4,2,0,15,0,1
48200,-114.855981833393,4,2,0,15,0,1
48220,-106.481994459834,4,2,0,15,0,1
48241,-98.9599423334363,4,2,0,15,0,1
48261,-92.1822541966427,4,2,0,15,0,1
48281,-86.0571326229068,4,2,0,15,0,1
48301,-80.5059897796766,4,2,0,15,0,1
48321,-75.4613270514331,4,2,0,15,0,1
48341,-70.8649804586682,4,2,0,15,0,1
48362,-66.6666666666667,4,2,0,15,0,1
48382,-100,4,2,0,15,0,1
48705,-1000,4,2,0,15,0,1
48725.1333333333,-941.422594142259,4,2,0,15,0,1
48745.2666666667,-800.711743772242,4,2,0,15,0,1
48765.4,-641.025641025641,4,2,0,15,0,1
48785.5333333333,-501.113585746103,4,2,0,15,0,1
48805.6666666667,-391.304347826087,4,2,0,15,0,1
48825.8,-308.641975308642,4,2,0,15,0,1
48845.9333333333,-246.981339187706,4,2,0,15,0,1
48866.0666666667,-200.7136485281,4,2,0,15,0,1
48886.2,-165.562913907285,4,2,0,15,0,1
48906.3333333333,-138.461538461538,4,2,0,15,0,1
48926.4666666667,-117.248566961959,4,2,0,15,0,1
48946.6,-100.401606425703,4,2,0,15,0,1
48966.7333333333,-86.8390582786569,4,2,0,15,0,1
48986.8666666667,-75.7830919501516,4,2,0,15,0,1
49007,-66.6666666666667,4,2,0,15,0,1
49027,-100,4,2,0,15,0,1
49834,-250.000000000001,4,2,0,15,0,1
50318,-250,4,2,0,15,0,1
50338,-235.294117647059,4,2,0,15,0,1
50358,-222.222222222222,4,2,0,15,0,1
50378,-210.526315789474,4,2,0,15,0,1
50398,-200,4,2,0,15,0,1
50418,-190.47619047619,4,2,0,15,0,1
50439,-181.818181818182,4,2,0,15,0,1
50459,-173.913043478261,4,2,0,15,0,1
50479,-166.666666666667,4,2,0,15,0,1
50499,-160,4,2,0,15,0,1
50519,-153.846153846154,4,2,0,15,0,1
50539,-148.148148148148,4,2,0,15,0,1
50560,-142.857142857143,4,2,0,15,0,1
50580,-137.931034482759,4,2,0,15,0,1
50600,-133.333333333333,4,2,0,15,0,1
50620,-129.032258064516,4,2,0,15,0,1
50640,-125,4,2,0,15,0,1
50660,-121.212121212121,4,2,0,15,0,1
50681,-117.647058823529,4,2,0,15,0,1
50701,-114.285714285714,4,2,0,15,0,1
50721,-111.111111111111,4,2,0,15,0,1
50741,-108.108108108108,4,2,0,15,0,1
50761,-105.263157894737,4,2,0,15,0,1
50781,-102.564102564103,4,2,0,15,0,1
50802,-100,4,2,0,15,0,1
51285,-1000,4,2,0,15,0,1
51305.2,-941.422594142259,4,2,0,15,0,1
51325.4,-800.711743772242,4,2,0,15,0,1
51345.6,-641.025641025641,4,2,0,15,0,1
51365.8,-501.113585746103,4,2,0,15,0,1
51386,-391.304347826087,4,2,0,15,0,1
51406.2,-308.641975308642,4,2,0,15,0,1
51426.4,-246.981339187706,4,2,0,15,0,1
51446.6,-200.7136485281,4,2,0,15,0,1
51466.8,-165.562913907285,4,2,0,15,0,1
51487,-138.461538461538,4,2,0,15,0,1
51507.2,-117.248566961959,4,2,0,15,0,1
51527.4,-100.401606425703,4,2,0,15,0,1
51547.6,-86.8390582786569,4,2,0,15,0,1
51567.8,-75.7830919501516,4,2,0,15,0,1
51588,-66.6666666666667,4,2,0,15,0,1
51608,-100,4,2,0,15,0,1
53866,-1000,4,2,0,15,0,1
53886.2,-941.422594142259,4,2,0,15,0,1
53906.4,-800.711743772242,4,2,0,15,0,1
53926.6,-641.025641025641,4,2,0,15,0,1
53946.8,-501.113585746103,4,2,0,15,0,1
53967,-391.304347826087,4,2,0,15,0,1
53987.2,-308.641975308642,4,2,0,15,0,1
54007.4,-246.981339187706,4,2,0,15,0,1
54027.6,-200.7136485281,4,2,0,15,0,1
54047.8,-165.562913907285,4,2,0,15,0,1
54068,-138.461538461538,4,2,0,15,0,1
54088.2,-117.248566961959,4,2,0,15,0,1
54108.4,-100.401606425703,4,2,0,15,0,1
54128.6,-86.8390582786569,4,2,0,15,0,1
54148.8,-75.7830919501516,4,2,0,15,0,1
54169,-66.6666666666667,4,2,0,15,0,1
54189,-100,4,2,0,15,0,1
55802,-1000,4,2,0,15,0,1
55822.1333333333,-941.422594142259,4,2,0,15,0,1
55842.2666666667,-800.711743772242,4,2,0,15,0,1
55862.4,-641.025641025641,4,2,0,15,0,1
55882.5333333333,-501.113585746103,4,2,0,15,0,1
55902.6666666667,-391.304347826087,4,2,0,15,0,1
55922.8,-308.641975308642,4,2,0,15,0,1
55942.9333333333,-246.981339187706,4,2,0,15,0,1
55963.0666666667,-200.7136485281,4,2,0,15,0,1
55983.2,-165.562913907285,4,2,0,15,0,1
56003.3333333333,-138.461538461538,4,2,0,15,0,1
56023.4666666667,-117.248566961959,4,2,0,15,0,1
56043.6,-100.401606425703,4,2,0,15,0,1
56063.7333333333,-86.8390582786569,4,2,0,15,0,1
56083.8666666667,-75.7830919501516,4,2,0,15,0,1
56104,-66.6666666666667,4,2,0,15,0,1
56124,-100,4,2,0,15,0,1
56447,-1000,4,2,0,15,0,1
56467.1333333333,-941.422594142259,4,2,0,15,0,1
56487.2666666667,-800.711743772242,4,2,0,15,0,1
56507.4,-641.025641025641,4,2,0,15,0,1
56527.5333333333,-501.113585746103,4,2,0,15,0,1
56547.6666666667,-391.304347826087,4,2,0,15,0,1
56567.8,-308.641975308642,4,2,0,15,0,1
56587.9333333333,-246.981339187706,4,2,0,15,0,1
56608.0666666667,-200.7136485281,4,2,0,15,0,1
56628.2,-165.562913907285,4,2,0,15,0,1
56648.3333333333,-138.461538461538,4,2,0,15,0,1
56668.4666666667,-117.248566961959,4,2,0,15,0,1
56688.6,-100.401606425703,4,2,0,15,0,1
56708.7333333333,-86.8390582786569,4,2,0,15,0,1
56728.8666666667,-75.7830919501516,4,2,0,15,0,1
56749,-66.6666666666667,4,2,0,15,0,1
56769,-100,4,2,0,15,0,1
58060,-1000,4,2,0,15,0,1
58080,-985.641025641026,4,2,0,15,0,1
58100,-944.936086529007,4,2,0,15,0,1
58120,-884.084636614535,4,2,0,15,0,1
58140,-810.970464135021,4,2,0,15,0,1
58160,-733.02822273074,4,2,0,15,0,1
58180,-655.972696245734,4,2,0,15,0,1
58201,-583.485124468731,4,2,0,15,0,1
58221,-517.501346257404,4,2,0,15,0,1
58241,-458.711217183771,4,2,0,15,0,1
58261,-407.030919102075,4,2,0,15,0,1
58281,-361.95856873823,4,2,0,15,0,1
58301,-322.808196170642,4,2,0,15,0,1
58322,-288.848812744214,4,2,0,15,0,1
58342,-259.379217273954,4,2,0,15,0,1
58362,-233.763074677694,4,2,0,15,0,1
58382,-211.441144114411,4,2,0,15,0,1
58402,-191.931296185341,4,2,0,15,0,1
58422,-174.822630525741,4,2,0,15,0,1
58443,-159.767248545303,4,2,0,15,0,1
58463,-146.471574455114,4,2,0,15,0,1
58483,-134.68815697267,4,2,0,15,0,1
58503,-124.208349489466,4,2,0,15,0,1
58523,-114.855981833393,4,2,0,15,0,1
58543,-106.481994459834,4,2,0,15,0,1
58564,-98.9599423334363,4,2,0,15,0,1
58584,-92.1822541966427,4,2,0,15,0,1
58604,-86.0571326229068,4,2,0,15,0,1
58624,-80.5059897796766,4,2,0,15,0,1
58644,-75.4613270514331,4,2,0,15,0,1
58664,-70.8649804586682,4,2,0,15,0,1
58685,-66.6666666666667,4,2,0,15,0,1
58705,-100,4,2,0,15,0,1
61608,-1000,4,2,0,15,0,1
61628.1333333333,-941.422594142259,4,2,0,15,0,1
61648.2666666667,-800.711743772242,4,2,0,15,0,1
61668.4,-641.025641025641,4,2,0,15,0,1
61688.5333333333,-501.113585746103,4,2,0,15,0,1
61708.6666666667,-391.304347826087,4,2,0,15,0,1
61728.8,-308.641975308642,4,2,0,15,0,1
61748.9333333333,-246.981339187706,4,2,0,15,0,1
61769.0666666667,-200.7136485281,4,2,0,15,0,1
61789.2,-165.562913907285,4,2,0,15,0,1
61809.3333333333,-138.461538461538,4,2,0,15,0,1
61829.4666666667,-117.248566961959,4,2,0,15,0,1
61849.6,-100.401606425703,4,2,0,15,0,1
61869.7333333333,-86.8390582786569,4,2,0,15,0,1
61889.8666666667,-75.7830919501516,4,2,0,15,0,1
61910,-66.6666666666667,4,2,0,15,0,1
61931,-100,4,2,0,15,0,1
62253,-1000,4,2,0,15,0,1
62273.2,-941.422594142259,4,2,0,15,0,1
62293.4,-800.711743772242,4,2,0,15,0,1
62313.6,-641.025641025641,4,2,0,15,0,1
62333.8,-501.113585746103,4,2,0,15,0,1
62354,-391.304347826087,4,2,0,15,0,1
62374.2,-308.641975308642,4,2,0,15,0,1
62394.4,-246.981339187706,4,2,0,15,0,1
62414.6,-200.7136485281,4,2,0,15,0,1
62434.8,-165.562913907285,4,2,0,15,0,1
62455,-138.461538461538,4,2,0,15,0,1
62475.2,-117.248566961959,4,2,0,15,0,1
62495.4,-100.401606425703,4,2,0,15,0,1
62515.6,-86.8390582786569,4,2,0,15,0,1
62535.8,-75.7830919501516,4,2,0,15,0,1
62556,-66.6666666666667,4,2,0,15,0,1
62576,-100,4,2,0,15,0,1
63544,-100,4,2,0,15,0,0
64027,-12.5,4,2,0,15,0,0
64054,-125,4,2,0,15,0,0
64350,-12.5,4,2,0,15,0,0
64377,-125,4,2,0,15,0,0
64995,-100,4,2,0,15,0,0
66608,-12.5,4,2,0,15,0,0
66635,-125,4,2,0,15,0,0
66931,-12.5,4,2,0,15,0,0
66958,-125,4,2,0,15,0,0
67253,-100,4,2,0,15,0,0
69189,-25,4,2,0,15,0,0
69216,-125,4,2,0,15,0,0
69350,-100,4,2,0,15,0,0
69512,-12.5,4,2,0,15,0,0
69539,-125,4,2,0,15,0,0
69834,-100,4,2,0,15,0,0
74511,-1000,4,2,0,15,0,0
74531.2,-941.422594142259,4,2,0,15,0,0
74551.4,-800.711743772242,4,2,0,15,0,0
74571.6,-641.025641025641,4,2,0,15,0,0
74591.8,-501.113585746103,4,2,0,15,0,0
74612,-391.304347826087,4,2,0,15,0,0
74632.2,-308.641975308642,4,2,0,15,0,0
74652.4,-246.981339187706,4,2,0,15,0,0
74672.6,-200.7136485281,4,2,0,15,0,0
74692.8,-165.562913907285,4,2,0,15,0,0
74713,-138.461538461538,4,2,0,15,0,0
74733.2,-117.248566961959,4,2,0,15,0,0
74753.4,-100.401606425703,4,2,0,15,0,0
74773.6,-86.8390582786569,4,2,0,15,0,0
74793.8,-75.7830919501516,4,2,0,15,0,0
74814,-66.6666666666667,4,2,0,15,0,0
74834,-100,4,2,0,15,0,0
75156,-1000,4,2,0,15,0,0
75176.2,-941.422594142259,4,2,0,15,0,0
75196.4,-800.711743772242,4,2,0,15,0,0
75216.6,-641.025641025641,4,2,0,15,0,0
75236.8,-501.113585746103,4,2,0,15,0,0
75257,-391.304347826087,4,2,0,15,0,0
75277.2,-308.641975308642,4,2,0,15,0,0
75297.4,-246.981339187706,4,2,0,15,0,0
75317.6,-200.7136485281,4,2,0,15,0,0
75337.8,-165.562913907285,4,2,0,15,0,0
75358,-138.461538461538,4,2,0,15,0,0
75378.2,-117.248566961959,4,2,0,15,0,0
75398.4,-100.401606425703,4,2,0,15,0,0
75418.6,-86.8390582786569,4,2,0,15,0,0
75438.8,-75.7830919501516,4,2,0,15,0,0
75459,-66.6666666666667,4,2,0,15,0,0
75479,-100,4,2,0,15,0,0
76447,-1000,4,2,0,15,0,0
76467.1333333333,-941.422594142259,4,2,0,15,0,0
76487.2666666667,-800.711743772242,4,2,0,15,0,0
76507.4,-641.025641025641,4,2,0,15,0,0
76527.5333333333,-501.113585746103,4,2,0,15,0,0
76547.6666666667,-391.304347826087,4,2,0,15,0,0
76567.8,-308.641975308642,4,2,0,15,0,0
76587.9333333333,-246.981339187706,4,2,0,15,0,0
76608.0666666667,-200.7136485281,4,2,0,15,0,0
76628.2,-165.562913907285,4,2,0,15,0,0
76648.3333333333,-138.461538461538,4,2,0,15,0,0
76668.4666666667,-117.248566961959,4,2,0,15,0,0
76688.6,-100.401606425703,4,2,0,15,0,0
76708.7333333333,-86.8390582786569,4,2,0,15,0,0
76728.8666666667,-75.7830919501516,4,2,0,15,0,0
76749,-66.6666666666667,4,2,0,15,0,0
76769,-100,4,2,0,15,0,0
77092,-1000,4,2,0,15,0,0
77112.1333333333,-941.422594142259,4,2,0,15,0,0
77132.2666666667,-800.711743772242,4,2,0,15,0,0
77152.4,-641.025641025641,4,2,0,15,0,0
77172.5333333333,-501.113585746103,4,2,0,15,0,0
77192.6666666667,-391.304347826087,4,2,0,15,0,0
77212.8,-308.641975308642,4,2,0,15,0,0
77232.9333333333,-246.981339187706,4,2,0,15,0,0
77253.0666666667,-200.7136485281,4,2,0,15,0,0
77273.2,-165.562913907285,4,2,0,15,0,0
77293.3333333333,-138.461538461538,4,2,0,15,0,0
77313.4666666667,-117.248566961959,4,2,0,15,0,0
77333.6,-100.401606425703,4,2,0,15,0,0
77353.7333333333,-86.8390582786569,4,2,0,15,0,0
77373.8666666667,-75.7830919501516,4,2,0,15,0,0
77394,-66.6666666666667,4,2,0,15,0,0
77737,-1000,4,2,0,15,0,0
77757.2,-941.422594142259,4,2,0,15,0,0
77777.4,-800.711743772242,4,2,0,15,0,0
77797.6,-641.025641025641,4,2,0,15,0,0
77817.8,-501.113585746103,4,2,0,15,0,0
77838,-391.304347826087,4,2,0,15,0,0
77858.2,-308.641975308642,4,2,0,15,0,0
77878.4,-246.981339187706,4,2,0,15,0,0
77898.6,-200.7136485281,4,2,0,15,0,0
77918.8,-165.562913907285,4,2,0,15,0,0
77939,-138.461538461538,4,2,0,15,0,0
77959.2,-117.248566961959,4,2,0,15,0,0
77979.4,-100.401606425703,4,2,0,15,0,0
77999.6,-86.8390582786569,4,2,0,15,0,0
78019.8,-75.7830919501516,4,2,0,15,0,0
78040,-66.6666666666667,4,2,0,15,0,0
78060,-100,4,2,0,15,0,0
78705,-1000,4,2,0,15,0,0
78705,-100,4,2,0,15,0,0
78725,-985.641025641026,4,2,0,15,0,0
78745,-944.936086529007,4,2,0,15,0,0
78765,-884.084636614535,4,2,0,15,0,0
78785,-810.970464135021,4,2,0,15,0,0
78805,-733.02822273074,4,2,0,15,0,0
78825,-655.972696245734,4,2,0,15,0,0
78846,-583.485124468731,4,2,0,15,0,0
78866,-517.501346257404,4,2,0,15,0,0
78886,-458.711217183771,4,2,0,15,0,0
78906,-407.030919102075,4,2,0,15,0,0
78926,-361.95856873823,4,2,0,15,0,0
78946,-322.808196170642,4,2,0,15,0,0
78967,-288.848812744214,4,2,0,15,0,0
78987,-259.379217273954,4,2,0,15,0,0
79007,-233.763074677694,4,2,0,15,0,0
79027,-211.441144114411,4,2,0,15,0,0
79047,-191.931296185341,4,2,0,15,0,0
79067,-174.822630525741,4,2,0,15,0,0
79088,-159.767248545303,4,2,0,15,0,0
79108,-146.471574455114,4,2,0,15,0,0
79128,-134.68815697267,4,2,0,15,0,0
79148,-124.208349489466,4,2,0,15,0,0
79168,-114.855981833393,4,2,0,15,0,0
79188,-106.481994459834,4,2,0,15,0,0
79209,-98.9599423334363,4,2,0,15,0,0
79229,-92.1822541966427,4,2,0,15,0,0
79249,-86.0571326229068,4,2,0,15,0,0
79269,-80.5059897796766,4,2,0,15,0,0
79289,-75.4613270514331,4,2,0,15,0,0
79309,-70.8649804586682,4,2,0,15,0,0
79330,-66.6666666666667,4,2,0,15,0,0
79350,-100,4,2,0,15,0,0
80318,-1000,4,2,0,15,0,0
80338.1333333333,-941.422594142259,4,2,0,15,0,0
80358.2666666667,-800.711743772242,4,2,0,15,0,0
80378.4,-641.025641025641,4,2,0,15,0,0
80398.5333333333,-501.113585746103,4,2,0,15,0,0
80418.6666666667,-391.304347826087,4,2,0,15,0,0
80438.8,-308.641975308642,4,2,0,15,0,0
80458.9333333333,-246.981339187706,4,2,0,15,0,0
80479.0666666667,-200.7136485281,4,2,0,15,0,0
80499.2,-165.562913907285,4,2,0,15,0,0
80519.3333333333,-138.461538461538,4,2,0,15,0,0
80539.4666666667,-117.248566961959,4,2,0,15,0,0
80559.6,-100.401606425703,4,2,0,15,0,0
80579.7333333333,-86.8390582786569,4,2,0,15,0,0
80599.8666666667,-75.7830919501516,4,2,0,15,0,0
80620,-66.6666666666667,4,2,0,15,0,0
80640,-100,4,2,0,15,0,0
94189,-166.666666666667,4,2,0,30,0,0
135479,-100,4,2,0,30,0,0
145802,-1000,4,2,0,15,0,0
145802,-100,4,2,0,30,0,0
145822,-962.666666666667,4,2,0,15,0,0
145842,-865.707434052758,4,2,0,15,0,0
145862,-741.273100616016,4,2,0,15,0,0
145882,-617.094017094017,4,2,0,15,0,0
145902,-507.735583684951,4,2,0,15,0,0
145922,-417.341040462428,4,2,0,15,0,0
145943,-344.794651384909,4,2,0,15,0,0
145963,-287.191726332538,4,2,0,15,0,0
145983,-241.471571906355,4,2,0,15,0,0
146003,-204.997160704145,4,2,0,15,0,0
146023,-175.669099756691,4,2,0,15,0,0
146043,-151.87210769878,4,2,0,15,0,0
146064,-132.379904657132,4,2,0,15,0,0
146084,-116.264090177134,4,2,0,15,0,0
146104,-102.819709484477,4,2,0,15,0,0
146124,-91.5082382762991,4,2,0,15,0,0
146144,-81.9151350124801,4,2,0,15,0,0
146164,-73.7186032264652,4,2,0,15,0,0
146185,-66.6666666666667,4,2,0,15,0,0
146205,-100,4,2,0,15,0,0
146286,-1000,4,2,0,15,0,0
146306,-962.666666666667,4,2,0,15,0,0
146326,-865.707434052758,4,2,0,15,0,0
146346,-741.273100616016,4,2,0,15,0,0
146366,-617.094017094017,4,2,0,15,0,0
146386,-507.735583684951,4,2,0,15,0,0
146406,-417.341040462428,4,2,0,15,0,0
146427,-344.794651384909,4,2,0,15,0,0
146447,-287.191726332538,4,2,0,15,0,0
146467,-241.471571906355,4,2,0,15,0,0
146487,-204.997160704145,4,2,0,15,0,0
146507,-175.669099756691,4,2,0,15,0,0
146527,-151.87210769878,4,2,0,15,0,0
146548,-132.379904657132,4,2,0,15,0,0
146568,-116.264090177134,4,2,0,15,0,0
146588,-102.819709484477,4,2,0,15,0,0
146608,-91.5082382762991,4,2,0,15,0,0
146628,-81.9151350124801,4,2,0,15,0,0
146648,-73.7186032264652,4,2,0,15,0,0
146669,-66.6666666666667,4,2,0,15,0,0
146689,-100,4,2,0,15,0,0
146769,-1000,4,2,0,15,0,0
146789,-941.422594142259,4,2,0,15,0,0
146809,-800.711743772242,4,2,0,15,0,0
146829,-641.025641025641,4,2,0,15,0,0
146849,-501.113585746103,4,2,0,15,0,0
146869,-391.304347826087,4,2,0,15,0,0
146889,-308.641975308642,4,2,0,15,0,0
146909,-246.981339187706,4,2,0,15,0,0
146930,-200.7136485281,4,2,0,15,0,0
146950,-165.562913907285,4,2,0,15,0,0
146970,-138.461538461538,4,2,0,15,0,0
146990,-117.248566961959,4,2,0,15,0,0
147010,-100.401606425703,4,2,0,15,0,0
147030,-86.8390582786569,4,2,0,15,0,0
147050,-75.7830919501516,4,2,0,15,0,0
147071,-66.6666666666667,4,2,0,15,0,0
147092,-100,4,2,0,15,0,0
156124,-1000,4,2,0,15,0,1
156144,-985.641025641026,4,2,0,15,0,1
156164,-944.936086529007,4,2,0,15,0,1
156184,-884.084636614535,4,2,0,15,0,1
156204,-810.970464135021,4,2,0,15,0,1
156224,-733.02822273074,4,2,0,15,0,1
156244,-655.972696245734,4,2,0,15,0,1
156265,-583.485124468731,4,2,0,15,0,1
156285,-517.501346257404,4,2,0,15,0,1
156305,-458.711217183771,4,2,0,15,0,1
156325,-407.030919102075,4,2,0,15,0,1
156345,-361.95856873823,4,2,0,15,0,1
156365,-322.808196170642,4,2,0,15,0,1
156386,-288.848812744214,4,2,0,15,0,1
156406,-259.379217273954,4,2,0,15,0,1
156426,-233.763074677694,4,2,0,15,0,1
156446,-211.441144114411,4,2,0,15,0,1
156466,-191.931296185341,4,2,0,15,0,1
156486,-174.822630525741,4,2,0,15,0,1
156507,-159.767248545303,4,2,0,15,0,1
156527,-146.471574455114,4,2,0,15,0,1
156547,-134.68815697267,4,2,0,15,0,1
156567,-124.208349489466,4,2,0,15,0,1
156587,-114.855981833393,4,2,0,15,0,1
156607,-106.481994459834,4,2,0,15,0,1
156628,-98.9599423334363,4,2,0,15,0,1
156648,-92.1822541966427,4,2,0,15,0,1
156668,-86.0571326229068,4,2,0,15,0,1
156688,-80.5059897796766,4,2,0,15,0,1
156708,-75.4613270514331,4,2,0,15,0,1
156728,-70.8649804586682,4,2,0,15,0,1
156749,-66.6666666666667,4,2,0,15,0,1
156769,-100,4,2,0,15,0,1
157092,-1000,4,2,0,15,0,1
157112.133333333,-941.422594142259,4,2,0,15,0,1
157132.266666667,-800.711743772242,4,2,0,15,0,1
157152.4,-641.025641025641,4,2,0,15,0,1
157172.533333333,-501.113585746103,4,2,0,15,0,1
157192.666666667,-391.304347826087,4,2,0,15,0,1
157212.8,-308.641975308642,4,2,0,15,0,1
157232.933333333,-246.981339187706,4,2,0,15,0,1
157253.066666667,-200.7136485281,4,2,0,15,0,1
157273.2,-165.562913907285,4,2,0,15,0,1
157293.333333333,-138.461538461538,4,2,0,15,0,1
157313.466666667,-117.248566961959,4,2,0,15,0,1
157333.6,-100.401606425703,4,2,0,15,0,1
157353.733333333,-86.8390582786569,4,2,0,15,0,1
157373.866666667,-75.7830919501516,4,2,0,15,0,1
157394,-66.6666666666667,4,2,0,15,0,1
157415,-100,4,2,0,15,0,1
157737,-1000,4,2,0,15,0,1
157757.2,-941.422594142259,4,2,0,15,0,1
157777.4,-800.711743772242,4,2,0,15,0,1
157797.6,-641.025641025641,4,2,0,15,0,1
157817.8,-501.113585746103,4,2,0,15,0,1
157838,-391.304347826087,4,2,0,15,0,1
157858.2,-308.641975308642,4,2,0,15,0,1
157878.4,-246.981339187706,4,2,0,15,0,1
157898.6,-200.7136485281,4,2,0,15,0,1
157918.8,-165.562913907285,4,2,0,15,0,1
157939,-138.461538461538,4,2,0,15,0,1
157959.2,-117.248566961959,4,2,0,15,0,1
157979.4,-100.401606425703,4,2,0,15,0,1
157999.6,-86.8390582786569,4,2,0,15,0,1
158019.8,-75.7830919501516,4,2,0,15,0,1
158040,-66.6666666666667,4,2,0,15,0,1
158060,-100,4,2,0,15,0,1
159027,-1000,4,2,0,15,0,1
159047.2,-941.422594142259,4,2,0,15,0,1
159067.4,-800.711743772242,4,2,0,15,0,1
159087.6,-641.025641025641,4,2,0,15,0,1
159107.8,-501.113585746103,4,2,0,15,0,1
159128,-391.304347826087,4,2,0,15,0,1
159148.2,-308.641975308642,4,2,0,15,0,1
159168.4,-246.981339187706,4,2,0,15,0,1
159188.6,-200.7136485281,4,2,0,15,0,1
159208.8,-165.562913907285,4,2,0,15,0,1
159229,-138.461538461538,4,2,0,15,0,1
159249.2,-117.248566961959,4,2,0,15,0,1
159269.4,-100.401606425703,4,2,0,15,0,1
159289.6,-86.8390582786569,4,2,0,15,0,1
159309.8,-75.7830919501516,4,2,0,15,0,1
159330,-66.6666666666667,4,2,0,15,0,1
159350,-100,4,2,0,15,0,1
159673,-1000,4,2,0,15,0,1
159693.133333333,-941.422594142259,4,2,0,15,0,1
159713.266666667,-800.711743772242,4,2,0,15,0,1
159733.4,-641.025641025641,4,2,0,15,0,1
159753.533333333,-501.113585746103,4,2,0,15,0,1
159773.666666667,-391.304347826087,4,2,0,15,0,1
159793.8,-308.641975308642,4,2,0,15,0,1
159813.933333333,-246.981339187706,4,2,0,15,0,1
159834.066666667,-200.7136485281,4,2,0,15,0,1
159854.2,-165.562913907285,4,2,0,15,0,1
159874.333333333,-138.461538461538,4,2,0,15,0,1
159894.466666667,-117.248566961959,4,2,0,15,0,1
159914.6,-100.401606425703,4,2,0,15,0,1
159934.733333333,-86.8390582786569,4,2,0,15,0,1
159954.866666667,-75.7830919501516,4,2,0,15,0,1
159975,-66.6666666666667,4,2,0,15,0,1
159995,-100,4,2,0,15,0,1
160318,-1000,4,2,0,15,0,1
160338.133333333,-941.422594142259,4,2,0,15,0,1
160358.266666667,-800.711743772242,4,2,0,15,0,1
160378.4,-641.025641025641,4,2,0,15,0,1
160398.533333333,-501.113585746103,4,2,0,15,0,1
160418.666666667,-391.304347826087,4,2,0,15,0,1
160438.8,-308.641975308642,4,2,0,15,0,1
160458.933333333,-246.981339187706,4,2,0,15,0,1
160479.066666667,-200.7136485281,4,2,0,15,0,1
160499.2,-165.562913907285,4,2,0,15,0,1
160519.333333333,-138.461538461538,4,2,0,15,0,1
160539.466666667,-117.248566961959,4,2,0,15,0,1
160559.6,-100.401606425703,4,2,0,15,0,1
160579.733333333,-86.8390582786569,4,2,0,15,0,1
160599.866666667,-75.7830919501516,4,2,0,15,0,1
160620,-66.6666666666667,4,2,0,15,0,1
160640,-100,4,2,0,15,0,1
161285,-1000,4,2,0,15,0,1
161305,-985.641025641026,4,2,0,15,0,1
161325,-944.936086529007,4,2,0,15,0,1
161345,-884.084636614535,4,2,0,15,0,1
161365,-810.970464135021,4,2,0,15,0,1
161385,-733.02822273074,4,2,0,15,0,1
161405,-655.972696245734,4,2,0,15,0,1
161426,-583.485124468731,4,2,0,15,0,1
161446,-517.501346257404,4,2,0,15,0,1
161466,-458.711217183771,4,2,0,15,0,1
161486,-407.030919102075,4,2,0,15,0,1
161506,-361.95856873823,4,2,0,15,0,1
161526,-322.808196170642,4,2,0,15,0,1
161547,-288.848812744214,4,2,0,15,0,1
161567,-259.379217273954,4,2,0,15,0,1
161587,-233.763074677694,4,2,0,15,0,1
161607,-211.441144114411,4,2,0,15,0,1
161627,-191.931296185341,4,2,0,15,0,1
161647,-174.822630525741,4,2,0,15,0,1
161668,-159.767248545303,4,2,0,15,0,1
161688,-146.471574455114,4,2,0,15,0,1
161708,-134.68815697267,4,2,0,15,0,1
161728,-124.208349489466,4,2,0,15,0,1
161748,-114.855981833393,4,2,0,15,0,1
161768,-106.481994459834,4,2,0,15,0,1
161789,-98.9599423334363,4,2,0,15,0,1
161809,-92.1822541966427,4,2,0,15,0,1
161829,-86.0571326229068,4,2,0,15,0,1
161849,-80.5059897796766,4,2,0,15,0,1
161869,-75.4613270514331,4,2,0,15,0,1
161889,-70.8649804586682,4,2,0,15,0,1
161910,-66.6666666666667,4,2,0,15,0,1
161930,-100,4,2,0,15,0,1
162253,-1000,4,2,0,15,0,1
162273.2,-941.422594142259,4,2,0,15,0,1
162293.4,-800.711743772242,4,2,0,15,0,1
162313.6,-641.025641025641,4,2,0,15,0,1
162333.8,-501.113585746103,4,2,0,15,0,1
162354,-391.304347826087,4,2,0,15,0,1
162374.2,-308.641975308642,4,2,0,15,0,1
162394.4,-246.981339187706,4,2,0,15,0,1
162414.6,-200.7136485281,4,2,0,15,0,1
162434.8,-165.562913907285,4,2,0,15,0,1
162455,-138.461538461538,4,2,0,15,0,1
162475.2,-117.248566961959,4,2,0,15,0,1
162495.4,-100.401606425703,4,2,0,15,0,1
162515.6,-86.8390582786569,4,2,0,15,0,1
162535.8,-75.7830919501516,4,2,0,15,0,1
162556,-66.6666666666667,4,2,0,15,0,1
162576,-100,4,2,0,15,0,1
162898,-1000,4,2,0,15,0,1
162918.2,-941.422594142259,4,2,0,15,0,1
162938.4,-800.711743772242,4,2,0,15,0,1
162958.6,-641.025641025641,4,2,0,15,0,1
162978.8,-501.113585746103,4,2,0,15,0,1
162999,-391.304347826087,4,2,0,15,0,1
163019.2,-308.641975308642,4,2,0,15,0,1
163039.4,-246.981339187706,4,2,0,15,0,1
163059.6,-200.7136485281,4,2,0,15,0,1
163079.8,-165.562913907285,4,2,0,15,0,1
163100,-138.461538461538,4,2,0,15,0,1
163120.2,-117.248566961959,4,2,0,15,0,1
163140.4,-100.401606425703,4,2,0,15,0,1
163160.6,-86.8390582786569,4,2,0,15,0,1
163180.8,-75.7830919501516,4,2,0,15,0,1
163201,-66.6666666666667,4,2,0,15,0,1
163221,-100,4,2,0,15,0,1
163382,-250.000000000001,4,2,0,15,0,1
163866,-250,4,2,0,15,0,1
163886.166666667,-235.294117647059,4,2,0,15,0,1
163906.333333333,-222.222222222222,4,2,0,15,0,1
163926.5,-210.526315789474,4,2,0,15,0,1
163946.666666667,-200,4,2,0,15,0,1
163966.833333333,-190.47619047619,4,2,0,15,0,1
163987,-181.818181818182,4,2,0,15,0,1
164007.166666667,-173.913043478261,4,2,0,15,0,1
164027.333333333,-166.666666666667,4,2,0,15,0,1
164047.5,-160,4,2,0,15,0,1
164067.666666667,-153.846153846154,4,2,0,15,0,1
164087.833333333,-148.148148148148,4,2,0,15,0,1
164108,-142.857142857143,4,2,0,15,0,1
164128.166666667,-137.931034482759,4,2,0,15,0,1
164148.333333333,-133.333333333333,4,2,0,15,0,1
164168.5,-129.032258064516,4,2,0,15,0,1
164188.666666667,-125,4,2,0,15,0,1
164208.833333333,-121.212121212121,4,2,0,15,0,1
164229,-117.647058823529,4,2,0,15,0,1
164249.166666667,-114.285714285714,4,2,0,15,0,1
164269.333333333,-111.111111111111,4,2,0,15,0,1
164289.5,-108.108108108108,4,2,0,15,0,1
164309.666666667,-105.263157894737,4,2,0,15,0,1
164329.833333333,-102.564102564103,4,2,0,15,0,1
164350,-100,4,2,0,15,0,1
164834,-1000,4,2,0,15,0,1
164854.133333333,-941.422594142259,4,2,0,15,0,1
164874.266666667,-800.711743772242,4,2,0,15,0,1
164894.4,-641.025641025641,4,2,0,15,0,1
164914.533333333,-501.113585746103,4,2,0,15,0,1
164934.666666667,-391.304347826087,4,2,0,15,0,1
164954.8,-308.641975308642,4,2,0,15,0,1
164974.933333333,-246.981339187706,4,2,0,15,0,1
164995.066666667,-200.7136485281,4,2,0,15,0,1
165015.2,-165.562913907285,4,2,0,15,0,1
165035.333333333,-138.461538461538,4,2,0,15,0,1
165055.466666667,-117.248566961959,4,2,0,15,0,1
165075.6,-100.401606425703,4,2,0,15,0,1
165095.733333333,-86.8390582786569,4,2,0,15,0,1
165115.866666667,-75.7830919501516,4,2,0,15,0,1
165136,-66.6666666666667,4,2,0,15,0,1
165156,-100,4,2,0,15,0,1
165479,-1000,4,2,0,15,0,1
165499.133333333,-941.422594142259,4,2,0,15,0,1
165519.266666667,-800.711743772242,4,2,0,15,0,1
165539.4,-641.025641025641,4,2,0,15,0,1
165559.533333333,-501.113585746103,4,2,0,15,0,1
165579.666666667,-391.304347826087,4,2,0,15,0,1
165599.8,-308.641975308642,4,2,0,15,0,1
165619.933333333,-246.981339187706,4,2,0,15,0,1
165640.066666667,-200.7136485281,4,2,0,15,0,1
165660.2,-165.562913907285,4,2,0,15,0,1
165680.333333333,-138.461538461538,4,2,0,15,0,1
165700.466666667,-117.248566961959,4,2,0,15,0,1
165720.6,-100.401606425703,4,2,0,15,0,1
165740.733333333,-86.8390582786569,4,2,0,15,0,1
165760.866666667,-75.7830919501516,4,2,0,15,0,1
165781,-66.6666666666667,4,2,0,15,0,1
165802,-100,4,2,0,15,0,1
167415,-1000,4,2,0,15,0,1
167435.133333333,-941.422594142259,4,2,0,15,0,1
167455.266666667,-800.711743772242,4,2,0,15,0,1
167475.4,-641.025641025641,4,2,0,15,0,1
167495.533333333,-501.113585746103,4,2,0,15,0,1
167515.666666667,-391.304347826087,4,2,0,15,0,1
167535.8,-308.641975308642,4,2,0,15,0,1
167555.933333333,-246.981339187706,4,2,0,15,0,1
167576.066666667,-200.7136485281,4,2,0,15,0,1
167596.2,-165.562913907285,4,2,0,15,0,1
167616.333333333,-138.461538461538,4,2,0,15,0,1
167636.466666667,-117.248566961959,4,2,0,15,0,1
167656.6,-100.401606425703,4,2,0,15,0,1
167676.733333333,-86.8390582786569,4,2,0,15,0,1
167696.866666667,-75.7830919501516,4,2,0,15,0,1
167717,-66.6666666666667,4,2,0,15,0,1
167737,-100,4,2,0,15,0,1
168060,-1000,4,2,0,15,0,1
168080.133333333,-941.422594142259,4,2,0,15,0,1
168100.266666667,-800.711743772242,4,2,0,15,0,1
168120.4,-641.025641025641,4,2,0,15,0,1
168140.533333333,-501.113585746103,4,2,0,15,0,1
168160.666666667,-391.304347826087,4,2,0,15,0,1
168180.8,-308.641975308642,4,2,0,15,0,1
168200.933333333,-246.981339187706,4,2,0,15,0,1
168221.066666667,-200.7136485281,4,2,0,15,0,1
168241.2,-165.562913907285,4,2,0,15,0,1
168261.333333333,-138.461538461538,4,2,0,15,0,1
168281.466666667,-117.248566961959,4,2,0,15,0,1
168301.6,-100.401606425703,4,2,0,15,0,1
168321.733333333,-86.8390582786569,4,2,0,15,0,1
168341.866666667,-75.7830919501516,4,2,0,15,0,1
168362,-66.6666666666667,4,2,0,15,0,1
168382,-100,4,2,0,15,0,1
169350,-1000,4,2,0,15,0,1
169370.133333333,-941.422594142259,4,2,0,15,0,1
169390.266666667,-800.711743772242,4,2,0,15,0,1
169410.4,-641.025641025641,4,2,0,15,0,1
169430.533333333,-501.113585746103,4,2,0,15,0,1
169450.666666667,-391.304347826087,4,2,0,15,0,1
169470.8,-308.641975308642,4,2,0,15,0,1
169490.933333333,-246.981339187706,4,2,0,15,0,1
169511.066666667,-200.7136485281,4,2,0,15,0,1
169531.2,-165.562913907285,4,2,0,15,0,1
169551.333333333,-138.461538461538,4,2,0,15,0,1
169571.466666667,-117.248566961959,4,2,0,15,0,1
169591.6,-100.401606425703,4,2,0,15,0,1
169611.733333333,-86.8390582786569,4,2,0,15,0,1
169631.866666667,-75.7830919501516,4,2,0,15,0,1
169652,-66.6666666666667,4,2,0,15,0,1
169673,-100,4,2,0,15,0,1
169995,-1000,4,2,0,15,0,1
170015.2,-941.422594142259,4,2,0,15,0,1
170035.4,-800.711743772242,4,2,0,15,0,1
170055.6,-641.025641025641,4,2,0,15,0,1
170075.8,-501.113585746103,4,2,0,15,0,1
170096,-391.304347826087,4,2,0,15,0,1
170116.2,-308.641975308642,4,2,0,15,0,1
170136.4,-246.981339187706,4,2,0,15,0,1
170156.6,-200.7136485281,4,2,0,15,0,1
170176.8,-165.562913907285,4,2,0,15,0,1
170197,-138.461538461538,4,2,0,15,0,1
170217.2,-117.248566961959,4,2,0,15,0,1
170237.4,-100.401606425703,4,2,0,15,0,1
170257.6,-86.8390582786569,4,2,0,15,0,1
170277.8,-75.7830919501516,4,2,0,15,0,1
170298,-66.6666666666667,4,2,0,15,0,1
170318,-100,4,2,0,15,0,1
170640,-1000,4,2,0,15,0,1
170660.2,-941.422594142259,4,2,0,15,0,1
170680.4,-800.711743772242,4,2,0,15,0,1
170700.6,-641.025641025641,4,2,0,15,0,1
170720.8,-501.113585746103,4,2,0,15,0,1
170741,-391.304347826087,4,2,0,15,0,1
170761.2,-308.641975308642,4,2,0,15,0,1
170781.4,-246.981339187706,4,2,0,15,0,1
170801.6,-200.7136485281,4,2,0,15,0,1
170821.8,-165.562913907285,4,2,0,15,0,1
170842,-138.461538461538,4,2,0,15,0,1
170862.2,-117.248566961959,4,2,0,15,0,1
170882.4,-100.401606425703,4,2,0,15,0,1
170902.6,-86.8390582786569,4,2,0,15,0,1
170922.8,-75.7830919501516,4,2,0,15,0,1
170943,-66.6666666666667,4,2,0,15,0,1
170963,-100,4,2,0,15,0,1
171608,-1000,4,2,0,15,0,1
171628,-985.641025641026,4,2,0,15,0,1
171648,-944.936086529007,4,2,0,15,0,1
171668,-884.084636614535,4,2,0,15,0,1
171688,-810.970464135021,4,2,0,15,0,1
171708,-733.02822273074,4,2,0,15,0,1
171728,-655.972696245734,4,2,0,15,0,1
171749,-583.485124468731,4,2,0,15,0,1
171769,-517.501346257404,4,2,0,15,0,1
171789,-458.711217183771,4,2,0,15,0,1
171809,-407.030919102075,4,2,0,15,0,1
171829,-361.95856873823,4,2,0,15,0,1
171849,-322.808196170642,4,2,0,15,0,1
171870,-288.848812744214,4,2,0,15,0,1
171890,-259.379217273954,4,2,0,15,0,1
171910,-233.763074677694,4,2,0,15,0,1
171930,-211.441144114411,4,2,0,15,0,1
171950,-191.931296185341,4,2,0,15,0,1
171970,-174.822630525741,4,2,0,15,0,1
171991,-159.767248545303,4,2,0,15,0,1
172011,-146.471574455114,4,2,0,15,0,1
172031,-134.68815697267,4,2,0,15,0,1
172051,-124.208349489466,4,2,0,15,0,1
172071,-114.855981833393,4,2,0,15,0,1
172091,-106.481994459834,4,2,0,15,0,1
172112,-98.9599423334363,4,2,0,15,0,1
172132,-92.1822541966427,4,2,0,15,0,1
172152,-86.0571326229068,4,2,0,15,0,1
172172,-80.5059897796766,4,2,0,15,0,1
172192,-75.4613270514331,4,2,0,15,0,1
172212,-70.8649804586682,4,2,0,15,0,1
172233,-66.6666666666667,4,2,0,15,0,1
172253,-100,4,2,0,15,0,1
173221,-1000,4,2,0,15,0,1
173241.133333333,-941.422594142259,4,2,0,15,0,1
173261.266666667,-800.711743772242,4,2,0,15,0,1
173281.4,-641.025641025641,4,2,0,15,0,1
173301.533333333,-501.113585746103,4,2,0,15,0,1
173321.666666667,-391.304347826087,4,2,0,15,0,1
173341.8,-308.641975308642,4,2,0,15,0,1
173361.933333333,-246.981339187706,4,2,0,15,0,1
173382.066666667,-200.7136485281,4,2,0,15,0,1
173402.2,-165.562913907285,4,2,0,15,0,1
173422.333333333,-138.461538461538,4,2,0,15,0,1
173442.466666667,-117.248566961959,4,2,0,15,0,1
173462.6,-100.401606425703,4,2,0,15,0,1
173482.733333333,-86.8390582786569,4,2,0,15,0,1
173502.866666667,-75.7830919501516,4,2,0,15,0,1
173523,-66.6666666666667,4,2,0,15,0,1
173544,-100,4,2,0,15,0,1
175802,-1000,4,2,0,15,0,1
175822.133333333,-941.422594142259,4,2,0,15,0,1
175842.266666667,-800.711743772242,4,2,0,15,0,1
175862.4,-641.025641025641,4,2,0,15,0,1
175882.533333333,-501.113585746103,4,2,0,15,0,1
175902.666666667,-391.304347826087,4,2,0,15,0,1
175922.8,-308.641975308642,4,2,0,15,0,1
175942.933333333,-246.981339187706,4,2,0,15,0,1
175963.066666667,-200.7136485281,4,2,0,15,0,1
175983.2,-165.562913907285,4,2,0,15,0,1
176003.333333333,-138.461538461538,4,2,0,15,0,1
176023.466666667,-117.248566961959,4,2,0,15,0,1
176043.6,-100.401606425703,4,2,0,15,0,1
176063.733333333,-86.8390582786569,4,2,0,15,0,1
176083.866666667,-75.7830919501516,4,2,0,15,0,1
176104,-66.6666666666667,4,2,0,15,0,1
176124,-100,4,2,0,15,0,1
177092,-100,4,2,0,15,0,0
177576,-12.5,4,2,0,15,0,0
177603,-125,4,2,0,15,0,0
177899,-12.5,4,2,0,15,0,0
177926,-125,4,2,0,15,0,0
178544,-100,4,2,0,15,0,0
180157,-12.5,4,2,0,15,0,0
180184,-125,4,2,0,15,0,0
180480,-12.5,4,2,0,15,0,0
180507,-125,4,2,0,15,0,0
180802,-100,4,2,0,15,0,0
182738,-25,4,2,0,15,0,0
182765,-125,4,2,0,15,0,0
182899,-100,4,2,0,15,0,0
183061,-12.5,4,2,0,15,0,0
183088,-125,4,2,0,15,0,0
183383,-100,4,2,0,15,0,0
197576,-166.666666666667,4,2,0,30,0,0

[HitObjects]
256,192,156,5,0,0:0:0:0:
460,192,210,1,0,0:0:0:0:
192,192,264,1,0,0:0:0:0:
358,192,318,1,0,0:0:0:0:
64,192,372,1,0,0:0:0:0:
256,192,425,1,0,0:0:0:0:
460,192,479,1,0,0:0:0:0:
153,192,533,1,0,0:0:0:0:
358,192,587,1,0,0:0:0:0:
64,192,640,1,0,0:0:0:0:
320,192,748,1,0,0:0:0:0:
256,192,882,1,0,0:0:0:0:
256,192,1044,1,0,0:0:0:0:
153,192,1286,1,0,0:0:0:0:
448,192,1286,128,0,1931:0:0:0:0:
64,192,1286,128,0,1931:0:0:0:0:
256,192,8544,132,0,9189:0:0:0:0:
448,192,9189,128,0,10156:0:0:0:0:
256,192,11447,128,0,11608:0:0:0:0:
448,192,11608,128,0,12576:0:0:0:0:
64,192,11608,128,0,12576:0:0:0:0:
192,192,11608,1,0,0:0:0:0:
192,192,12146,1,0,0:0:0:0:
320,192,12253,1,0,0:0:0:0:
64,192,16769,128,0,21931:0:0:0:0:
320,192,21931,1,0,0:0:0:0:
192,192,22011,1,0,0:0:0:0:
448,192,22092,1,0,0:0:0:0:
64,192,22173,1,0,0:0:0:0:
256,192,22253,1,0,0:0:0:0:
448,192,22253,1,0,0:0:0:0:
192,192,22415,1,0,0:0:0:0:
64,192,22576,128,0,23221:0:0:0:0:
192,192,22898,128,0,23544:0:0:0:0:
358,192,23060,128,0,23544:0:0:0:0:
460,192,23221,128,0,23544:0:0:0:0:
256,192,23705,128,0,23866:0:0:0:0:
192,192,26124,1,0,0:0:0:0:
358,192,26232,1,0,0:0:0:0:
64,192,26339,1,0,0:0:0:0:
256,192,26447,1,0,0:0:0:0:
448,192,26447,1,0,0:0:0:0:
153,192,26608,1,0,0:0:0:0:
256,192,26769,128,0,27092:0:0:0:0:
192,192,27092,1,0,0:0:0:0:
64,192,27173,1,0,0:0:0:0:
320,192,27253,1,0,0:0:0:0:
448,192,27334,1,0,0:0:0:0:
192,192,27415,128,0,27576:0:0:0:0:
256,192,27737,128,0,27979:0:0:0:0:
448,192,27737,128,0,28060:0:0:0:0:
64,192,27737,1,0,0:0:0:0:
192,192,29189,128,0,30479:0:0:0:0:
358,192,30479,128,0,32253:0:0:0:0:
64,192,32253,128,0,32656:0:0:0:0:
153,192,32253,128,0,32656:0:0:0:0:
460,192,32253,1,0,0:0:0:0:
64,192,32737,128,0,33140:0:0:0:0:
153,192,32737,128,0,33140:0:0:0:0:
460,192,32737,1,0,0:0:0:0:
64,192,33221,128,0,33544:0:0:0:0:
153,192,33221,128,0,33544:0:0:0:0:
460,192,33221,1,0,0:0:0:0:
64,192,36769,1,0,0:0:0:0:
192,192,36877,1,0,0:0:0:0:
358,192,36984,1,0,0:0:0:0:
460,192,37092,1,0,0:0:0:0:
192,192,37173,1,0,0:0:0:0:
256,192,37253,1,0,0:0:0:0:
320,192,37334,1,0,0:0:0:0:
192,192,37415,1,0,0:0:0:0:
64,192,37415,1,0,0:0:0:0:
256,192,37576,1,0,0:0:0:0:
448,192,37576,1,0,0:0:0:0:
448,192,37737,1,0,0:0:0:0:
256,192,37737,1,0,0:0:0:0:
64,192,37898,1,0,0:0:0:0:
192,192,37898,1,0,0:0:0:0:
256,192,38060,1,0,0:0:0:0:
448,192,38060,1,0,0:0:0:0:
256,192,38221,1,0,0:0:0:0:
448,192,38221,1,0,0:0:0:0:
64,192,38382,1,0,0:0:0:0:
192,192,38382,128,0,38705:0:0:0:0:
256,192,38705,1,0,0:0:0:0:
320,192,38705,1,0,0:0:0:0:
448,192,38705,1,0,0:0:0:0:
192,192,39027,1,0,0:0:0:0:
320,192,39350,1,0,0:0:0:0:
192,192,39673,1,0,0:0:0:0:
320,192,39753,1,0,0:0:0:0:
64,192,39834,1,0,0:0:0:0:
192,192,39915,1,0,0:0:0:0:
460,192,39995,1,0,0:0:0:0:
320,192,40076,1,0,0:0:0:0:
192,192,40156,1,0,0:0:0:0:
64,192,40237,1,0,0:0:0:0:
256,192,40318,1,0,0:0:0:0:
460,192,40398,1,0,0:0:0:0:
192,192,40479,1,0,0:0:0:0:
358,192,40560,1,0,0:0:0:0:
153,192,40640,1,0,0:0:0:0:
256,192,40721,1,0,0:0:0:0:
358,192,40802,1,0,0:0:0:0:
51,192,40882,1,0,0:0:0:0:
448,192,40963,1,0,0:0:0:0:
256,192,41044,1,0,0:0:0:0:
64,192,41124,1,0,0:0:0:0:
320,192,41205,1,0,0:0:0:0:
153,192,41285,1,0,0:0:0:0:
256,192,41366,1,0,0:0:0:0:
320,192,41447,1,0,0:0:0:0:
64,192,41527,1,0,0:0:0:0:
192,192,41608,1,0,0:0:0:0:
358,192,41689,1,0,0:0:0:0:
256,192,41769,1,0,0:0:0:0:
192,192,41850,1,0,0:0:0:0:
358,192,41931,1,0,0:0:0:0:
460,192,42011,1,0,0:0:0:0:
256,192,42092,1,0,0:0:0:0:
64,192,42173,1,0,0:0:0:0:
192,192,42253,1,0,0:0:0:0:
448,192,42253,1,0,0:0:0:0:
64,192,42576,128,0,43221:0:0:0:0:
192,192,42576,128,0,43221:0:0:0:0:
256,192,42576,1,0,0:0:0:0:
448,192,43221,1,0,0:0:0:0:
256,192,43544,128,0,43866:0:0:0:0:
64,192,43544,1,0,0:0:0:0:
320,192,43866,1,0,0:0:0:0:
448,192,43947,1,0,0:0:0:0:
192,192,44027,1,0,0:0:0:0:
64,192,44108,1,0,0:0:0:0:
320,192,44189,128,0,44511:0:0:0:0:
448,192,44189,1,0,0:0:0:0:
64,192,44511,1,0,0:0:0:0:
256,192,44511,1,0,0:0:0:0:
153,192,44673,1,0,0:0:0:0:
320,192,45076,1,0,0:0:0:0:
448,192,45479,128,0,45802:0:0:0:0:
64,192,45479,128,0,45802:0:0:0:0:
192,192,45802,1,0,0:0:0:0:
320,192,45802,1,0,0:0:0:0:
192,192,46124,128,0,46447:0:0:0:0:
256,192,46124,128,0,46447:0:0:0:0:
64,192,46447,1,0,0:0:0:0:
460,192,46527,1,0,0:0:0:0:
64,192,46608,1,0,0:0:0:0:
448,192,46689,1,0,0:0:0:0:
256,192,46769,128,0,47092:0:0:0:0:
320,192,46769,128,0,47092:0:0:0:0:
64,192,47092,1,0,0:0:0:0:
448,192,47092,1,0,0:0:0:0:
192,192,47253,1,0,0:0:0:0:
448,192,47334,1,0,0:0:0:0:
64,192,47415,1,0,0:0:0:0:
256,192,47415,1,0,0:0:0:0:
320,192,47576,1,0,0:0:0:0:
64,192,47737,128,0,48382:0:0:0:0:
256,192,47737,128,0,48382:0:0:0:0:
448,192,47737,1,0,0:0:0:0:
448,192,48382,1,0,0:0:0:0:
256,192,48705,1,0,0:0:0:0:
448,192,48705,128,0,49027:0:0:0:0:
192,192,49027,1,0,0:0:0:0:
320,192,49108,1,0,0:0:0:0:
153,192,49189,1,0,0:0:0:0:
358,192,49269,1,0,0:0:0:0:
64,192,49350,128,0,49673:0:0:0:0:
256,192,49350,1,0,0:0:0:0:
358,192,49673,1,0,0:0:0:0:
448,192,49673,1,0,0:0:0:0:
192,192,49834,1,0,0:0:0:0:
256,192,49834,128,0,50802:0:0:0:0:
64,192,50802,1,0,0:0:0:0:
448,192,50802,1,0,0:0:0:0:
192,192,50963,128,0,51285:0:0:0:0:
320,192,50963,128,0,51285:0:0:0:0:
64,192,51285,128,0,51608:0:0:0:0:
448,192,51285,128,0,51608:0:0:0:0:
192,192,51608,1,0,0:0:0:0:
320,192,51689,1,0,0:0:0:0:
192,192,51769,1,0,0:0:0:0:
320,192,51850,1,0,0:0:0:0:
256,192,51931,1,0,0:0:0:0:
64,192,51931,128,0,52253:0:0:0:0:
192,192,52253,1,0,0:0:0:0:
448,192,52253,1,0,0:0:0:0:
320,192,52415,1,0,0:0:0:0:
448,192,52415,128,0,52737:0:0:0:0:
256,192,52737,1,0,0:0:0:0:
64,192,52898,1,0,0:0:0:0:
256,192,52952,1,0,0:0:0:0:
448,192,53006,1,0,0:0:0:0:
153,192,53060,1,0,0:0:0:0:
358,192,53113,1,0,0:0:0:0:
64,192,53167,1,0,0:0:0:0:
256,192,53221,1,0,0:0:0:0:
448,192,53329,1,0,0:0:0:0:
448,192,53436,1,0,0:0:0:0:
192,192,53544,128,0,53866:0:0:0:0:
256,192,53866,128,0,54189:0:0:0:0:
448,192,53866,128,0,54189:0:0:0:0:
64,192,54189,1,0,0:0:0:0:
192,192,54269,1,0,0:0:0:0:
448,192,54350,1,0,0:0:0:0:
320,192,54431,1,0,0:0:0:0:
64,192,54511,128,0,54834:0:0:0:0:
256,192,54511,1,0,0:0:0:0:
153,192,54834,1,0,0:0:0:0:
448,192,54834,1,0,0:0:0:0:
320,192,54995,1,0,0:0:0:0:
192,192,55398,1,0,0:0:0:0:
64,192,55802,128,0,56124:0:0:0:0:
256,192,55802,1,0,0:0:0:0:
192,192,56124,1,0,0:0:0:0:
448,192,56124,1,0,0:0:0:0:
320,192,56447,128,0,56769:0:0:0:0:
448,192,56447,1,0,0:0:0:0:
64,192,56769,1,0,0:0:0:0:
192,192,56850,1,0,0:0:0:0:
256,192,56931,128,0,57092:0:0:0:0:
448,192,56931,128,0,57092:0:0:0:0:
192,192,57092,128,0,57415:0:0:0:0:
64,192,57092,1,0,0:0:0:0:
320,192,57415,1,0,0:0:0:0:
448,192,57415,1,0,0:0:0:0:
64,192,57737,1,0,0:0:0:0:
256,192,57737,1,0,0:0:0:0:
64,192,57898,1,0,0:0:0:0:
192,192,58060,128,0,58705:0:0:0:0:
320,192,58060,128,0,58705:0:0:0:0:
448,192,58060,1,0,0:0:0:0:
64,192,58705,1,0,0:0:0:0:
448,192,58705,1,0,0:0:0:0:
358,192,59027,128,0,59350:0:0:0:0:
448,192,59027,128,0,59350:0:0:0:0:
64,192,59350,1,0,0:0:0:0:
192,192,59431,1,0,0:0:0:0:
320,192,59511,1,0,0:0:0:0:
256,192,59592,1,0,0:0:0:0:
64,192,59673,128,0,59995:0:0:0:0:
192,192,59673,1,0,0:0:0:0:
358,192,59995,1,0,0:0:0:0:
448,192,59995,1,0,0:0:0:0:
192,192,60156,1,0,0:0:0:0:
256,192,60156,128,0,60963:0:0:0:0:
64,192,60640,128,0,60963:0:0:0:0:
448,192,60640,128,0,60963:0:0:0:0:
192,192,61124,1,0,0:0:0:0:
320,192,61124,1,0,0:0:0:0:
64,192,61285,128,0,61608:0:0:0:0:
256,192,61285,128,0,61608:0:0:0:0:
448,192,61608,128,0,61931:0:0:0:0:
320,192,61608,128,0,61931:0:0:0:0:
192,192,61931,1,0,0:0:0:0:
64,192,62011,1,0,0:0:0:0:
256,192,62092,1,0,0:0:0:0:
192,192,62173,1,0,0:0:0:0:
320,192,62253,1,0,0:0:0:0:
448,192,62253,128,0,62576:0:0:0:0:
64,192,62576,1,0,0:0:0:0:
192,192,62576,128,0,62737:0:0:0:0:
320,192,62737,1,0,0:0:0:0:
448,192,62737,1,0,0:0:0:0:
64,192,62898,1,0,0:0:0:0:
192,192,62979,1,0,0:0:0:0:
358,192,62979,1,0,0:0:0:0:
460,192,63060,1,0,0:0:0:0:
64,192,63140,1,0,0:0:0:0:
256,192,63140,1,0,0:0:0:0:
448,192,63221,128,0,63544:0:0:0:0:
320,192,63382,128,0,63544:0:0:0:0:
192,192,63544,1,0,0:0:0:0:
64,192,63544,1,0,0:0:0:0:
448,192,63866,1,0,0:0:0:0:
64,192,64027,1,0,0:0:0:0:
256,192,64027,1,0,0:0:0:0:
64,192,64350,1,0,0:0:0:0:
256,192,64350,1,0,0:0:0:0:
192,192,64995,1,0,0:0:0:0:
320,192,64995,1,0,0:0:0:0:
448,192,65156,1,0,0:0:0:0:
256,192,65156,1,0,0:0:0:0:
64,192,65318,1,0,0:0:0:0:
256,192,65398,1,0,0:0:0:0:
448,192,65479,1,0,0:0:0:0:
153,192,65560,1,0,0:0:0:0:
358,192,65640,128,0,65802:0:0:0:0:
64,192,66124,1,0,0:0:0:0:
256,192,66124,1,0,0:0:0:0:
192,192,66124,1,0,0:0:0:0:
448,192,66447,1,0,0:0:0:0:
153,192,66608,1,0,0:0:0:0:
358,192,66608,1,0,0:0:0:0:
320,192,66931,1,0,0:0:0:0:
192,192,66931,1,0,0:0:0:0:
64,192,67253,1,0,0:0:0:0:
320,192,67334,1,0,0:0:0:0:
192,192,67415,1,0,0:0:0:0:
448,192,67495,1,0,0:0:0:0:
64,192,67576,1,0,0:0:0:0:
256,192,67576,1,0,0:0:0:0:
320,192,67737,128,0,68060:0:0:0:0:
448,192,67737,1,0,0:0:0:0:
64,192,67898,1,0,0:0:0:0:
192,192,67979,1,0,0:0:0:0:
448,192,68060,1,0,0:0:0:0:
256,192,68060,1,0,0:0:0:0:
51,192,68140,1,0,0:0:0:0:
358,192,68221,1,0,0:0:0:0:
448,192,68221,1,0,0:0:0:0:
153,192,68302,1,0,0:0:0:0:
256,192,68382,1,0,0:0:0:0:
448,192,68382,1,0,0:0:0:0:
320,192,68382,1,0,0:0:0:0:
64,192,68866,1,0,0:0:0:0:
256,192,68947,1,0,0:0:0:0:
153,192,69027,1,0,0:0:0:0:
448,192,69027,1,0,0:0:0:0:
64,192,69189,1,0,0:0:0:0:
358,192,69189,1,0,0:0:0:0:
153,192,69350,1,0,0:0:0:0:
256,192,69431,1,0,0:0:0:0:
358,192,69511,1,0,0:0:0:0:
64,192,69511,1,0,0:0:0:0:
256,192,69834,1,0,0:0:0:0:
64,192,69915,1,0,0:0:0:0:
358,192,69995,1,0,0:0:0:0:
192,192,70076,1,0,0:0:0:0:
320,192,70156,1,0,0:0:0:0:
448,192,70156,1,0,0:0:0:0:
64,192,70318,1,0,0:0:0:0:
256,192,70318,1,0,0:0:0:0:
153,192,70479,1,0,0:0:0:0:
358,192,70533,1,0,0:0:0:0:
256,192,70587,1,0,0:0:0:0:
153,192,70640,1,0,0:0:0:0:
320,192,70694,1,0,0:0:0:0:
153,192,70748,1,0,0:0:0:0:
358,192,70802,1,0,0:0:0:0:
192,192,70855,1,0,0:0:0:0:
256,192,70909,1,0,0:0:0:0:
320,192,70963,1,0,0:0:0:0:
51,192,71017,1,0,0:0:0:0:
256,192,71070,1,0,0:0:0:0:
448,192,71124,128,0,71285:0:0:0:0:
64,192,71285,1,0,0:0:0:0:
320,192,71285,1,0,0:0:0:0:
192,192,71447,1,0,0:0:0:0:
64,192,71527,1,0,0:0:0:0:
256,192,71608,1,0,0:0:0:0:
448,192,71608,1,0,0:0:0:0:
256,192,71769,1,0,0:0:0:0:
448,192,71769,1,0,0:0:0:0:
64,192,71931,1,0,0:0:0:0:
192,192,72011,1,0,0:0:0:0:
256,192,72092,1,0,0:0:0:0:
448,192,72092,1,0,0:0:0:0:
358,192,72415,1,0,0:0:0:0:
64,192,72576,128,0,72737:0:0:0:0:
192,192,72737,1,0,0:0:0:0:
448,192,72737,1,0,0:0:0:0:
320,192,72898,128,0,73060:0:0:0:0:
256,192,72898,1,0,0:0:0:0:
64,192,73060,1,0,0:0:0:0:
448,192,73060,1,0,0:0:0:0:
192,192,73382,1,0,0:0:0:0:
64,192,73544,1,0,0:0:0:0:
256,192,73597,1,0,0:0:0:0:
460,192,73651,1,0,0:0:0:0:
153,192,73705,1,0,0:0:0:0:
358,192,73759,1,0,0:0:0:0:
64,192,73812,1,0,0:0:0:0:
256,192,73866,1,0,0:0:0:0:
448,192,73974,1,0,0:0:0:0:
448,192,74081,1,0,0:0:0:0:
192,192,74189,128,0,74511:0:0:0:0:
256,192,74269,1,0,0:0:0:0:
460,192,74350,1,0,0:0:0:0:
358,192,74431,1,0,0:0:0:0:
64,192,74511,128,0,74834:0:0:0:0:
256,192,74511,1,0,0:0:0:0:
256,192,74834,1,0,0:0:0:0:
448,192,74915,1,0,0:0:0:0:
153,192,74995,1,0,0:0:0:0:
320,192,75076,1,0,0:0:0:0:
64,192,75156,128,0,75479:0:0:0:0:
256,192,75156,1,0,0:0:0:0:
448,192,75479,128,0,75640:0:0:0:0:
192,192,75479,1,0,0:0:0:0:
256,192,75640,128,0,75802:0:0:0:0:
192,192,75882,1,0,0:0:0:0:
448,192,76044,1,0,0:0:0:0:
64,192,76205,1,0,0:0:0:0:
320,192,76285,1,0,0:0:0:0:
192,192,76366,1,0,0:0:0:0:
256,192,76447,128,0,76769:0:0:0:0:
448,192,76447,128,0,76769:0:0:0:0:
192,192,76769,1,0,0:0:0:0:
51,192,76769,1,0,0:0:0:0:
64,192,77092,128,0,77415:0:0:0:0:
320,192,77092,1,0,0:0:0:0:
256,192,77415,1,0,0:0:0:0:
448,192,77737,128,0,78060:0:0:0:0:
192,192,77737,1,0,0:0:0:0:
320,192,78060,1,0,0:0:0:0:
64,192,78060,128,0,78382:0:0:0:0:
192,192,78382,1,0,0:0:0:0:
256,192,78382,1,0,0:0:0:0:
448,192,78544,1,0,0:0:0:0:
256,192,78705,128,0,79350:0:0:0:0:
64,192,78705,128,0,79350:0:0:0:0:
358,192,79350,1,0,0:0:0:0:
448,192,79350,1,0,0:0:0:0:
256,192,79673,128,0,79995:0:0:0:0:
448,192,79673,128,0,79995:0:0:0:0:
64,192,79995,1,0,0:0:0:0:
320,192,80076,1,0,0:0:0:0:
192,192,80156,1,0,0:0:0:0:
320,192,80237,1,0,0:0:0:0:
256,192,80318,1,0,0:0:0:0:
64,192,80318,128,0,80640:0:0:0:0:
192,192,80640,1,0,0:0:0:0:
448,192,80640,1,0,0:0:0:0:
320,192,80802,128,0,81608:0:0:0:0:
64,192,80802,1,0,0:0:0:0:
64,192,81285,128,0,81608:0:0:0:0:
448,192,81285,128,0,81608:0:0:0:0:
192,192,81769,1,0,0:0:0:0:
64,192,81769,1,0,0:0:0:0:
460,192,81931,1,0,0:0:0:0:
256,192,81931,128,0,82576:0:0:0:0:
460,192,82415,128,0,82576:0:0:0:0:
64,192,82576,1,0,0:0:0:0:
153,192,82576,1,0,0:0:0:0:
358,192,82656,1,0,0:0:0:0:
256,192,82737,1,0,0:0:0:0:
192,192,82818,1,0,0:0:0:0:
320,192,82898,1,0,0:0:0:0:
448,192,82898,1,0,0:0:0:0:
153,192,82979,1,0,0:0:0:0:
320,192,83060,1,0,0:0:0:0:
256,192,83140,1,0,0:0:0:0:
192,192,83221,1,0,0:0:0:0:
51,192,83221,1,0,0:0:0:0:
460,192,83302,1,0,0:0:0:0:
256,192,83382,1,0,0:0:0:0:
460,192,83463,1,0,0:0:0:0:
192,192,83544,1,0,0:0:0:0:
64,192,83544,128,0,83866:0:0:0:0:
320,192,83705,1,0,0:0:0:0:
256,192,83785,1,0,0:0:0:0:
460,192,83866,1,0,0:0:0:0:
153,192,83866,1,0,0:0:0:0:
256,192,84027,128,0,94189:0:0:0:0:
320,192,92898,128,0,94189:0:0:0:0:
192,192,93866,128,0,94189:0:0:0:0:
64,192,94189,1,0,0:0:0:0:
460,192,94189,1,0,0:0:0:0:
192,192,98060,128,0,99350:0:0:0:0:
256,192,99350,128,0,101931:0:0:0:0:
64,192,99350,1,0,0:0:0:0:
358,192,101931,128,0,104511:0:0:0:0:
192,192,104511,128,0,107092:0:0:0:0:
64,192,104511,1,0,0:0:0:0:
460,192,107092,128,0,109027:0:0:0:0:
64,192,109027,128,0,112898:0:0:0:0:
256,192,112898,128,0,114834:0:0:0:0:
460,192,114834,128,0,117415:0:0:0:0:
320,192,114834,1,0,0:0:0:0:
64,192,117415,128,0,119995:0:0:0:0:
256,192,119995,128,0,122576:0:0:0:0:
448,192,119995,1,0,0:0:0:0:
192,192,122576,128,0,123866:0:0:0:0:
64,192,123866,128,0,125156:0:0:0:0:
448,192,123866,1,0,0:0:0:0:
320,192,125156,128,0,126447:0:0:0:0:
192,192,125156,1,0,0:0:0:0:
448,192,126447,128,0,129027:0:0:0:0:
64,192,126447,1,0,0:0:0:0:
256,192,129027,128,0,130318:0:0:0:0:
320,192,130318,1,0,0:0:0:0:
64,192,130318,128,0,135479:0:0:0:0:
448,192,132898,128,0,135479:0:0:0:0:
192,192,135479,1,0,0:0:0:0:
320,192,135479,1,0,0:0:0:0:
64,192,143060,5,0,0:0:0:0:
64,192,143221,1,0,0:0:0:0:
192,192,143382,1,0,0:0:0:0:
192,192,143544,1,0,0:0:0:0:
320,192,143705,1,0,0:0:0:0:
320,192,143866,1,0,0:0:0:0:
448,192,144027,1,0,0:0:0:0:
448,192,144189,1,0,0:0:0:0:
64,192,144350,1,0,0:0:0:0:
64,192,144511,1,0,0:0:0:0:
256,192,144673,1,0,0:0:0:0:
256,192,144834,1,0,0:0:0:0:
460,192,144995,1,0,0:0:0:0:
460,192,145156,1,0,0:0:0:0:
153,192,145318,1,0,0:0:0:0:
153,192,145479,1,0,0:0:0:0:
358,192,145640,1,0,0:0:0:0:
448,192,145802,128,0,146205:0:0:0:0:
358,192,145802,128,0,146205:0:0:0:0:
256,192,145802,1,0,0:0:0:0:
448,192,146285,128,0,146689:0:0:0:0:
358,192,146285,128,0,146689:0:0:0:0:
256,192,146285,1,0,0:0:0:0:
448,192,146769,128,0,147092:0:0:0:0:
358,192,146769,128,0,147092:0:0:0:0:
256,192,146769,1,0,0:0:0:0:
153,192,150640,128,0,150963:0:0:0:0:
256,192,150963,1,0,0:0:0:0:
448,192,150963,1,0,0:0:0:0:
192,192,151124,1,0,0:0:0:0:
64,192,151124,1,0,0:0:0:0:
64,192,151285,1,0,0:0:0:0:
153,192,151285,1,0,0:0:0:0:
448,192,151447,1,0,0:0:0:0:
256,192,151447,1,0,0:0:0:0:
64,192,151608,1,0,0:0:0:0:
192,192,151608,1,0,0:0:0:0:
192,192,151769,1,0,0:0:0:0:
64,192,151769,1,0,0:0:0:0:
448,192,151931,1,0,0:0:0:0:
256,192,151931,128,0,152253:0:0:0:0:
192,192,152253,1,0,0:0:0:0:
64,192,152253,1,0,0:0:0:0:
320,192,152576,1,0,0:0:0:0:
192,192,152898,1,0,0:0:0:0:
320,192,153221,1,0,0:0:0:0:
448,192,153382,1,0,0:0:0:0:
64,192,153544,1,0,0:0:0:0:
320,192,153705,1,0,0:0:0:0:
153,192,153866,1,0,0:0:0:0:
320,192,154027,1,0,0:0:0:0:
192,192,154189,1,0,0:0:0:0:
460,192,154350,1,0,0:0:0:0:
64,192,154511,1,0,0:0:0:0:
448,192,154673,1,0,0:0:0:0:
64,192,154834,1,0,0:0:0:0:
320,192,154995,1,0,0:0:0:0:
192,192,155156,1,0,0:0:0:0:
448,192,155318,1,0,0:0:0:0:
192,192,155479,1,0,0:0:0:0:
320,192,155640,1,0,0:0:0:0:
256,192,155802,1,0,0:0:0:0:
64,192,155802,1,0,0:0:0:0:
192,192,156124,1,0,0:0:0:0:
320,192,156124,128,0,156769:0:0:0:0:
448,192,156124,128,0,156769:0:0:0:0:
64,192,156769,1,0,0:0:0:0:
320,192,157092,128,0,157415:0:0:0:0:
448,192,157092,1,0,0:0:0:0:
51,192,157415,1,0,0:0:0:0:
153,192,157495,1,0,0:0:0:0:
460,192,157576,1,0,0:0:0:0:
358,192,157656,1,0,0:0:0:0:
256,192,157737,128,0,158060:0:0:0:0:
64,192,157737,1,0,0:0:0:0:
448,192,158060,1,0,0:0:0:0:
153,192,158060,1,0,0:0:0:0:
448,192,158221,1,0,0:0:0:0:
256,192,158624,1,0,0:0:0:0:
448,192,159027,128,0,159350:0:0:0:0:
64,192,159027,128,0,159350:0:0:0:0:
320,192,159350,1,0,0:0:0:0:
192,192,159350,1,0,0:0:0:0:
192,192,159673,128,0,159995:0:0:0:0:
320,192,159673,128,0,159995:0:0:0:0:
256,192,159995,1,0,0:0:0:0:
64,192,160076,1,0,0:0:0:0:
256,192,160156,1,0,0:0:0:0:
460,192,160237,1,0,0:0:0:0:
192,192,160318,128,0,160640:0:0:0:0:
320,192,160318,128,0,160640:0:0:0:0:
64,192,160640,1,0,0:0:0:0:
256,192,160640,1,0,0:0:0:0:
320,192,160802,1,0,0:0:0:0:
64,192,160882,1,0,0:0:0:0:
192,192,160963,1,0,0:0:0:0:
448,192,160963,1,0,0:0:0:0:
256,192,161124,1,0,0:0:0:0:
320,192,161285,128,0,161931:0:0:0:0:
448,192,161285,128,0,161931:0:0:0:0:
64,192,161285,1,0,0:0:0:0:
153,192,161931,1,0,0:0:0:0:
256,192,162253,1,0,0:0:0:0:
64,192,162253,128,0,162576:0:0:0:0:
320,192,162576,1,0,0:0:0:0:
192,192,162656,1,0,0:0:0:0:
358,192,162737,1,0,0:0:0:0:
192,192,162818,1,0,0:0:0:0:
256,192,162898,1,0,0:0:0:0:
448,192,162898,128,0,163221:0:0:0:0:
153,192,163221,1,0,0:0:0:0:
64,192,163221,1,0,0:0:0:0:
256,192,163382,128,0,164350:0:0:0:0:
320,192,163382,1,0,0:0:0:0:
448,192,164350,1,0,0:0:0:0:
64,192,164350,1,0,0:0:0:0:
320,192,164511,128,0,164834:0:0:0:0:
192,192,164511,128,0,164834:0:0:0:0:
448,192,164834,128,0,165156:0:0:0:0:
64,192,164834,128,0,165156:0:0:0:0:
320,192,165156,1,0,0:0:0:0:
192,192,165237,1,0,0:0:0:0:
320,192,165318,1,0,0:0:0:0:
192,192,165398,1,0,0:0:0:0:
256,192,165479,1,0,0:0:0:0:
448,192,165479,128,0,165802:0:0:0:0:
320,192,165802,1,0,0:0:0:0:
64,192,165802,1,0,0:0:0:0:
256,192,165963,1,0,0:0:0:0:
64,192,165963,128,0,166285:0:0:0:0:
320,192,166285,1,0,0:0:0:0:
448,192,166447,1,0,0:0:0:0:
256,192,166501,1,0,0:0:0:0:
64,192,166554,1,0,0:0:0:0:
358,192,166608,1,0,0:0:0:0:
153,192,166662,1,0,0:0:0:0:
448,192,166716,1,0,0:0:0:0:
256,192,166769,1,0,0:0:0:0:
64,192,166877,1,0,0:0:0:0:
64,192,166984,1,0,0:0:0:0:
320,192,167092,128,0,167415:0:0:0:0:
256,192,167415,128,0,167737:0:0:0:0:
64,192,167415,128,0,167737:0:0:0:0:
448,192,167737,1,0,0:0:0:0:
320,192,167818,1,0,0:0:0:0:
64,192,167898,1,0,0:0:0:0:
192,192,167979,1,0,0:0:0:0:
448,192,168060,128,0,168382:0:0:0:0:
256,192,168060,1,0,0:0:0:0:
64,192,168382,1,0,0:0:0:0:
192,192,168382,128,0,168544:0:0:0:0:
320,192,168544,128,0,168705:0:0:0:0:
192,192,168866,128,0,169027:0:0:0:0:
64,192,169027,128,0,169350:0:0:0:0:
256,192,169027,128,0,169350:0:0:0:0:
358,192,169350,1,0,0:0:0:0:
448,192,169350,128,0,169673:0:0:0:0:
64,192,169673,1,0,0:0:0:0:
256,192,169673,1,0,0:0:0:0:
64,192,169995,1,0,0:0:0:0:
192,192,169995,128,0,170318:0:0:0:0:
448,192,170318,1,0,0:0:0:0:
320,192,170398,1,0,0:0:0:0:
64,192,170479,128,0,170640:0:0:0:0:
256,192,170479,128,0,170640:0:0:0:0:
320,192,170640,128,0,170963:0:0:0:0:
448,192,170640,1,0,0:0:0:0:
64,192,170963,1,0,0:0:0:0:
192,192,170963,1,0,0:0:0:0:
448,192,171285,1,0,0:0:0:0:
192,192,171285,1,0,0:0:0:0:
448,192,171447,1,0,0:0:0:0:
64,192,171608,1,0,0:0:0:0:
256,192,171608,128,0,172253:0:0:0:0:
320,192,171608,128,0,172253:0:0:0:0:
448,192,172253,1,0,0:0:0:0:
153,192,172253,1,0,0:0:0:0:
64,192,172576,128,0,172898:0:0:0:0:
192,192,172576,128,0,172898:0:0:0:0:
448,192,172898,1,0,0:0:0:0:
320,192,172979,1,0,0:0:0:0:
256,192,173060,1,0,0:0:0:0:
153,192,173140,1,0,0:0:0:0:
448,192,173221,128,0,173544:0:0:0:0:
51,192,173221,1,0,0:0:0:0:
64,192,173544,1,0,0:0:0:0:
153,192,173544,1,0,0:0:0:0:
256,192,173705,128,0,174511:0:0:0:0:
320,192,173705,1,0,0:0:0:0:
64,192,174189,128,0,174511:0:0:0:0:
448,192,174189,128,0,174511:0:0:0:0:
320,192,174673,1,0,0:0:0:0:
192,192,174673,1,0,0:0:0:0:
448,192,174834,128,0,175156:0:0:0:0:
320,192,174834,128,0,175156:0:0:0:0:
64,192,175156,128,0,175479:0:0:0:0:
192,192,175156,128,0,175479:0:0:0:0:
256,192,175479,1,0,0:0:0:0:
358,192,175560,1,0,0:0:0:0:
192,192,175640,1,0,0:0:0:0:
320,192,175721,1,0,0:0:0:0:
64,192,175802,128,0,176124:0:0:0:0:
256,192,175802,1,0,0:0:0:0:
320,192,176124,128,0,176285:0:0:0:0:
448,192,176124,1,0,0:0:0:0:
64,192,176285,1,0,0:0:0:0:
256,192,176285,1,0,0:0:0:0:
448,192,176447,1,0,0:0:0:0:
153,192,176527,1,0,0:0:0:0:
64,192,176527,1,0,0:0:0:0:
256,192,176608,1,0,0:0:0:0:
448,192,176689,1,0,0:0:0:0:
358,192,176689,1,0,0:0:0:0:
64,192,176769,128,0,177092:0:0:0:0:
192,192,176931,128,0,177092:0:0:0:0:
256,192,177092,1,0,0:0:0:0:
448,192,177092,1,0,0:0:0:0:
358,192,177092,1,0,0:0:0:0:
64,192,177415,1,0,0:0:0:0:
256,192,177576,1,0,0:0:0:0:
448,192,177576,1,0,0:0:0:0:
448,192,177898,1,0,0:0:0:0:
256,192,177898,1,0,0:0:0:0:
320,192,178544,1,0,0:0:0:0:
192,192,178544,1,0,0:0:0:0:
460,192,178705,1,0,0:0:0:0:
64,192,178705,1,0,0:0:0:0:
153,192,178866,1,0,0:0:0:0:
320,192,178947,1,0,0:0:0:0:
256,192,179027,1,0,0:0:0:0:
192,192,179108,1,0,0:0:0:0:
320,192,179189,128,0,179350:0:0:0:0:
448,192,179673,1,0,0:0:0:0:
320,192,179673,1,0,0:0:0:0:
192,192,179673,1,0,0:0:0:0:
64,192,179995,1,0,0:0:0:0:
358,192,180156,1,0,0:0:0:0:
153,192,180156,1,0,0:0:0:0:
320,192,180479,1,0,0:0:0:0:
192,192,180479,1,0,0:0:0:0:
358,192,180802,1,0,0:0:0:0:
192,192,180882,1,0,0:0:0:0:
320,192,180963,1,0,0:0:0:0:
153,192,181044,1,0,0:0:0:0:
256,192,181124,1,0,0:0:0:0:
448,192,181124,1,0,0:0:0:0:
64,192,181285,1,0,0:0:0:0:
192,192,181285,128,0,181608:0:0:0:0:
448,192,181447,1,0,0:0:0:0:
320,192,181527,1,0,0:0:0:0:
64,192,181608,1,0,0:0:0:0:
256,192,181608,1,0,0:0:0:0:
460,192,181689,1,0,0:0:0:0:
358,192,181769,1,0,0:0:0:0:
64,192,181769,1,0,0:0:0:0:
256,192,181850,1,0,0:0:0:0:
460,192,181931,1,0,0:0:0:0:
64,192,181931,1,0,0:0:0:0:
192,192,181931,1,0,0:0:0:0:
448,192,182415,1,0,0:0:0:0:
320,192,182495,1,0,0:0:0:0:
256,192,182576,1,0,0:0:0:0:
64,192,182576,1,0,0:0:0:0:
448,192,182737,1,0,0:0:0:0:
320,192,182737,1,0,0:0:0:0:
153,192,182898,1,0,0:0:0:0:
51,192,182979,1,0,0:0:0:0:
448,192,183060,1,0,0:0:0:0:
320,192,183060,1,0,0:0:0:0:
192,192,183382,1,0,0:0:0:0:
448,192,183463,1,0,0:0:0:0:
153,192,183544,1,0,0:0:0:0:
320,192,183624,1,0,0:0:0:0:
256,192,183705,1,0,0:0:0:0:
64,192,183705,1,0,0:0:0:0:
320,192,183866,1,0,0:0:0:0:
448,192,183866,1,0,0:0:0:0:
192,192,184027,128,0,184350:0:0:0:0:
256,192,184350,128,0,184834:0:0:0:0:
64,192,184673,128,0,184834:0:0:0:0:
448,192,184834,1,0,0:0:0:0:
192,192,184834,1,0,0:0:0:0:
320,192,184995,1,0,0:0:0:0:
448,192,185076,1,0,0:0:0:0:
256,192,185156,1,0,0:0:0:0:
64,192,185156,1,0,0:0:0:0:
64,192,185318,1,0,0:0:0:0:
256,192,185318,1,0,0:0:0:0:
448,192,185479,1,0,0:0:0:0:
320,192,185560,1,0,0:0:0:0:
64,192,185640,1,0,0:0:0:0:
256,192,185640,1,0,0:0:0:0:
320,192,185963,1,0,0:0:0:0:
448,192,186124,128,0,186285:0:0:0:0:
153,192,186285,1,0,0:0:0:0:
64,192,186285,1,0,0:0:0:0:
320,192,186447,1,0,0:0:0:0:
256,192,186447,128,0,186608:0:0:0:0:
448,192,186608,1,0,0:0:0:0:
64,192,186608,1,0,0:0:0:0:
320,192,186931,1,0,0:0:0:0:
448,192,187092,1,0,0:0:0:0:
256,192,187146,1,0,0:0:0:0:
51,192,187199,1,0,0:0:0:0:
153,192,187253,1,0,0:0:0:0:
320,192,187307,1,0,0:0:0:0:
448,192,187361,1,0,0:0:0:0:
256,192,187415,1,0,0:0:0:0:
64,192,187522,1,0,0:0:0:0:
64,192,187630,1,0,0:0:0:0:
320,192,187737,128,0,188060:0:0:0:0:
448,192,187818,1,0,0:0:0:0:
192,192,187898,1,0,0:0:0:0:
64,192,187979,1,0,0:0:0:0:
448,192,188060,128,0,188382:0:0:0:0:
256,192,188060,1,0,0:0:0:0:
256,192,188382,1,0,0:0:0:0:
64,192,188463,1,0,0:0:0:0:
358,192,188544,1,0,0:0:0:0:
192,192,188624,1,0,0:0:0:0:
448,192,188705,128,0,189027:0:0:0:0:
256,192,188705,1,0,0:0:0:0:
64,192,189027,128,0,189189:0:0:0:0:
320,192,189027,1,0,0:0:0:0:
256,192,189189,128,0,189350:0:0:0:0:
320,192,189431,1,0,0:0:0:0:
153,192,189592,1,0,0:0:0:0:
448,192,189753,1,0,0:0:0:0:
192,192,189834,1,0,0:0:0:0:
320,192,189915,1,0,0:0:0:0:
256,192,189995,128,0,190318:0:0:0:0:
64,192,189995,1,0,0:0:0:0:
192,192,190318,1,0,0:0:0:0:
320,192,190318,1,0,0:0:0:0:
51,192,190640,128,0,190963:0:0:0:0:
448,192,190640,1,0,0:0:0:0:
320,192,190963,1,0,0:0:0:0:
448,192,191044,1,0,0:0:0:0:
256,192,191124,128,0,191285:0:0:0:0:
320,192,191285,1,0,0:0:0:0:
64,192,191285,128,0,191608:0:0:0:0:
448,192,191608,128,0,191931:0:0:0:0:
256,192,191608,1,0,0:0:0:0:
64,192,191931,1,0,0:0:0:0:
320,192,191931,1,0,0:0:0:0:
64,192,192092,1,0,0:0:0:0:
256,192,192253,128,0,192898:0:0:0:0:
460,192,192253,1,0,0:0:0:0:
64,192,192898,1,0,0:0:0:0:
153,192,192898,1,0,0:0:0:0:
256,192,193060,1,0,0:0:0:0:
192,192,193140,1,0,0:0:0:0:
460,192,193221,128,0,193544:0:0:0:0:
51,192,193221,1,0,0:0:0:0:
358,192,193544,1,0,0:0:0:0:
192,192,193624,1,0,0:0:0:0:
320,192,193705,1,0,0:0:0:0:
192,192,193785,1,0,0:0:0:0:
448,192,193866,128,0,194189:0:0:0:0:
256,192,193866,1,0,0:0:0:0:
320,192,194189,1,0,0:0:0:0:
64,192,194189,1,0,0:0:0:0:
256,192,194350,128,0,195156:0:0:0:0:
153,192,194350,1,0,0:0:0:0:
448,192,194834,128,0,195156:0:0:0:0:
64,192,194834,128,0,195156:0:0:0:0:
448,192,195318,1,0,0:0:0:0:
320,192,195318,1,0,0:0:0:0:
64,192,195479,128,0,196124:0:0:0:0:
256,192,195479,1,0,0:0:0:0:
192,192,195963,128,0,196124:0:0:0:0:
448,192,196124,1,0,0:0:0:0:
358,192,196124,1,0,0:0:0:0:
256,192,196205,1,0,0:0:0:0:
192,192,196285,1,0,0:0:0:0:
320,192,196366,1,0,0:0:0:0:
192,192,196447,1,0,0:0:0:0:
64,192,196447,1,0,0:0:0:0:
256,192,196527,1,0,0:0:0:0:
358,192,196608,1,0,0:0:0:0:
153,192,196689,1,0,0:0:0:0:
460,192,196769,1,0,0:0:0:0:
320,192,196769,1,0,0:0:0:0:
256,192,196850,1,0,0:0:0:0:
153,192,196931,1,0,0:0:0:0:
358,192,197011,1,0,0:0:0:0:
448,192,197092,128,0,197415:0:0:0:0:
51,192,197092,1,0,0:0:0:0:
192,192,197253,1,0,0:0:0:0:
256,192,197334,1,0,0:0:0:0:
320,192,197415,1,0,0:0:0:0:
51,192,197415,1,0,0:0:0:0:
256,192,197576,128,0,198705:0:0:0:0:
192,192,201285,128,0,202576:0:0:0:0:
64,192,202576,1,0,0:0:0:0:
320,192,202576,128,0,205156:0:0:0:0:
256,192,205156,128,0,207737:0:0:0:0:
192,192,207737,128,0,210318:0:0:0:0:
64,192,207737,1,0,0:0:0:0:
320,192,210318,128,0,212253:0:0:0:0:
64,192,212253,128,0,216124:0:0:0:0:
256,192,216124,128,0,218060:0:0:0:0:
460,192,218060,128,0,220640:0:0:0:0:
320,192,218060,1,0,0:0:0:0:
64,192,220640,128,0,223221:0:0:0:0:
448,192,223221,1,0,0:0:0:0:
320,192,223221,128,0,225802:0:0:0:0:
192,192,225802,128,0,227092:0:0:0:0:
64,192,227092,128,0,228382:0:0:0:0:
320,192,227092,1,0,0:0:0:0:
192,192,228382,1,0,0:0:0:0:
256,192,228382,128,0,229673:0:0:0:0:
448,192,229673,128,0,232253:0:0:0:0:
64,192,229673,1,0,0:0:0:0:
192,192,232253,128,0,233544:0:0:0:0:
256,192,233544,128,0,236124:0:0:0:0:
64,192,233544,1,0,0:0:0:0:
358,192,236124,128,0,238705:0:0:0:0:
460,192,238705,1,0,0:0:0:0:
