osu file format v14

[General]
AudioFilename: 10+cherry+blossoms+explode+across+the+dying+horizon.mp3
AudioLeadIn: 0
PreviewTime: 37061
Countdown: 0
SampleSet: Soft
StackLeniency: 0.7
Mode: 0
LetterboxInBreaks: 0
WidescreenStoryboard: 1

[Editor]
Bookmarks: 184770,232077
DistanceSpacing: 2
BeatDivisor: 4
GridSize: 8
TimelineZoom: 4.8

[Metadata]
Title:cherry blossoms explode across the dying horizon
TitleUnicode:「cherry blossoms explode across the dying horizon」
Artist:sakuraburst
ArtistUnicode:【sakuraburst】
Creator:den0saur
Version:4,6783(7)
Source:
Tags:EvilElvis v2 Jounzan deconstructing nature ambient glitch heavy idm noise distorted horizons featured artist osu!
BeatmapID:1977553
BeatmapSetID:946801

[Difficulty]
HPDrainRate:5
CircleSize:4
OverallDifficulty:7
ApproachRate:8.7
SliderMultiplier:0.400000005960464
SliderTickRate:1

[Events]
//Background and Video events
0,0,"ggwp.jpg",0,0
//Break Periods
2,62085,67202
//Storyboard Layer 0 (Background)
//Storyboard Layer 1 (Fail)
//Storyboard Layer 2 (Pass)
//Storyboard Layer 3 (Foreground)
//Storyboard Sound Samples

[TimingPoints]
37078,384.615384615385,4,2,0,50,1,0
61693,-20,4,2,2,50,0,0
74001,-50,4,2,0,50,0,0
74385,-100,4,2,0,50,0,0
80154,-50,4,2,0,50,0,0
80924,-100,4,2,0,50,0,0
83231,-200,4,2,0,50,0,0
86308,-50,4,2,0,50,0,0
87077,-100,4,2,0,50,0,0
90154,-20,4,2,1,50,0,0
92462,-200,4,2,0,50,0,0
95539,-200,4,2,0,25,0,0
96308,-200,4,2,0,50,0,0
97847,-100,4,2,0,50,0,0
98616,-20,4,2,2,50,0,0
99001,-100,4,2,2,50,0,0
104770,-20,4,2,2,50,0,0
107077,-100,4,2,2,50,0,0
110539,-20,4,2,1,50,0,0
116693,-200,4,2,0,50,0,0
117078,-200,4,2,1,50,0,0
120539,-100,4,2,1,50,0,0
122847,-20,4,2,1,50,0,0
123231,-14.2857142857143,4,2,1,70,0,0
123616,-100,4,2,1,70,0,0
123904,-14.2857142857143,4,2,1,70,0,0
124193,-133.333333333333,4,2,1,70,0,0
124770,-50,4,2,1,70,0,0
125154,-14.2857142857143,4,2,1,70,0,0
125924,-200,4,2,1,70,0,0
126308,-20,4,2,1,70,0,0
126693,-100,4,2,1,70,0,0
127077,-14.2857142857143,4,2,1,70,0,0
128231,-20,4,2,1,70,0,0
129193,-133.333333333333,4,2,1,70,0,0
129770,-20,4,2,1,70,0,0
130347,-100,4,2,1,70,0,0
130924,-20,4,2,1,70,0,0
132077,-100,4,2,1,70,0,0
132462,-14.2857142857143,4,2,1,70,0,0
132847,-100,4,2,1,70,0,0
133135,-20,4,2,1,70,0,0
133616,-100,4,2,1,70,0,0
133904,-20,4,2,1,70,0,0
134385,-100,4,2,1,70,0,0
134674,-20,4,2,1,70,0,0
135539,-10,4,2,1,70,0,0
135924,-100,4,2,1,70,0,0
136212,-14.2857142857143,4,2,1,70,0,0
136501,-133.333333333333,4,2,1,70,0,0
137077,-50,4,2,1,70,0,0
137462,-14.2857142857143,4,2,1,70,0,0
137751,-20,4,2,1,70,0,0
138231,-50,4,2,1,70,0,0
138616,-14.2857142857143,4,2,1,70,0,0
139001,-20,4,2,1,70,0,0
139385,-10,4,2,1,70,0,0
139626,-20,4,2,1,70,0,0
140539,-14.2857142857143,4,2,1,70,0,0
140827,-20,4,2,1,70,0,0
141116,-100,4,2,1,70,0,0
141693,-14.2857142857143,4,2,1,70,0,0
142077,-20,4,2,1,70,0,0
142462,-10,4,2,1,70,0,0
142847,-200,4,2,1,70,0,0
143231,-14.2857142857143,4,2,1,70,0,0
143616,-20,4,2,1,70,0,0
143904,-50,4,2,1,70,0,0
144770,-14.2857142857143,4,2,1,70,0,0
145154,-100,4,2,1,70,0,0
145443,-20,4,2,1,70,0,0
145731,-14.2857142857143,4,2,1,70,0,0
145924,-100,4,2,1,70,0,0
146212,-20,4,2,1,70,0,0
146501,-14.2857142857143,4,2,1,70,0,0
146693,-100,4,2,1,70,0,0
146981,-20,4,2,1,70,0,0
147270,-14.2857142857143,4,2,1,70,0,0
147462,-200,4,2,2,70,0,0
147558,-200,4,2,1,70,0,0
147847,-33.3333333333333,4,2,1,70,0,0
148327,-20,4,2,1,70,0,0
148616,-10,4,2,1,70,0,0
148904,-20,4,2,1,70,0,0
149385,-10,4,2,1,70,0,0
149577,-20,4,2,1,70,0,0
150154,-33.3333333333333,4,2,1,70,0,0
150539,-33.3333333333333,4,2,2,70,0,0
150924,-33.3333333333333,4,2,1,70,0,0
151404,-50,4,2,1,70,0,0
151693,-14.2857142857143,4,2,1,70,0,0
151981,-20,4,2,1,70,0,0
152366,-200,4,2,1,70,0,0
152751,-20,4,2,1,70,0,0
153039,-33.3333333333333,4,2,1,70,0,0
153616,-14.2857142857143,4,2,2,70,0,0
153712,-14.2857142857143,4,2,1,70,0,0
154001,-33.3333333333333,4,2,1,70,0,0
154481,-50,4,2,1,70,0,0
154770,-10,4,2,1,70,0,0
155058,-20,4,2,1,70,0,0
155539,-10,4,2,1,70,0,0
155827,-20,4,2,1,70,0,0
156308,-33.3333333333333,4,2,1,70,0,0
156693,-33.3333333333333,4,2,2,70,0,0
157077,-133.333333333333,4,2,1,70,0,0
157847,-14.2857142857143,4,2,1,50,0,0
158231,-200,4,2,1,40,0,0
160154,-33.3333333333333,4,2,1,70,0,0
160635,-20,4,2,1,70,0,0
160924,-10,4,2,1,70,0,0
161212,-20,4,2,1,70,0,0
161693,-10,4,2,1,70,0,0
161981,-20,4,2,1,70,0,0
162462,-33.3333333333333,4,2,1,70,0,0
162847,-33.3333333333333,4,2,2,70,0,0
163231,-33.3333333333333,4,2,1,70,0,0
163712,-50,4,2,1,70,0,0
164001,-14.2857142857143,4,2,1,70,0,0
164289,-20,4,2,1,70,0,0
164674,-200,4,2,1,70,0,0
165058,-20,4,2,1,70,0,0
165251,-33.3333333333333,4,2,1,70,0,0
165924,-14.2857142857143,4,2,2,70,0,0
166020,-14.2857142857143,4,2,1,70,0,0
166308,-33.3333333333333,4,2,1,70,0,0
166789,-50,4,2,1,70,0,0
167077,-10,4,2,1,70,0,0
167366,-20,4,2,1,70,0,0
167847,-10,4,2,1,70,0,0
168135,-20,4,2,1,70,0,0
168616,-33.3333333333333,4,2,1,70,0,0
169001,-33.3333333333333,4,2,2,70,0,0
169385,-200,4,2,1,70,0,0
172847,-100,4,2,2,50,0,0
178231,-100,4,2,1,40,0,0
178616,-100,4,2,2,50,0,0
197078,-100,4,2,2,60,0,0
197174,-100,4,2,2,30,0,0
199385,-100,4,2,2,25,0,0
201693,-100,4,2,2,20,0,0
203231,-200,4,2,2,30,0,0
232847,-200,4,2,2,40,0,0
233231,-200,4,2,2,50,0,0
233616,-200,4,2,2,60,0,0
233904,-200,4,2,2,5,0,0
234001,-100,4,2,2,40,0,0
257078,-100,4,2,20,50,0,0
257835,384.615384615385,4,2,0,50,1,0
257835,-33.3333333333333,4,2,0,30,0,0
258616,384.615384615385,4,2,2,40,1,0
258616,-100,4,2,2,40,0,0
270539,-35.7142857142857,4,2,2,40,0,0
270923,-100,4,2,2,40,0,0
281692,-100,4,2,2,43,0,0
282077,-100,4,2,2,47,0,0
282462,-100,4,2,2,50,0,0
282750,-20,4,2,0,60,0,0
283039,-50,4,2,0,70,0,0
283231,-12.5,4,2,1,70,0,0
283808,-50,4,2,1,50,0,0
284385,-12.5,4,2,1,70,0,0
284769,-50,4,2,1,50,0,0
285154,-66.6666666666667,4,2,1,50,0,0
285539,-12.5,4,2,1,70,0,0
285923,-33.3333333333333,4,2,1,50,0,0
286308,-12.5,4,2,1,70,0,0
286692,-50,4,2,1,50,0,0
287462,-12.5,4,2,1,70,0,0
287846,-50,4,2,1,50,0,0
288231,-66.6666666666667,4,2,1,50,0,0
288616,-12.5,4,2,1,70,0,0
289000,-33.3333333333333,4,2,1,50,0,0
289385,-12.5,4,2,1,70,0,0
289962,-66.6666666666667,4,2,1,50,0,0
290539,-12.5,4,2,1,70,0,0
290923,-50,4,2,1,50,0,0
291692,-12.5,4,2,1,70,0,0
292077,-33.3333333333333,4,2,1,50,0,0
292462,-12.5,4,2,1,70,0,0
293039,-66.6666666666667,4,2,1,50,0,0
293231,-50,4,2,1,50,0,0
293616,-12.5,4,2,1,70,0,0
294000,-50,4,2,1,50,0,0
294769,-12.5,4,2,1,70,0,0
295154,-33.3333333333333,4,2,1,50,0,0
295539,-12.5,4,2,1,70,0,0
295923,-66.6666666666667,4,2,1,50,0,0
296308,-50,4,2,1,50,0,0
296692,-12.5,4,2,1,70,0,0
297077,-50,4,2,1,50,0,0
297846,-12.5,4,2,1,70,0,0
298231,-33.3333333333333,4,2,1,50,0,0
298616,-12.5,4,2,1,70,0,0
299000,-66.6666666666667,4,2,1,50,0,0
299769,-12.5,4,2,1,70,0,0
300154,-50,4,2,1,50,0,0
300923,-12.5,4,2,1,70,0,0
301308,-33.3333333333333,4,2,1,50,0,0
301692,-12.5,4,2,1,70,0,0
302077,-50,4,2,1,50,0,0
302846,-12.5,4,2,1,70,0,0
303231,-50,4,2,1,50,0,0
304000,-12.5,4,2,1,70,0,0
304385,-33.3333333333333,4,2,1,50,0,0
304769,-12.5,4,2,1,70,0,0
305154,-50,4,2,1,50,0,0
305923,-12.5,4,2,1,70,0,0
306308,-50,4,2,1,50,0,0
306692,-66.6666666666667,4,2,1,50,0,0
307077,-12.5,4,2,1,70,0,0
307846,-15.3846153846154,4,2,1,75,0,0
308231,-66.6666666666667,4,2,1,50,0,0
309000,-10,4,2,1,75,0,0
309385,-66.6666666666667,4,2,2,50,0,0
309769,-66.6666666666667,4,2,1,50,0,0
310154,-10,4,2,1,50,0,0
310539,-66.6666666666667,4,2,1,50,0,0
310923,-10,4,2,1,75,0,0
311308,-66.6666666666667,4,2,1,50,0,0
312077,-10,4,2,1,75,0,0
312462,-66.6666666666667,4,2,2,50,0,0
312846,-66.6666666666667,4,2,1,50,0,0
313231,-10,4,2,1,75,0,0
313616,-66.6666666666667,4,2,1,50,0,0
314000,-12.5,4,2,1,75,0,0
314385,-66.6666666666667,4,2,1,50,0,0
315154,-10,4,2,1,75,0,0
315539,-66.6666666666667,4,2,2,50,0,0
315923,-66.6666666666667,4,2,1,50,0,0
316308,-10,4,2,1,75,0,0
316692,-66.6666666666667,4,2,1,50,0,0
317077,-10,4,2,1,75,0,0
317462,-66.6666666666667,4,2,1,50,0,0
318231,-10,4,2,1,75,0,0
318616,-66.6666666666667,4,2,2,50,0,0
319000,-66.6666666666667,4,2,1,50,0,0
319385,-10,4,2,1,75,0,0
319769,-66.6666666666667,4,2,1,50,0,0
320154,-50,4,2,1,60,0,0
321692,-28.5714285714286,4,2,1,65,0,0
323231,-20,4,2,1,70,0,0
324769,-15.3846153846154,4,2,1,75,0,0
325154,-18.1818181818182,4,2,1,75,0,0
325539,-15.3846153846154,4,2,1,75,0,0
325923,-13.3333333333333,4,2,1,70,0,0
326308,-12.5,4,2,1,70,0,0
331692,-33.3333333333333,4,2,2,50,0,0
332462,-100,4,2,1,70,0,0
333039,-14.2857142857143,4,2,1,70,0,0
333616,-100,4,2,1,70,0,0
334192,-10,4,2,1,70,0,0
334769,-200,4,2,1,70,0,0
335539,-14.2857142857143,4,2,1,70,0,0
336692,-100,4,2,1,70,0,0
337269,-10,4,2,1,70,0,0
337846,-14.2857142857143,4,2,1,70,0,0
338616,-28.5714285714286,4,2,1,70,0,0
339192,-16.6666666666667,4,2,1,70,0,0
339769,-100,4,2,1,70,0,0
340154,-10,4,2,1,70,0,0
340923,-33.3333333333333,4,2,1,70,0,0
341308,-12.5,4,2,1,70,0,0
341692,-50,4,2,1,70,0,0
343423,-10,4,2,1,70,0,0
344000,-66.6666666666667,4,2,1,70,0,0
344769,-25,4,2,1,70,0,0
345923,-100,4,2,1,70,0,0
346500,-10,4,2,1,70,0,0
347077,-33.3333333333333,4,2,1,70,0,0
347462,-14.2857142857143,4,2,1,70,0,0
347846,-100,4,2,1,70,0,0
348423,-16.6666666666667,4,2,1,70,0,0
349000,-33.3333333333333,4,2,1,70,0,0
349577,-10,4,2,1,70,0,0
350154,-14.2857142857143,4,2,1,70,0,0
350923,-28.5714285714286,4,2,1,70,0,0
351500,-16.6666666666667,4,2,1,70,0,0
352077,-100,4,2,1,70,0,0
352654,-10,4,2,1,70,0,0
353231,-50,4,2,1,70,0,0
354000,-14.2857142857143,4,2,1,70,0,0
354577,-16.6666666666667,4,2,1,70,0,0
355154,-33.3333333333333,4,2,1,70,0,0
355731,-10,4,2,1,70,0,0
356308,-10,4,2,2,70,0,0
356885,-20,4,2,1,70,0,0
357077,-14.2857142857143,4,2,1,80,0,0
357846,-100,4,2,1,80,0,0
358231,-14.2857142857143,4,2,1,80,0,0
358808,-33.3333333333333,4,2,1,80,0,0
358904,-133.333333333333,4,2,1,80,0,0
359385,-20,4,2,1,80,0,0
359769,-100,4,2,1,80,0,0
360154,-14.2857142857143,4,2,1,80,0,0
360923,-100,4,2,1,80,0,0
361308,-14.2857142857143,4,2,1,80,0,0
361885,-33.3333333333333,4,2,1,80,0,0
361981,-133.333333333333,4,2,1,80,0,0
362462,-33.3333333333333,4,2,1,80,0,0
363231,-200,4,2,1,50,0,0
363808,-16.6666666666667,4,2,1,80,0,0
364481,-66.6666666666667,4,2,1,80,0,0
364962,-33.3333333333333,4,2,1,80,0,0
365058,-133.333333333333,4,2,1,80,0,0
365539,-11.1111111111111,4,2,1,80,0,0
365923,-20,4,2,1,80,0,0
366308,-14.2857142857143,4,2,1,80,0,0
367077,-100,4,2,1,80,0,0
367462,-14.2857142857143,4,2,1,80,0,0
368231,-133.333333333333,4,2,1,80,0,0
368616,-50,4,2,1,80,0,0
369385,-11.1111111111111,4,2,1,60,0,0
369577,-50,4,2,1,60,0,0
369962,-14.2857142857143,4,2,1,80,0,0
370731,-100,4,2,1,80,0,0
371116,-33.3333333333333,4,2,1,80,0,0
371212,-133.333333333333,4,2,1,80,0,0
371692,-14.2857142857143,4,2,1,80,0,0
372077,-16.6666666666667,4,2,1,80,0,0
372462,-14.2857142857143,4,2,1,80,0,0
373039,-20,4,2,1,80,0,0
373231,-133.333333333333,4,2,1,80,0,0
373616,-14.2857142857143,4,2,1,80,0,0
374289,-57.1428571428571,4,2,1,80,0,0
375539,-28.5714285714287,4,2,1,80,0,0
375827,-50,4,2,1,80,0,0
376308,-14.2857142857143,4,2,1,80,0,0
377077,-200,4,2,1,80,0,0
377654,-50,4,2,1,80,0,0
378231,-100,4,2,1,80,0,0
378616,-14.2857142857143,4,2,1,80,0,0
378904,-100,4,2,1,80,0,0
379192,-14.2857142857143,4,2,1,80,0,0
379481,-100,4,2,1,80,0,0
379769,-14.2857142857143,4,2,1,80,0,0
380058,-100,4,2,1,80,0,0
380635,-14.2857142857143,4,2,1,80,0,0
381308,-100,4,2,2,80,0,0
381692,-100,4,2,1,80,0,0

[Colours]
Combo1 : 0,255,128
Combo2 : 255,81,168
Combo3 : 255,136,196
Combo4 : 146,36,255
Combo5 : 255,6,255
Combo6 : 0,156,232

[HitObjects]
256,192,34193,12,0,36693,0:0:0:0:
99,191,37077,6,0,L|93:151,1,40.0000005960464,2|0,0:0|0:0,0:0:0:0:
133,90,37846,1,0,0:0:0:0:
133,90,39384,1,0,0:0:0:0:
133,90,40923,5,0,0:0:0:0:
211,103,41692,1,0,0:0:0:0:
290,114,42461,1,0,0:0:0:0:
290,114,43231,6,0,L|330:108,1,40.0000005960464,2|0,0:0|0:0,0:0:0:0:
396,121,44001,1,0,0:0:0:0:
396,121,45538,1,0,0:0:0:0:
396,121,46500,5,0,0:0:0:0:
391,130,46692,1,0,0:0:0:0:
433,107,46884,37,0,0:0:0:0:
427,116,47077,1,0,0:0:0:0:
379,81,47269,5,0,0:0:0:0:
381,91,47461,1,0,0:0:0:0:
473,118,47653,5,0,0:0:0:0:
462,116,47846,1,0,0:0:0:0:
339,58,48038,5,0,0:0:0:0:
350,60,48231,1,0,0:0:0:0:
505,163,48423,37,0,0:0:0:0:
499,153,48615,1,0,0:0:0:0:
303,73,48808,5,0,0:0:0:0:
312,66,49001,1,0,0:0:0:0:
326,197,49193,5,0,0:0:0:0:
334,201,49385,2,0,L|374:194,1,40.0000005960464,2|0,0:0|0:0,0:0:0:0:
439,213,50153,1,0,0:0:0:0:
469,281,50538,1,0,0:0:0:0:
429,342,50923,1,0,0:0:0:0:
359,351,51307,1,0,0:0:0:0:
293,323,51692,1,0,0:0:0:0:
230,289,52077,1,0,0:0:0:0:
159,279,52461,5,0,0:0:0:0:
88,296,52846,1,0,0:0:0:0:
54,357,53230,1,0,0:0:0:0:
60,284,53615,1,0,0:0:0:0:
11,226,54000,1,0,0:0:0:0:
86,253,54384,1,0,0:0:0:0:
139,196,54769,1,2,0:0:0:0:
353,77,55346,38,0,L|364:80,2,10.0000001490116,2|0|0,0:0|0:0|0:0,0:0:0:0:
353,77,57077,5,0,0:0:0:0:
353,77,58615,1,0,0:0:0:0:
256,192,58807,12,0,61500,0:0:0:0:
253,237,61693,6,0,L|149:231,1,100.000000745058,6|2,3:1|0:1,0:0:0:0:
256,192,67847,12,0,73808,0:0:0:0:
71,233,74001,6,0,L|75:316,1,80.0000005960464,4|0,1:0|0:0,0:0:0:0:
0,206,74770,2,0,P|63:229|152:200,1,160.000001192093
406,67,77078,2,0,P|425:72|445:72,1,40.0000005960464,0|0,1:0|0:0,0:0:0:0:
446,73,77847,37,0,0:0:0:0:
452,90,78616,1,0,0:0:0:0:
446,106,79385,2,0,L|448:110,1,5.0000000372529
205,303,80154,6,0,L|126:295,1,80.0000005960464,4|0,1:0|0:0,0:0:0:0:
131,215,80924,2,0,L|125:295,1,80.0000005960464
301,45,83231,6,0,P|366:55|448:53,1,140.000001043081,0|0,1:0|0:0,0:0:0:0:
111,116,86308,6,0,L|116:202,1,80.0000005960464,4|0,1:0|0:0,0:0:0:0:
135,80,87078,2,0,L|143:254,1,160.000001192093
12,244,89578,1,0,1:0:0:0:
12,244,90154,38,0,L|4:207,1,25.0000001862645
12,244,90924,5,0,0:0:0:0:
85,216,91693,1,0,0:0:0:0:
101,227,92077,6,0,B|102:180|71:156|71:156|73:184,1,100.000000745058,8|0,0:1|0:0,0:0:0:0:
14,282,92462,6,0,B|104:291|82:250|174:259,1,160.000001192093,4|0,1:2|0:0,0:0:0:0:
169,258,96308,37,0,0:0:0:0:
237,294,97078,1,0,0:0:0:0:
261,362,97847,2,0,L|265:361,1,5.0000000372529
490,181,98616,5,6,1:0:0:0:
413,74,98808,2,0,L|378:84,1,25.0000001862645,2|0,1:0|0:0,0:0:0:0:
335,128,99001,5,0,0:0:0:0:
338,135,99193,1,0,0:0:0:0:
265,76,99385,5,0,0:0:0:0:
274,68,99577,1,0,0:0:0:0:
253,160,99770,37,0,3:0:0:0:
237,146,99962,1,0,0:0:0:0:
271,242,100154,5,2,0:0:0:0:
294,226,100347,1,0,0:0:0:0:
184,214,100539,5,0,0:0:0:0:
193,249,100731,1,0,0:0:0:0:
150,145,100924,6,0,L|155:136,2,10.0000000745058
109,243,101308,1,8,0:0:0:0:
109,243,101501,1,0,0:0:0:0:
33,258,101693,1,4,0:0:0:0:
24,336,101885,37,0,0:0:0:0:
90,364,102077,1,0,0:0:0:0:
161,361,102270,1,0,0:0:0:0:
223,326,102462,1,0,0:0:0:0:
292,299,102654,1,0,0:0:0:0:
363,304,102847,1,0,0:0:0:0:
409,357,103039,1,0,0:0:0:0:
383,299,103231,5,0,0:0:0:0:
417,344,103424,1,0,0:0:0:0:
409,293,103616,5,0,0:0:0:0:
429,324,103808,1,0,0:0:0:0:
426,286,104001,5,0,0:0:0:0:
442,312,104193,1,0,0:0:0:0:
508,273,104385,38,0,L|511:257,2,10.0000000745058,8|0|0,0:0|3:0|3:0,0:0:0:0:
448,186,104770,6,0,L|451:215,1,25.0000001862645,4|0,1:0|0:0,0:0:0:0:
504,128,104962,5,0,0:0:0:0:
498,126,105154,1,0,3:0:0:0:
467,58,105347,5,0,0:0:0:0:
457,63,105539,1,0,0:0:0:0:
394,120,105731,37,0,0:0:0:0:
375,113,105924,1,0,3:0:0:0:
340,40,106116,5,0,0:0:0:0:
311,51,106308,1,2,0:0:0:0:
261,164,106501,5,0,0:0:0:0:
252,159,106693,1,0,0:0:0:0:
242,153,106885,1,0,0:0:0:0:
168,106,107077,6,0,L|165:96,2,10.0000000745058,0|0|0,3:0|0:0|0:0,0:0:0:0:
117,252,107462,1,8,0:0:0:0:
117,252,107654,1,0,0:0:0:0:
53,207,107847,1,4,0:0:0:0:
72,131,108039,37,0,0:0:0:0:
149,137,108231,1,0,3:0:0:0:
178,206,108424,1,0,0:0:0:0:
117,252,108616,1,0,0:0:0:0:
53,207,108808,1,0,0:0:0:0:
72,131,109001,5,0,0:0:0:0:
78,138,109193,1,0,0:0:0:0:
174,130,109385,5,0,0:0:0:0:
167,143,109577,1,0,0:0:0:0:
254,180,109770,5,0,0:0:0:0:
243,189,109962,1,0,0:0:0:0:
293,273,110154,37,0,0:0:0:0:
299,266,110346,1,0,0:0:0:0:
403,200,110539,6,0,L|346:195,2,50.000000372529,8|0|0,0:1|0:0|0:0,1:0:0:0:
492,105,110924,6,0,L|456:109,1,25.0000001862645,0|0,1:0|0:0,0:0:0:0:
492,105,111693,5,8,0:0:0:0:
492,105,112462,38,0,L|456:109,1,25.0000001862645,0|0,1:0|0:0,0:0:0:0:
499,112,113231,5,8,0:0:0:0:
499,112,113327,1,8,0:0:0:0:
499,112,113424,1,0,0:0:0:0:
499,112,114001,6,0,L|463:116,1,25.0000001862645,0|0,1:0|0:0,0:0:0:0:
416,162,114385,6,0,L|391:159,1,25.0000001862645,8|0,0:0|0:0,0:0:0:0:
326,120,114770,38,0,L|301:122,1,25.0000001862645,8|0,0:0|0:0,0:0:0:0:
233,171,115154,6,0,L|208:168,1,25.0000001862645,8|0,0:0|0:0,0:0:0:0:
144,129,115539,6,0,L|119:131,1,25.0000001862645,0|0,1:0|0:0,0:0:0:0:
47,158,115924,6,0,L|22:155,1,25.0000001862645,8|0,0:0|0:0,0:0:0:0:
56,169,116308,38,0,L|31:166,1,25.0000001862645,8|0,0:0|0:0,0:0:0:0:
439,349,116693,6,0,L|450:348,1,10.0000000745058,2|2,0:0|0:0,0:0:0:0:
352,330,117077,5,0,1:0:0:0:
352,330,117270,1,0,0:0:0:0:
352,330,117462,1,0,0:0:0:0:
352,330,117654,1,0,0:0:0:0:
338,345,117846,5,0,1:0:0:0:
264,353,118039,1,0,0:0:0:0:
190,355,118231,1,0,0:0:0:0:
119,361,118424,1,0,0:0:0:0:
3,252,118616,37,0,1:0:0:0:
77,260,118809,1,0,0:0:0:0:
152,266,119001,1,0,0:0:0:0:
226,274,119194,1,0,0:0:0:0:
442,174,119385,5,0,1:0:0:0:
373,193,119578,1,0,0:0:0:0:
373,193,119674,1,0,0:0:0:0:
373,193,119770,1,0,0:0:0:0:
299,211,119962,1,0,0:0:0:0:
64,99,120154,5,0,1:0:0:0:
73,97,120251,1,0,0:0:0:0:
82,95,120347,1,0,0:0:0:0:
91,93,120443,1,0,0:0:0:0:
119,107,120539,5,0,1:0:0:0:
138,103,120635,1,0,0:0:0:0:
157,98,120731,1,0,0:0:0:0:
176,94,120827,1,0,0:0:0:0:
226,39,120924,37,0,1:0:0:0:
235,41,121021,1,0,0:0:0:0:
244,43,121117,1,0,0:0:0:0:
253,45,121213,1,0,0:0:0:0:
281,31,121309,5,0,1:0:0:0:
300,35,121405,1,0,0:0:0:0:
319,40,121501,1,0,0:0:0:0:
338,44,121597,1,0,0:0:0:0:
397,102,121693,5,0,1:0:0:0:
414,93,121789,1,0,1:0:0:0:
399,112,121885,5,0,1:0:0:0:
410,86,121981,1,0,1:0:0:0:
406,118,122077,37,0,3:0:0:0:
401,87,122174,1,0,3:0:0:0:
414,118,122270,5,0,3:0:0:0:
393,90,122366,1,0,3:0:0:0:
423,118,122462,5,0,0:0:0:0:
385,98,122558,1,0,0:0:0:0:
430,109,122654,5,0,0:0:0:0:
381,111,122751,1,0,0:0:0:0:
406,101,122847,38,0,L|395:289,1,150.000001117587,8|0,0:1|0:0,1:0:0:0:
459,307,123231,6,0,B|396:278|396:278|313:304,1,140.000002378225,4|0,1:0|0:0,0:0:0:0:
180,88,123616,6,2,L|154:83,1,20.0000001490116,8|0,0:0|0:0,0:0:0:0:
102,44,123904,6,0,P|154:60|249:40,1,140.000002378225,8|0,0:0|0:0,0:0:0:0:
76,129,124193,38,0,L|95:125,1,15.0000006839633,0|8,1:0|0:1,0:0:0:0:
53,142,124770,6,0,L|118:148,1,60.0000004470348,0|0,1:0|0:0,0:0:0:0:
219,213,125154,6,0,P|177:181|90:192,1,140.000002378225,8|0,0:1|0:0,0:0:0:0:
97,340,125443,2,0,P|164:352|222:316,1,140.000002378225,8|0,0:1|0:0,0:0:0:0:
152,282,125731,2,0,L|147:205,1,70.0000011891126,0|0,1:0|3:0,0:0:0:0:
244,44,125924,6,2,L|259:42,1,15.0000001117587,2|0,0:0|0:0,0:0:0:0:
281,112,126308,38,0,P|286:188|289:280,1,150.000001117587,4|0,1:0|0:0,0:0:0:0:
303,294,126693,6,0,L|300:258,1,30.0000002235174,8|8,0:0|0:0,0:0:0:0:
373,320,127077,6,0,L|198:333,1,140.000002378225,2|0,0:0|1:0,0:0:0:0:
22,200,127462,1,8,0:1:0:0:
391,35,127847,6,0,L|485:45,1,70.0000011891126,0|0,1:0|0:0,0:0:0:0:
394,166,128039,2,0,L|463:158,1,70.0000011891126,0|0,1:0|0:0,0:0:0:0:
323,105,128231,38,0,L|326:79,1,25.0000001862645,8|0,0:1|0:0,0:0:0:0:
228,314,128520,2,0,L|225:340,1,25.0000001862645,8|0,0:1|0:0,0:0:0:0:
44,181,128808,1,0,1:0:0:0:
57,185,128904,1,0,1:0:0:0:
72,191,129001,2,0,L|64:226,3,25.0000001862645,8|0|0|0,0:1|0:0|0:0|0:0,0:0:0:0:
408,142,129385,6,0,L|431:147,1,22.500001025945,4|0,1:0|0:0,0:0:0:0:
489,115,129770,6,0,L|387:137,1,100.000000745058,8|0,0:1|0:0,0:0:0:0:
338,295,130058,2,0,L|219:283,1,100.000000745058,8|0,0:1|0:0,0:0:0:0:
163,245,130347,6,0,L|161:256,1,10.0000000745058,0|0,1:0|0:0,0:0:0:0:
145,328,130539,1,8,0:1:0:0:
16,344,130731,1,8,0:3:0:0:
145,328,130924,38,0,P|146:262|137:171,1,150.000001117587,4|0,1:0|0:0,0:0:0:0:
32,28,131308,2,2,P|25:77|31:142,1,100.000000745058,8|0,0:0|0:0,0:1:0:0:
251,132,131597,2,2,P|254:82|247:32,1,100.000000745058,8|0,0:0|0:0,0:1:0:0:
347,37,131885,1,0,1:0:0:0:
347,37,131981,1,0,1:0:0:0:
347,37,132077,6,0,L|367:45,1,20.0000001490116,8|0,0:1|0:0,0:0:0:0:
365,44,132462,6,0,B|325:145|325:145|405:214,1,210.000003567338,4|0,1:0|0:0,0:0:0:0:
456,155,132847,6,0,L|452:136,1,20.0000001490116,8|0,0:0|0:0,0:0:0:0:
475,191,133135,38,0,L|481:77,1,100.000000745058,8|0,0:1|0:0,0:0:0:0:
385,41,133424,1,0,1:0:0:0:
385,41,133520,1,0,1:0:0:0:
385,41,133616,6,0,L|363:45,1,20.0000001490116,8|0,0:0|0:0,0:0:0:0:
426,26,133904,6,0,L|311:18,1,100.000000745058,8|0,0:1|0:0,0:0:0:0:
239,126,134193,6,0,L|244:155,3,25.0000001862645,0|0|0|0,1:0|0:0|0:0|0:0,0:0:0:0:
242,111,134385,38,0,L|237:88,1,20.0000001490116,8|0,0:0|0:0,0:0:0:0:
264,68,134674,6,0,P|208:57|159:84,1,100.000000745058,8|0,0:1|0:0,0:0:0:0:
119,138,134962,5,0,1:0:0:0:
119,138,135058,1,0,1:0:0:0:
119,138,135154,1,8,0:1:0:0:
103,180,135251,5,8,3:0:0:0:
107,224,135347,1,8,3:0:0:0:
131,261,135443,1,0,3:0:0:0:
127,303,135539,38,2,B|237:255|372:298|372:298|317:317,1,300.000002235174,2|0,0:3|0:0,0:0:0:0:
290,249,135924,6,0,L|294:227,1,20.0000001490116,8|0,0:0|0:0,0:0:0:0:
349,174,136212,6,0,B|402:186|467:165|467:165|419:154,1,140.000002378225,8|0,0:0|0:0,0:0:0:0:
239,123,136501,6,0,L|223:120,1,15.0000006839633,0|8,1:0|0:1,0:0:0:0:
177,60,137078,38,0,L|116:73,1,60.0000004470348,0|0,1:0|0:0,0:0:0:0:
93,48,137462,6,0,P|66:91|94:188,1,140.000002378225,8|0,0:1|0:0,0:0:0:0:
151,206,137751,6,0,L|205:181,1,50.000000372529,8|0,0:1|0:0,0:0:0:0:
278,244,137943,2,0,L|268:302,1,50.000000372529,0|0,0:1|3:0,0:0:0:0:
157,318,138135,2,0,L|123:297,1,25.0000001862645,0|0,1:0|3:0,0:0:0:0:
157,318,138231,6,0,B|191:338|214:338|214:338|206:330,1,70.0000005215406,8|0,0:1|0:0,0:0:0:0:
154,353,138616,38,0,B|37:367|37:367|9:220,1,245.000004161894,4|0,1:0|0:0,0:0:0:0:
99,198,139001,6,0,L|255:175,1,150.000001117587,8|8,0:0|0:0,0:0:0:0:
326,93,139385,6,0,P|349:164|326:301,1,200.000001490116,0|0,0:0|1:0,0:0:0:0:
332,286,139770,6,0,L|285:284,1,25.0000001862645,8|0,0:1|0:0,0:0:0:0:
229,353,139962,2,0,L|253:351,1,25.0000001862645,0|0,1:0|0:0,0:0:0:0:
426,249,140154,1,0,1:0:0:0:
463,263,140251,1,0,3:0:0:0:
478,299,140347,1,0,3:0:0:0:
462,335,140443,1,0,3:0:0:0:
429,348,140539,38,0,L|436:189,1,140.000002378225,8|0,0:0|0:0,0:0:0:0:
428,132,140828,6,0,L|435:237,1,100.000000745058,8|0,0:0|0:0,0:0:0:0:
339,261,141116,6,2,L|342:284,1,20.0000001490116,0|8,0:0|0:1,0:1:0:0:
348,364,141501,1,8,0:3:0:0:
341,280,141693,6,0,L|346:66,1,210.000003567338,4|0,1:0|0:0,0:0:0:0:
262,175,142078,38,2,P|190:189|115:164,1,150.000001117587,8|8,0:0|0:0,0:0:0:0:
77,138,142462,6,2,P|180:195|284:167,1,200.000001490116,0|0,0:0|1:0,0:1:0:0:
259,267,142751,5,0,3:0:0:0:
262,299,142847,2,2,L|263:314,1,15.0000001117587,8|0,0:1|0:0,1:2:0:0:
298,335,143231,6,0,B|123:339|123:339|137:373,1,210.000003567338,4|0,1:0|0:0,0:0:0:0:
173,265,143616,38,0,P|175:220|166:149,1,100.000000745058,8|0,0:0|0:0,0:0:0:0:
148,96,143904,6,0,P|152:72|155:29,1,60.0000004470348,8|0,0:0|1:0,0:0:0:0:
248,83,144288,5,0,1:0:0:0:
253,63,144385,1,8,0:0:0:0:
259,82,144481,1,8,0:0:0:0:
266,62,144577,1,8,0:3:0:0:
274,83,144673,1,4,0:3:0:0:
259,44,144770,6,0,B|254:203|254:203|318:216,1,210.000003567338,0|0,1:0|0:0,0:0:0:0:
413,299,145154,38,0,L|412:320,1,20.0000001490116,8|0,0:0|0:0,0:0:0:0:
413,299,145443,6,0,L|416:195,1,100.000000745058,8|0,0:0|0:0,0:0:0:0:
503,132,145731,6,0,B|466:125|466:125|424:130,1,70.0000011891126,0|0,1:0|0:0,0:0:0:0:
354,57,145924,6,0,L|355:36,1,20.0000001490116,8|0,0:0|0:0,0:0:0:0:
354,57,146213,38,0,L|351:161,1,100.000000745058,8|0,0:0|0:0,0:0:0:0:
279,213,146501,6,0,L|318:217,3,35.0000005945563,0|0|0|0,1:0|0:0|0:0|0:0,0:0:0:0:
264,253,146693,6,0,L|242:250,1,20.0000001490116,8|0,0:1|0:0,0:0:0:0:
240,322,146981,6,0,P|219:290|151:271,1,100.000000745058,8|0,0:1|0:0,0:0:0:0:
92,237,147270,38,0,L|53:242,3,35.0000005945563,0|0|0|0,1:0|0:0|0:0|0:0,0:0:0:0:
108,197,147462,6,0,L|109:203,1,5.0000000372529,0|8,3:0|0:3,0:0:0:0:
130,164,147654,5,0,1:0:0:0:
170,148,147751,1,4,3:0:0:0:
217,134,147847,6,0,P|269:127|345:147,1,120.000005471707,4|0,1:0|0:0,0:0:0:0:
421,231,148327,38,0,B|468:246|507:219|507:219|484:213,1,100.000000745058
411,130,148616,6,0,B|421:346,1,200.000001490116,8|0,0:1|0:0,0:0:0:0:
355,361,148904,6,0,L|282:369,2,50.000000372529,0|8|0,1:0|0:0|1:0,0:0:0:0:
79,107,149385,6,0,B|57:89|57:89|86:102|116:107|157:107|188:97|188:97|131:122,1,200.000001490116,0|0,1:0|0:0,1:0:0:0:
76,184,149674,38,0,B|48:187|37:181|37:181|50:176,1,50.000000372529,0|8,0:0|0:1,0:0:0:0:
76,184,149866,2,0,P|76:225|80:294,1,100.000000745058,0|0,1:0|0:0,0:0:0:0:
145,332,150154,6,0,L|270:325,1,120.000005471707,8|0,0:1|3:0,0:0:0:0:
481,34,150924,6,2,L|359:41,1,120.000005471707,0|0,1:0|0:0,1:0:0:0:
306,93,151404,6,0,L|262:86,1,40.0000002980232
21,195,151693,38,0,B|89:208|89:208|144:161,1,140.000002378225,8|0,0:1|0:0,0:0:0:0:
120,58,151981,6,0,P|69:44|16:68,1,100.000000745058,0|0,1:0|0:0,1:0:0:0:
196,236,152366,6,0,L|198:221,1,15.0000001117587,0|0,0:0|0:0,1:0:0:0:
197,221,152751,6,2,L|210:339,1,100.000000745058,0|0,0:0|1:0,0:0:0:0:
282,350,153039,38,0,L|311:356,1,30.0000013679266
383,345,153231,2,0,L|293:332,1,90.0000041037799,8|0,0:1|0:0,0:0:0:0:
231,170,153616,6,2,B|237:149|233:136|233:136|247:131|249:112|249:112|270:113|289:97|289:97|301:108|322:108|322:108|324:129|338:137|338:137|330:150|341:166|341:166|331:175|325:196,1,245.000004161894,4|0,3:2|0:0,0:0:0:0:
262,239,154001,6,0,B|200:253|201:220|135:230,1,120.000005471707,4|0,1:0|0:0,0:0:0:0:
140,115,154481,6,0,L|142:157,1,40.0000002980232
60,41,154770,38,0,L|75:270,1,200.000001490116,8|0,0:1|0:0,0:0:0:0:
103,312,155058,6,0,P|74:317|48:313,2,50.000000372529,0|8|0,1:0|0:0|1:0,0:0:0:0:
383,112,155539,6,0,B|367:167|393:209|393:209|444:224|493:189,1,200.000001490116,0|0,1:0|0:0,1:0:0:0:
297,185,155827,6,0,B|269:190|261:185|261:185|272:177,1,50.000000372529
297,185,156020,2,0,B|310:237|310:237|296:304,1,100.000000745058,0|0,1:0|0:0,0:0:0:0:
203,337,156308,38,0,P|148:337|75:344,1,120.000005471707,8|0,0:1|3:0,0:0:0:0:
227,29,157077,6,0,L|230:86,1,56.2500025648624,4|0,1:0|0:0,0:0:0:0:
299,110,157847,6,0,B|209:116|209:116|221:277,1,245.000004161894,8|0,0:0|0:0,0:0:0:0:
193,309,158231,6,0,L|185:213,1,95.0000007078051
268,278,160154,38,0,P|316:284|393:269,1,120.000005471707,4|0,1:0|0:0,0:0:0:0:
472,226,160635,6,0,B|452:268|472:309|472:309|479:293,1,100.000000745058
504,139,160924,6,0,B|426:151|426:151|382:117|382:117|316:122,1,200.000001490116,8|0,0:1|0:0,0:0:0:0:
254,72,161212,6,0,L|249:9,2,50.000000372529,0|8|0,1:0|0:0|1:0,0:0:0:0:
156,287,161693,38,0,B|80:307|21:281|21:281|54:309|93:314,1,200.000001490116,0|0,1:0|0:0,1:0:0:0:
100,220,161981,6,0,B|105:199|98:180|98:180|91:193,1,50.000000372529,0|8,0:0|0:1,0:0:0:0:
100,220,162174,2,0,L|106:98,1,100.000000745058,0|0,1:0|0:0,0:0:0:0:
188,20,162462,6,0,P|207:62|199:144,1,120.000005471707,8|0,0:1|3:0,0:0:0:0:
492,355,163231,6,2,L|366:362,1,120.000005471707,0|0,1:0|0:0,1:0:0:0:
432,284,163712,38,0,P|432:260|430:238,1,40.0000002980232
495,180,164001,6,0,P|431:202|341:162,1,140.000002378225,8|0,0:1|0:0,0:0:0:0:
259,62,164289,6,0,P|206:51|150:69,1,100.000000745058,0|0,1:0|0:0,1:0:0:0:
44,247,164674,6,0,L|40:231,1,15.0000001117587,0|0,1:0|0:0,1:0:0:0:
40,232,165058,38,0,B|34:339,1,100.000000745058,0|0,0:0|1:0,0:0:0:0:
144,293,165347,6,0,L|106:289,1,30.0000013679266,0|0,3:0|0:0,0:0:0:0:
192,347,165539,2,0,P|189:310|208:261,1,90.0000041037799,8|0,0:1|0:0,0:0:0:0:
336,144,165924,6,2,B|376:151|420:133|420:133|440:172|409:202|409:202|373:168|334:172,1,245.000004161894,4|0,3:2|0:0,0:0:0:0:
294,225,166308,6,0,L|299:96,1,120.000005471707,4|0,1:0|0:0,0:0:0:0:
274,32,166789,38,0,P|252:31|229:33,1,40.0000002980232
115,178,167077,6,0,B|78:142|78:142|90:95|90:95|137:82|137:82|176:115,1,200.000001490116,8|0,0:1|0:0,0:0:0:0:
139,254,167366,6,0,P|114:256|88:252,2,50.000000372529,0|8|0,1:0|0:0|1:0,0:0:0:0:
366,350,167847,6,0,B|426:360|496:340|496:340|458:325|410:329,1,200.000001490116,0|0,1:0|0:0,1:0:0:0:
264,279,168135,38,0,B|240:286|226:277|226:277|246:274,1,50.000000372529
264,279,168327,2,0,L|369:273,1,100.000000745058,0|0,1:0|0:0,0:0:0:0:
487,190,168616,6,0,P|434:198|363:181,1,120.000005471707,8|0,0:1|3:0,0:0:0:0:
66,43,169385,6,2,L|105:47,1,40.0000002980232,4|8,1:0|0:1,0:0:0:0:
256,192,170203,12,4,172463,1:0:0:0:
47,244,172847,5,0,0:0:0:0:
123,265,173231,1,0,0:0:0:0:
122,257,173616,1,0,0:0:0:0:
290,183,174001,37,0,0:0:0:0:
214,204,174385,1,0,0:0:0:0:
215,196,174770,1,0,0:0:0:0:
273,114,174962,5,0,1:0:0:0:
273,114,175154,1,8,0:0:0:0:
292,117,175251,1,0,1:0:0:0:
484,192,175539,5,2,1:0:0:0:
28,192,175731,1,2,1:0:0:0:
96,230,175924,5,0,0:0:0:0:
169,198,176308,1,0,0:0:0:0:
167,205,176693,1,0,0:0:0:0:
352,272,177077,37,0,0:0:0:0:
281,247,177461,1,0,0:0:0:0:
281,247,177846,1,0,0:0:0:0:
282,259,177943,1,0,0:0:0:0:
284,271,178039,1,0,0:0:0:0:
287,283,178135,1,0,0:0:0:0:
260,319,178231,6,0,L|257:324,7,5.0000000372529,2|0|0|0|0|0|0|0,0:0|0:0|0:0|0:0|0:0|0:0|0:0|0:0,0:0:0:0:
242,356,178616,5,4,1:0:0:0:
169,324,179000,1,0,0:0:0:0:
171,331,179385,1,0,3:0:0:0:
283,260,179770,5,0,0:0:0:0:
356,228,180154,1,0,3:0:0:0:
291,264,180539,1,0,0:0:0:0:
354,235,180924,1,0,3:0:0:0:
235,187,181116,37,0,1:0:0:0:
235,187,181308,1,8,0:0:0:0:
237,174,181404,1,0,1:0:0:0:
259,22,181693,5,6,1:0:0:0:
259,362,181885,1,2,1:0:0:0:
140,308,182077,5,0,0:0:0:0:
132,228,182270,1,0,0:0:0:0:
36,267,182462,5,0,3:0:0:0:
44,187,182655,1,0,0:0:0:0:
155,324,182847,37,0,0:0:0:0:
147,244,183040,1,0,0:0:0:0:
51,283,183232,5,0,3:0:0:0:
59,203,183425,1,0,0:0:0:0:
133,332,183616,5,0,0:0:0:0:
125,252,183809,1,0,0:0:0:0:
29,291,184001,5,0,3:0:0:0:
37,211,184194,1,0,0:0:0:0:
158,354,184385,37,0,0:0:0:0:
150,274,184578,1,0,0:0:0:0:
275,211,184770,5,4,1:0:0:0:
348,248,185154,1,0,0:0:0:0:
347,240,185539,1,0,3:0:0:0:
512,166,185924,6,0,L|508:158,1,5.0000000745058,2|0,0:3|0:0,0:0:0:0:
391,109,186308,5,0,3:0:0:0:
469,90,186693,1,0,3:0:0:0:
392,101,187078,1,0,0:0:0:0:
465,84,187463,1,0,0:0:0:0:
191,50,187847,37,0,0:0:0:0:
264,13,188231,1,0,3:0:0:0:
185,43,188616,1,0,0:0:0:0:
264,22,189001,1,0,3:0:0:0:
185,33,189385,1,0,3:0:0:0:
261,31,189770,1,0,0:0:0:0:
190,27,190154,1,0,3:0:0:0:
257,38,190539,1,0,0:0:0:0:
156,187,190924,5,0,3:0:0:0:
83,224,191308,1,0,0:0:0:0:
156,197,191693,1,0,3:0:0:0:
3,128,192078,6,0,L|1:119,1,5.0000000745058,2|0,0:3|0:0,0:0:0:0:
247,219,192462,5,0,3:0:0:0:
325,238,192847,1,0,3:0:0:0:
247,229,193232,1,0,0:0:0:0:
320,246,193617,1,0,0:0:0:0:
266,375,194001,37,2,0:0:0:0:
266,375,194193,1,2,0:0:0:0:
319,317,194385,1,0,3:0:0:0:
396,297,194577,1,0,0:0:0:0:
471,320,194770,1,0,3:0:0:0:
403,346,194962,1,0,0:0:0:0:
335,319,195155,1,0,3:0:0:0:
312,252,195347,1,0,3:0:0:0:
253,178,195539,5,2,3:2:0:0:
332,159,195731,1,0,0:0:0:0:
336,172,195924,1,0,3:0:0:0:
257,163,196116,1,0,0:0:0:0:
357,88,196308,5,2,0:0:0:0:
426,83,196500,1,0,0:0:0:0:
362,75,196693,1,2,0:0:0:0:
427,95,196885,1,0,0:0:0:0:
417,0,197078,5,4,3:2:0:0:
256,192,197174,12,0,201693,0:0:0:0:
258,235,203039,37,0,0:0:0:0:
258,235,203231,2,0,P|313:250|422:235,1,160.000002384186,2|0,0:0|0:0,0:0:0:0:
333,287,207847,6,0,P|333:306|329:326,1,40.0000005960464,2|0,0:0|0:0,0:0:0:0:
87,321,209385,2,0,P|83:301|83:281,1,40.0000005960464,2|0,0:0|0:0,0:0:0:0:
213,261,210731,1,0,0:0:0:0:
213,261,210828,1,0,0:0:0:0:
213,261,210924,2,0,P|214:296|209:342,1,80.0000011920928,2|0,0:0|0:0,0:0:0:0:
138,110,215347,6,0,P|146:86|162:67,2,50.000000745058,2|0|0,0:0|0:0|0:0,0:0:0:0:
138,110,218424,6,0,P|131:84|124:68,2,40.0000005960464,2|0|0,0:0|0:0|0:0,0:0:0:0:
256,192,221597,12,0,232078,0:0:0:0:
256,192,232174,12,0,233904,0:0:0:0:
211,86,234001,38,0,L|208:43,2,40.0000005960464,2|0|0,0:0|0:0|0:0,0:0:0:0:
174,146,235154,1,0,0:0:0:0:
103,156,235539,1,0,0:0:0:0:
41,121,235924,1,0,0:0:0:0:
310,127,236308,6,0,L|313:84,2,40.0000005960464,2|0|0,0:0|0:0|0:0,0:0:0:0:
347,187,237461,1,0,0:0:0:0:
418,197,237846,1,0,0:0:0:0:
480,162,238231,1,0,0:0:0:0:
186,172,238616,6,0,L|183:129,2,40.0000005960464,2|0|0,0:0|0:0|0:0,0:0:0:0:
149,232,239769,1,0,0:0:0:0:
78,242,240154,1,0,0:0:0:0:
16,207,240539,1,0,0:0:0:0:
334,208,240924,6,0,L|337:165,2,40.0000005960464,2|0|0,0:0|0:0|0:0,0:0:0:0:
371,268,242077,1,0,0:0:0:0:
442,278,242462,1,0,0:0:0:0:
504,243,242847,1,0,0:0:0:0:
170,291,243231,38,0,L|167:248,2,40.0000005960464,2|0|0,0:0|0:0|0:0,0:0:0:0:
133,351,244384,1,0,0:0:0:0:
62,361,244769,1,0,0:0:0:0:
0,326,245154,1,0,0:0:0:0:
251,48,245539,6,2,P|249:83|250:118,1,70.0000010430812,0|0,0:0|0:0,0:0:0:0:
225,191,246308,6,0,L|267:195,1,40.0000005960464,2|0,3:2|0:0,0:0:0:0:
338,172,247078,1,0,3:0:0:0:
338,172,247462,1,0,0:0:0:0:
487,78,247847,6,0,L|448:82,1,40.0000005960464,0|0,3:0|0:0,0:0:0:0:
333,24,248616,2,0,L|372:27,1,40.0000005960464,2|0,0:0|0:0,0:0:0:0:
393,145,249385,1,0,0:0:0:0:
393,145,249770,2,0,L|391:187,2,40.0000005960464,0|0|0,0:0|3:0|0:0,0:0:0:0:
159,165,250925,38,0,L|117:161,1,40.0000005960464,2|0,3:2|0:0,0:0:0:0:
46,184,251693,1,0,3:0:0:0:
46,184,252078,1,0,0:0:0:0:
4,254,252462,2,0,L|0:296,1,40.0000005960464
180,274,253231,6,0,L|219:270,1,40.0000005960464,2|0,3:2|0:0,0:0:0:0:
334,328,254001,2,0,L|294:324,1,40.0000005960464,0|0,3:0|0:0,0:0:0:0:
270,204,254770,1,0,3:0:0:0:
270,204,255154,1,0,0:0:0:0:
290,128,255539,2,0,L|285:87,1,40.0000005960464,2|0,0:0|0:0,0:0:0:0:
304,137,256308,2,2,L|297:77,1,60.0000008940696,0|0,3:0|0:0,0:0:0:0:
246,361,257078,6,0,L|246:353,1,5.0000000745058,4|0,0:3|0:0,0:0:0:0:
246,356,257835,6,2,B|310:296|393:327|393:327|336:343,1,210.000011140108,0|0,0:0|0:0,0:0:0:0:
292,287,258616,37,6,0:0:0:0:
292,287,259000,1,0,3:0:0:0:
227,227,259385,2,0,L|230:187,1,40.0000005960464,0|2,3:0|0:3,0:0:0:0:
482,137,260154,5,0,3:0:0:0:
401,150,260539,1,0,3:0:0:0:
481,151,260923,1,0,3:0:0:0:
408,162,261308,1,0,0:0:0:0:
221,258,261692,5,2,0:0:0:0:
140,245,262077,1,0,3:0:0:0:
215,270,262461,1,0,3:0:0:0:
142,259,262846,1,0,3:0:0:0:
117,116,263231,6,0,L|121:76,1,40.0000005960464,2|0,3:2|3:0,0:0:0:0:
20,288,264000,2,2,L|27:212,1,70.0000010430812,0|0,0:0|0:0,0:0:0:0:
50,204,264769,37,4,3:2:0:0:
50,204,265154,1,0,0:0:0:0:
134,161,265539,2,0,L|175:165,1,40.0000005960464,0|2,3:0|0:3,0:0:0:0:
283,283,266308,5,0,3:0:0:0:
361,255,266692,1,0,3:0:0:0:
290,294,267077,1,0,0:0:0:0:
361,269,267461,1,0,3:0:0:0:
246,102,267846,5,0,0:0:0:0:
168,74,268230,1,0,3:0:0:0:
239,113,268615,1,0,3:0:0:0:
168,88,268999,1,0,3:0:0:0:
385,55,269385,2,0,L|380:16,2,40.0000005960464,0|0|0,0:0|3:0|0:0,0:0:0:0:
469,25,270442,1,2,0:0:0:0:
469,25,270539,2,0,L|483:20,4,13.999999677062,2|0|0|0|0,0:1|0:0|0:0|0:0|0:0,0:0:0:0:
425,132,270923,5,4,0:0:0:0:
356,165,271308,1,0,3:0:0:0:
282,141,271692,1,0,3:0:0:0:
211,106,272077,1,2,0:3:0:0:
132,110,272462,1,0,3:0:0:0:
73,164,272846,1,0,3:0:0:0:
81,240,273231,1,0,0:0:0:0:
81,240,273616,1,0,0:0:0:0:
234,363,274000,38,0,L|230:321,1,40.0000005960464,0|0,0:0|3:0,0:0:0:0:
153,292,274769,1,0,0:0:0:0:
153,292,275154,1,0,3:0:0:0:
21,75,275539,6,0,L|17:117,1,40.0000005960464,0|0,3:0|0:0,0:0:0:0:
368,251,276308,2,2,L|375:182,1,70.0000010430812,0|0,0:0|0:0,0:0:0:0:
392,169,277077,5,4,0:0:0:0:
490,132,277462,1,0,0:0:0:0:
464,217,277846,1,0,3:0:0:0:
417,83,278231,1,2,0:3:0:0:
417,83,278616,6,0,L|403:64,1,20.0000002980232,2|0,0:0|0:0,0:0:0:0:
220,93,279000,2,0,L|216:112,1,20.0000002980232,2|0,0:0|0:0,0:0:0:0:
336,192,279385,2,0,P|335:163|327:132,1,60.0000008940696,8|0,0:0|0:0,0:0:0:0:
327,133,280058,1,0,0:0:0:0:
327,133,280154,1,8,0:0:0:0:
238,135,280346,1,0,0:0:0:0:
210,213,280539,2,0,L|190:208,1,20.0000002980232,0|0,3:0|0:0,0:0:0:0:
103,239,280923,1,0,3:0:0:0:
35,169,281116,1,8,0:0:0:0:
35,169,281212,1,8,0:0:0:0:
35,169,281308,2,0,L|55:164,1,20.0000002980232,8|0,0:0|0:0,0:0:0:0:
313,310,281692,37,8,0:0:0:0:
313,310,281789,1,8,0:0:0:0:
313,310,281885,1,8,0:0:0:0:
451,363,282077,1,8,0:0:0:0:
486,343,282173,1,8,0:0:0:0:
494,303,282269,1,8,0:0:0:0:
472,266,282366,1,8,0:0:0:0:
472,266,282462,2,2,L|449:272,1,20.0000002980232,0|0,3:0|0:0,0:0:0:0:
372,243,282750,6,0,B|367:231|367:231|368:219,1,25.000000372529
370,257,282846,2,0,B|358:231|358:231|361:209,1,50.000000745058,0|0,0:0|0:0,1:0:0:0:
135,80,283039,2,0,L|137:98,1,10.0000001490116
171,15,283135,2,0,L|173:-3,1,10.0000001490116
238,48,283231,6,0,B|77:54|77:54|236:73,1,320.000002384186,4|0,1:0|0:0,1:0:0:0:
102,243,283808,1,0,0:0:0:0:
102,243,283904,1,0,0:0:0:0:
102,243,284000,2,0,L|105:204,1,40.0000005960464,0|0,3:0|0:0,0:0:0:0:
294,117,284385,6,0,L|473:125,1,160.000002384186,4|0,1:2|1:0,1:0:0:0:
506,6,284769,2,0,L|504:46,1,40.0000005960464
432,254,285154,1,0,0:0:0:0:
432,254,285250,1,0,0:0:0:0:
432,254,285346,2,0,L|434:281,1,15.000000795722
512,215,285539,38,0,L|332:223,1,160.000002384186,4|0,1:2|1:0,1:0:0:0:
108,330,285923,1,0,0:0:0:0:
108,330,286019,1,0,0:0:0:0:
108,330,286116,2,0,L|107:345,2,15.000000795722,8|0|0,0:0|0:0|0:0,0:0:0:0:
29,289,286309,6,0,L|188:296,1,160.000002384186,4|0,1:2|1:0,1:0:0:0:
404,341,286692,2,0,B|407:360|407:360|398:381,1,40.0000005960464
316,364,287077,2,0,B|312:344|312:344|321:323,1,40.0000005960464,0|0,3:0|0:0,0:0:0:0:
468,116,287462,6,0,L|475:275,1,160.000002384186,4|0,1:2|1:0,1:0:0:0:
206,308,287846,2,0,L|161:312,1,40.0000005960464
280,121,288231,1,0,0:0:0:0:
280,121,288327,1,0,0:0:0:0:
280,121,288423,2,0,L|301:120,1,15.000000795722
334,40,288616,6,0,L|326:199,1,160.000002384186,4|0,1:2|1:0,1:0:0:0:
99,243,289000,1,0,0:0:0:0:
99,243,289096,1,0,0:0:0:0:
99,243,289192,2,0,L|84:242,2,15.000000795722,8|0|0,0:0|0:0|0:0,0:0:0:0:
59,325,289385,38,0,B|46:164|46:164|20:320,1,320.000004768371,4|0,1:0|0:0,1:0:0:0:
157,104,289962,1,0,0:0:0:0:
157,104,290058,1,0,0:0:0:0:
157,104,290154,2,0,L|159:89,1,15.000000795722,0|0,3:0|0:0,0:0:0:0:
108,4,290346,2,0,L|110:18,1,15.000000795722
37,62,290539,6,0,L|216:53,1,160.000002384186,4|0,1:2|1:0,1:0:0:0:
431,138,290923,2,0,L|435:177,1,40.0000005960464
356,247,291308,2,0,L|360:207,1,40.0000005960464
433,381,291692,6,0,L|224:371,1,160.000002384186,4|0,1:2|1:0,1:0:0:0:
79,203,292077,1,0,0:0:0:0:
79,203,292173,1,0,0:0:0:0:
79,203,292269,2,0,L|76:188,2,15.000000795722,8|0|0,0:0|0:0|0:0,0:0:0:0:
0,240,292462,6,0,L|159:232,1,160.000002384186,4|0,1:2|1:0,1:0:0:0:
407,128,292846,1,0,0:0:0:0:
407,128,292942,1,0,0:0:0:0:
407,128,293039,2,0,L|404:113,1,15.000000795722
494,96,293231,2,0,L|489:135,1,40.0000005960464,0|0,3:0|0:0,0:0:0:0:
424,0,293616,38,0,L|215:10,1,160.000002384186,4|0,1:2|1:0,1:0:0:0:
59,164,294000,2,0,B|77:171|77:171|97:168,1,40.0000005960464
154,10,294385,2,0,B|135:2|135:2|115:5,1,40.0000005960464
19,80,294769,6,0,L|228:90,1,160.000002384186,4|0,1:2|1:0,1:0:0:0:
487,269,295154,1,0,0:0:0:0:
487,269,295250,1,0,0:0:0:0:
487,269,295347,2,0,L|489:254,2,15.000000795722,8|0|0,0:0|0:0|0:0,0:0:0:0:
439,184,295539,6,0,B|320:152|320:152|239:244,1,240.000003576278,4|0,1:0|0:0,1:0:0:0:
293,305,295923,2,0,L|307:302,1,15.000000795722
396,318,296116,1,0,0:0:0:0:
396,318,296212,1,0,0:0:0:0:
396,318,296308,2,0,L|387:267,1,40.0000005960464,0|0,3:0|0:0,0:0:0:0:
48,384,296692,6,0,L|65:175,1,160.000002384186,4|0,1:2|1:0,1:0:0:0:
173,25,297077,2,0,L|180:65,1,40.0000005960464
268,57,297462,2,0,L|261:96,1,40.0000005960464
489,254,297846,38,0,L|506:45,1,160.000002384186,4|0,1:2|1:0,1:0:0:0:
294,255,298231,1,0,0:0:0:0:
294,255,298327,1,0,0:0:0:0:
294,255,298423,2,0,L|312:253,2,15.000000795722,8|0|0,0:0|0:0|0:0,0:0:0:0:
337,179,298616,6,0,L|350:338,1,160.000002384186,4|0,1:2|1:0,1:0:0:0:
103,229,299000,1,0,0:0:0:0:
52,166,299192,2,0,L|54:148,1,15.000000795722
158,156,299385,1,0,3:0:0:0:
158,156,299481,1,0,0:0:0:0:
158,156,299577,2,0,L|160:174,1,15.000000795722
134,79,299769,6,0,L|121:238,1,160.000002384186,4|0,1:2|1:0,1:0:0:0:
48,373,300154,2,0,L|9:378,1,40.0000005960464
130,322,300539,2,0,L|169:326,1,40.0000005960464
382,172,300923,6,0,L|369:13,1,160.000002384186,4|0,1:2|1:0,1:0:0:0:
346,297,301308,1,0,0:0:0:0:
346,297,301404,1,0,0:0:0:0:
346,297,301500,2,0,L|347:282,2,15.000000795722,8|0|0,0:0|0:0|0:0,0:0:0:0:
461,228,301692,38,0,B|430:275|430:275|312:250|312:250|305:188,1,240.000003576278,4|0,1:0|0:0,1:0:0:0:
286,180,302077,2,0,L|231:168,1,40.0000005960464
127,142,302462,2,0,L|181:130,1,40.0000005960464,0|0,3:0|0:0,0:0:0:0:
205,331,302846,6,0,L|46:344,1,160.000002384186,4|0,1:2|1:0,1:0:0:0:
227,50,303231,2,0,B|233:72|233:72|230:106,1,40.0000005960464
43,138,303616,2,0,B|37:116|37:116|38:98,1,40.0000005960464
291,155,304000,6,0,L|450:168,1,160.000002384186,4|0,1:2|1:0,1:0:0:0:
430,15,304385,1,0,0:0:0:0:
430,15,304481,1,0,0:0:0:0:
430,15,304577,2,0,L|426:0,2,15.000000795722,8|0|0,0:0|0:0|0:0,0:0:0:0:
512,33,304769,6,0,L|353:46,1,160.000002384186,4|0,1:2|1:0,1:0:0:0:
52,87,305154,2,0,L|99:92,1,40.0000005960464
220,106,305539,2,0,L|172:111,1,40.0000005960464,0|0,3:0|0:0,0:0:0:0:
413,260,305923,38,0,L|254:247,1,160.000002384186,4|0,1:2|1:0,1:0:0:0:
18,331,306308,2,0,L|14:370,1,40.0000005960464
83,254,306692,1,0,0:0:0:0:
83,254,306789,1,0,0:0:0:0:
83,254,306885,2,0,L|84:273,1,15.0000006839633
0,217,307077,6,0,L|159:204,1,160.000002384186,4|0,1:2|1:0,1:0:0:0:
263,74,307462,1,0,0:0:0:0:
263,74,307558,1,0,0:0:0:0:
263,74,307654,2,0,B|283:72|312:89|312:89|309:73|280:61,1,80.0000011920928,8|8,0:0|0:0,0:0:0:0:
263,74,307846,6,2,P|255:205|281:260,1,195.000008484721,4|0,1:0|0:0,1:2:0:0:
281,274,308231,2,0,L|299:272,1,15.000000795722
414,339,308423,2,0,L|395:337,1,15.000000795722
187,246,308616,2,0,L|138:252,1,45.0000023871661,0|0,3:0|0:0,0:0:0:0:
219,182,309000,6,2,P|178:211|130:221,1,100.000001490116,4|0,1:2|0:0,1:2:0:0:
38,189,309192,2,2,P|80:215|129:221,1,100.000001490116,4|0,1:2|0:0,1:2:0:0:
73,71,309385,1,2,0:1:0:0:
73,71,309769,1,8,0:0:0:0:
73,71,309866,1,8,0:0:0:0:
73,71,309962,2,0,L|96:79,1,15.000000795722,8|0,0:0|0:0,0:0:0:0:
273,116,310154,38,2,P|286:68|279:19,1,100.000001490116,4|0,1:2|0:0,1:2:0:0:
278,19,310346,2,2,P|269:67|281:115,1,100.000001490116,4|0,1:2|0:0,1:2:0:0:
371,137,310539,1,8,0:0:0:0:
371,137,310636,1,8,0:0:0:0:
371,137,310732,2,0,L|394:129,1,15.000000795722,8|8,0:0|0:0,0:0:0:0:
408,225,310923,6,2,P|458:224|504:243,1,100.000001490116,4|0,1:2|0:0,1:2:0:0:
509,229,311116,2,2,P|463:210|414:211,1,100.000001490116,4|0,1:2|0:0,1:2:0:0:
444,322,311308,2,0,L|435:304,1,15.000000795722
318,250,311500,2,0,L|302:268,1,15.000000795722
343,370,311693,2,0,L|357:320,1,45.0000023871661,0|0,3:0|0:0,0:0:0:0:
234,159,312077,6,2,P|189:180|157:218,1,100.000001490116,4|0,1:2|0:0,1:2:0:0:
234,158,312269,2,2,P|283:152|330:167,1,100.000001490116,4|0,1:2|0:0,1:2:0:0:
208,30,312462,1,2,0:1:0:0:
208,30,312846,1,8,0:0:0:0:
208,30,312942,1,8,0:0:0:0:
208,30,313039,2,0,L|212:55,1,15.000000795722,8|0,0:0|0:0,0:0:0:0:
97,144,313231,6,2,P|51:163|1:162,1,100.000001490116,4|0,1:2|0:0,1:2:0:0:
101,157,313424,2,2,P|55:176|5:175,1,100.000001490116,4|0,1:2|0:0,1:2:0:0:
0,87,313616,1,8,0:0:0:0:
0,87,313712,1,8,0:0:0:0:
0,87,313809,2,0,L|4:62,1,15.000000795722,8|8,0:0|0:0,0:0:0:0:
134,16,314000,38,4,B|155:53|249:109|330:61|322:-16|266:3|278:37,1,240.000003576278,4|0,1:0|0:0,1:2:0:0:
338,110,314385,1,8,0:0:0:0:
338,110,314481,1,8,0:0:0:0:
338,110,314577,2,0,L|352:111,1,15.000000795722,8|0,0:0|0:0,0:0:0:0:
507,80,314769,2,0,L|512:35,1,45.0000023871661,0|0,3:0|0:0,0:0:0:0:
419,0,315154,6,2,P|415:47|439:105,1,100.000001490116,4|0,1:2|0:0,1:2:0:0:
446,191,315346,2,2,P|450:143|426:86,1,100.000001490116,4|0,1:2|0:0,1:2:0:0:
344,268,315539,1,2,0:1:0:0:
344,268,315923,1,8,0:0:0:0:
344,268,316019,1,8,0:0:0:0:
344,268,316115,2,0,L|329:269,1,15.000000795722,8|0,0:0|0:0,0:0:0:0:
102,289,316308,6,2,P|142:260|191:250,1,100.000001490116,4|0,1:2|0:0,1:2:0:0:
95,251,316501,2,2,P|143:260|191:249,1,100.000001490116,4|0,1:2|0:0,1:2:0:0:
0,288,316692,1,8,0:0:0:0:
0,288,316789,1,8,0:0:0:0:
0,288,316885,2,0,L|23:296,1,15.000000795722,8|8,0:0|0:0,0:0:0:0:
283,234,317077,6,2,P|300:280|296:330,1,100.000001490116,4|0,1:2|0:0,1:2:0:0:
283,234,317269,2,2,P|265:187|269:137,1,100.000001490116,4|0,1:2|0:0,1:2:0:0:
398,68,317462,2,0,L|416:77,1,15.000000795722
470,194,317654,2,0,L|452:210,1,15.000000795722
350,169,317847,2,0,L|400:155,1,45.0000023871661,0|0,3:0|0:0,0:0:0:0:
479,15,318231,38,2,P|498:60|497:110,1,100.000001490116,4|0,1:2|0:0,1:2:0:0:
512,105,318424,2,2,P|512:55|493:9,1,100.000001490116,4|0,1:2|0:0,1:2:0:0:
285,107,318616,1,2,0:1:0:0:
285,107,319000,1,8,0:0:0:0:
285,107,319096,1,8,0:0:0:0:
285,107,319192,2,0,L|270:102,1,15.000000795722,8|0,0:0|0:0,0:0:0:0:
83,163,319385,6,2,P|63:208|64:258,1,100.000001490116,4|0,1:2|0:0,1:2:0:0:
50,253,319578,2,2,P|49:203|68:157,1,100.000001490116,4|0,1:2|0:0,1:2:0:0:
11,83,319769,2,0,L|25:78,1,15.000000795722
211,250,319962,2,0,L|196:245,1,15.000000795722,8|8,0:0|0:0,0:0:0:0:
146,45,320154,6,0,L|151:104,1,60.0000008940696,4|0,1:0|0:0,0:0:0:0:
151,104,320539,2,0,L|219:98,1,60.0000008940696,0|0,1:0|0:0,0:0:0:0:
426,88,320923,2,0,L|420:156,1,60.0000008940696,8|0,1:0|0:0,0:0:0:0:
421,147,321308,2,0,L|353:141,1,60.0000008940696,4|0,1:0|0:0,0:0:0:0:
160,216,321692,2,0,L|55:206,1,105.00000256598,8|0,1:0|0:0,0:0:0:0:
14,221,322077,2,0,L|119:211,1,105.00000256598,0|0,1:0|0:0,0:0:0:0:
346,271,322462,2,0,L|451:261,1,105.00000256598,12|0,1:0|0:0,0:0:0:0:
491,276,322847,2,0,L|387:267,1,105.00000256598,8|0,1:2|0:0,0:0:0:0:
159,341,323231,6,0,B|90:309|90:309|27:358,1,150.000001117587,12|0,1:0|0:0,0:0:0:0:
31,354,323616,2,0,L|51:160,1,150.000002235174,8|0,1:2|0:0,0:0:0:0:
347,32,324000,2,0,L|332:182,1,150.000002235174,12|0,1:2|0:0,0:0:0:0:
411,231,324385,2,0,B|445:263|445:263|419:158,1,150.000001117587,12|0,1:0|0:0,0:0:0:0:
202,5,324769,2,0,B|8:26,1,195.000007031858,12|0,1:0|0:0,0:0:0:0:
25,44,325154,2,0,B|218:24,1,165.000002802908,12|0,1:2|0:0,0:0:0:0:
323,191,325539,2,0,L|83:169,1,195.000008484721,12|0,1:0|0:0,0:0:0:0:
12,327,325923,2,0,L|275:351,1,225.000007040799,4|0,1:2|0:0,0:0:0:0:
312,301,326308,37,4,1:0:0:0:
312,301,326500,1,0,1:0:0:0:
312,301,326692,1,0,1:0:0:0:
312,301,326885,1,0,1:0:0:0:
394,258,327077,5,4,1:2:0:0:
337,204,327269,1,0,1:0:0:0:
261,213,327462,1,4,1:2:0:0:
219,279,327654,1,0,1:0:0:0:
93,160,327846,5,4,1:0:0:0:
93,160,328038,1,0,1:0:0:0:
93,160,328230,1,0,1:0:0:0:
93,160,328423,1,0,1:0:0:0:
11,117,328616,5,4,1:2:0:0:
78,58,328808,1,0,1:0:0:0:
163,84,329000,1,0,1:0:0:0:
186,171,329192,1,0,1:0:0:0:
236,316,329385,37,4,1:0:0:0:
236,316,329481,1,0,1:0:0:0:
236,316,329577,1,0,1:0:0:0:
236,316,329673,1,0,1:0:0:0:
236,316,329770,1,0,1:0:0:0:
248,305,329866,1,0,1:0:0:0:
265,302,329962,1,0,1:0:0:0:
280,309,330058,1,0,1:0:0:0:
363,352,330154,5,0,3:0:0:0:
369,293,330250,1,0,3:0:0:0:
375,236,330346,1,0,3:0:0:0:
313,191,330443,1,0,3:0:0:0:
343,157,330539,5,0,3:0:0:0:
341,134,330635,1,0,3:0:0:0:
339,111,330731,1,0,3:0:0:0:
336,88,330827,1,0,3:0:0:0:
246,34,330923,5,6,0:0:0:0:
228,58,331019,1,0,0:0:0:0:
237,24,331115,37,0,0:0:0:0:
239,65,331212,1,0,0:0:0:0:
219,36,331307,5,2,0:0:0:0:
257,56,331403,1,0,0:0:0:0:
213,54,331499,5,0,0:0:0:0:
259,33,331596,1,0,0:0:0:0:
236,53,331692,54,0,B|221:180|274:124|253:261,1,210.000011140108,2|0,0:1|0:0,1:0:0:0:
171,313,332462,54,0,P|156:309|141:310,1,30.0000004470348,4|0,1:2|0:0,0:0:0:0:
141,310,333039,2,0,P|250:344|346:321,1,210.00000513196,8|0,1:1|0:0,0:0:0:0:
450,69,333616,6,0,L|446:32,1,30.0000004470348,0|0,1:0|0:0,0:1:0:0:
447,40,334192,2,2,B|436:150|436:150|471:29,1,200.000002980232,10|0,0:1|0:0,0:1:0:0:
245,71,334769,70,2,L|260:69,1,15.0000001117587,0|0,1:0|0:0,0:0:0:0:
162,72,335154,2,0,L|147:70,1,15.0000001117587,8|0,1:1|0:0,0:0:0:0:
200,7,335539,2,0,B|223:126|158:110|188:239,1,210.00000513196,0|0,1:0|0:0,0:0:0:0:
183,213,336116,2,0,B|141:249|134:303|134:303|141:248|112:201,1,210.00000513196,8|0,1:0|0:0,0:0:0:0:
435,288,336692,6,0,P|415:288|404:293,1,30.0000004470348,0|0,1:0|0:0,0:0:0:0:
406,291,337269,2,2,B|452:331|531:311|531:311|494:308|466:281,1,200.000002980232,10|0,0:1|0:0,0:1:0:0:
183,202,337846,70,2,P|149:151|162:66,1,140.000003421306,0|0,1:0|0:0,0:0:0:0:
480,63,338231,2,0,P|489:131|453:189,1,140.000003421306,8|0,1:0|0:0,0:0:0:0:
452,189,338616,38,0,L|435:185,10,17.5000002972782
386,112,339192,54,0,B|318:167|318:167|229:137,1,180.000009548664,8|0,1:0|0:0,0:0:0:0:
57,51,339769,70,2,L|37:56,1,20.0000002980232,0|0,1:0|0:0,0:0:0:0:
37,57,340346,2,2,B|175:82|175:82|91:40,1,200.000002980232,10|0,0:1|0:0,0:1:0:0:
57,286,340923,6,2,B|52:328|71:314|65:349,1,60.0000031828881,0|0,1:0|0:0,1:2:0:0:
66,345,341308,2,2,B|76:266|76:266|57:230|57:230|29:259|29:259|18:338,1,240.000003576278,8|0,1:1|0:0,1:0:0:0:
143,379,341692,70,0,B|171:368|171:368|207:373,1,60.0000008940696,0|0,1:0|0:0,0:0:0:0:
200,372,342269,2,0,P|207:320|206:271,1,100.000001490116,8|0,0:1|0:0,1:0:0:0:
351,195,342846,6,0,B|380:190|380:190|408:201,1,60.0000008940696,0|0,1:0|0:0,0:0:0:0:
408,201,343423,2,2,B|393:76|451:135|431:-2,1,200.000002980232,10|0,0:1|0:0,0:1:0:0:
433,7,344000,2,2,L|403:4,1,30.000001591444,0|0,1:0|0:0,0:0:0:0:
473,309,344385,2,0,L|502:306,1,30.000001591444,8|0,1:0|0:0,0:0:0:0:
180,79,344769,70,2,B|255:123|338:93|338:93|305:84,1,200.000002980232,0|0,1:0|0:0,0:2:0:0:
233,59,345346,2,2,B|215:129|254:116|241:178,1,120.000001788139,8|0,1:0|0:0,0:2:0:0:
267,371,345923,6,2,L|263:334,1,30.0000004470348,0|0,1:0|0:0,0:0:0:0:
263,341,346500,2,2,B|290:311|325:309|325:309|257:288|217:353,1,200.000002980232,10|0,0:1|0:0,0:1:0:0:
54,244,347077,70,0,L|43:154,1,90.0000047743321,0|0,1:0|0:0,0:0:0:0:
79,36,347462,2,0,L|54:252,1,210.00000513196,8|0,1:0|0:0,1:0:0:0:
57,322,347846,2,2,L|24:317,1,30.0000004470348,0|0,1:0|0:0,0:0:0:0:
27,317,348423,2,0,P|95:332|205:291,1,180.000009548664,8|0,1:0|0:0,0:0:0:0:
412,86,349000,6,2,P|361:93|325:75,1,90.0000047743321,0|0,1:0|0:0,0:2:0:0:
328,77,349577,2,2,B|373:140|373:257|295:207|321:154,1,200.000002980232,10|0,0:1|0:0,0:1:0:0:
321,156,350154,70,2,P|379:120|447:129,1,140.000003421306,0|0,1:0|0:0,0:0:0:0:
462,371,350539,2,2,P|393:381|335:345,1,140.000003421306,8|0,1:0|0:0,0:0:0:0:
335,345,350924,70,0,L|336:327,10,17.5000002972782
256,237,351500,22,0,L|455:264,1,180.000009548664,8|0,1:0|0:0,0:0:0:0:
494,12,352077,70,2,L|498:41,1,30.0000004470348,0|0,1:0|0:0,0:0:0:0:
499,42,352654,2,2,L|300:69,1,200.000002980232,10|0,0:1|0:0,0:1:0:0:
178,304,353231,6,2,B|150:301|150:301|115:316,1,60.0000008940696,0|0,1:0|0:0,0:0:0:0:
68,292,353616,2,2,B|96:289|96:289|131:304,1,60.0000008940696,8|0,1:0|0:0,0:0:0:0:
122,330,354000,2,0,B|106:212|157:253|138:120,1,210.00000513196,0|0,1:0|0:0,0:0:0:0:
138,123,354577,2,0,B|123:116|116:99|116:99|98:111|78:112|78:112|85:132|82:150|82:150|101:148|115:157|115:157|124:135|140:129,1,180.000009548664,8|0,1:1|0:0,0:0:0:0:
358,134,355154,70,2,B|365:75|340:95|349:29,1,90.0000047743321,0|0,1:0|0:0,0:0:0:0:
348,45,355731,2,2,B|444:10|444:10|498:100,1,200.000002980232,10|0,0:1|0:0,0:1:0:0:
455,175,356308,69,2,1:0:0:0:
65,138,356500,1,2,1:0:0:0:
65,138,356885,22,0,B|93:141|104:135|104:135|91:130,1,50.000000372529
65,138,357077,2,0,P|51:228|162:283,1,210.00000513196,4|0,1:0|0:0,0:0:0:0:
169,282,357654,2,0,P|135:270|95:276,1,70.0000017106532,8|0,1:0|0:0,0:0:0:0:
113,373,357846,2,0,P|124:376|144:375,1,30.0000004470348,0|0,3:0|0:0,0:0:0:0:
381,185,358231,70,0,P|467:234|456:333,1,210.00000513196,0|0,1:0|0:0,0:0:0:0:
444,343,358808,2,2,L|462:345,1,15.000000795722,10|0,0:1|0:0,1:0:0:0:
462,356,358904,2,0,P|447:352|433:352,1,30.000001591444,0|0,3:0|0:0,1:0:0:0:
319,253,359385,6,0,P|324:177|327:85,1,150.000001117587,0|0,1:0|0:0,0:0:0:0:
341,70,359770,2,0,L|338:106,1,30.0000002235174,8|0,1:0|0:0,0:0:0:0:
237,172,360154,70,0,B|129:189|148:121|18:147,1,210.00000513196,0|0,1:0|0:0,0:0:0:0:
18,134,360731,2,0,P|54:127|94:133,1,70.0000017106532,8|0,1:0|0:0,0:0:0:0:
58,241,360923,2,0,L|56:212,1,30.0000002235174,0|0,3:0|0:0,0:0:0:0:
215,68,361308,6,0,B|290:106|406:80|374:37|316:35|282:62,1,210.00000513196,0|0,1:0|0:0,0:0:0:0:
286,43,361885,2,2,L|283:61,1,15.000000795722,10|0,0:1|0:0,1:0:0:0:
269,63,361981,2,0,P|269:48|273:33,1,30.000001591444,0|0,0:0|0:0,1:0:0:0:
420,255,362462,70,0,L|450:258,1,30.000001591444,0|0,1:0|0:0,0:0:0:0:
450,259,362846,37,8,1:1:0:0:
429,300,362942,1,0,0:0:0:0:
385,305,363038,1,0,0:0:0:0:
356,271,363134,1,0,0:0:0:0:
359,228,363231,2,0,L|372:226,2,10.0000001490116
427,0,363808,54,0,P|492:84|482:156,1,180.000009548664,12|0,1:0|0:0,0:0:0:0:
475,170,364385,2,0,B|489:162|489:162|503:164,1,30.000001591444,0|0,1:0|0:0,0:0:0:0:
511,177,364481,2,0,B|489:175|489:175|477:180|477:180|453:177,1,60.0000027358533,0|0,3:0|0:0,0:0:0:0:
187,275,364962,2,2,L|168:277,1,15.000000795722,10|0,0:1|0:0,1:0:0:0:
168,288,365058,2,0,P|182:283|197:283,1,30.000001591444,0|0,3:0|0:0,1:0:0:0:
381,362,365539,70,0,B|396:232|396:232|234:202,1,270.000014322996,0|0,1:0|0:0,0:0:0:0:
98,340,365924,2,2,B|27:367|27:367|100:357,1,150.000002235174,8|0,1:1|0:0,1:0:0:0:
231,292,366308,6,0,B|247:164|181:206|200:88,1,210.00000513196,0|0,1:0|0:0,0:0:0:0:
217,73,366885,2,0,P|222:108|213:140,1,70.0000017106532,8|0,1:0|0:0,0:0:0:0:
217,73,367077,2,0,P|208:59|192:49,1,35.0000005215406,0|0,3:0|0:0,1:0:0:0:
0,118,367462,70,0,B|-22:94|-22:94|43:121|116:109|116:109|77:135,1,210.00000513196,0|0,1:0|0:0,0:0:0:0:
87,153,368038,2,0,P|72:122|82:79,1,70.0000017106532,10|0,1:0|0:0,0:0:0:0:
192,99,368231,2,0,P|196:108|194:123,1,22.500001193583,0|0,3:0|0:0,0:0:0:0:
36,216,368616,22,0,L|20:214,1,10.0000001490116,0|0,1:0|0:0,0:0:0:0:
450,199,369000,6,0,L|467:197,1,10.0000001490116,8|0,0:1|0:0,0:0:0:0:
133,226,369385,21,0,1:0:0:0:
126,239,369481,1,0,3:0:0:0:
131,252,369577,1,2,3:2:0:0:
108,292,369673,2,0,L|81:297,2,20.0000002980232,0|8|8,0:0|0:0|0:0,0:0:0:0:
186,354,369962,6,0,B|302:362|260:276|388:291,1,210.00000513196,4|0,1:0|0:0,0:0:0:0:
395,299,370539,2,0,P|360:306|313:294,1,70.0000017106532,8|0,1:0|0:0,0:0:0:0:
344,188,370731,2,0,P|361:185|381:191,1,30.0000004470348,0|0,3:0|0:0,0:0:0:0:
477,44,371116,2,2,L|495:41,1,15.000000795722,10|0,0:1|0:0,1:0:0:0:
495,30,371212,2,0,P|480:34|465:34,1,30.000001591444,0|0,3:0|0:0,0:0:0:0:
256,106,371692,6,2,B|338:172|338:172|440:151,1,210.00000513196,0|0,1:0|0:0,1:0:0:0:
423,168,372077,2,0,B|334:186|334:186|264:129,1,180.000009548664,8|0,1:0|0:0,1:0:0:0:
172,65,372462,70,0,P|103:137|130:234,1,210.00000513196,0|0,1:0|0:0,0:0:0:0:
113,262,373039,2,0,P|135:251|160:249,1,50.000000745058,8|0,1:0|0:0,0:0:0:0:
302,357,373231,2,0,P|291:353|278:355,1,22.500001193583,0|0,3:0|0:0,0:0:0:0:
402,135,373616,6,0,P|497:231|477:296,1,210.00000513196,0|0,1:0|0:0,0:0:0:0:
452,310,374192,2,2,B|469:309|469:309|484:319,1,35.0000008553266,10|0,0:1|0:0,1:0:0:0:
503,317,374289,2,0,B|472:294|472:294|435:297,1,70.0000017106532,0|0,3:0|0:0,0:0:0:0:
352,253,374769,2,0,L|347:201,1,52.5000012829899,0|0,1:0|0:0,0:0:0:0:
367,344,375154,21,8,1:0:0:0:
330,384,375250,1,0,0:0:0:0:
279,365,375346,1,0,0:0:0:0:
276,315,375442,1,0,0:0:0:0:
276,316,375539,2,0,L|291:311,4,17.5000002972782
183,149,375827,21,2,0:0:0:0:
147,123,375923,1,0,3:0:0:0:
100,139,376019,1,0,3:0:0:0:
76,182,376116,2,0,L|113:187,1,20.0000002980232,0|4,1:0|3:0,0:0:0:0:
0,198,376308,6,0,L|214:223,1,210.00000513196,4|0,1:0|0:0,0:0:0:0:
411,165,376692,2,0,L|208:221,1,210.00000513196,4|0,1:0|0:0,0:0:0:0:
213,239,377077,2,0,L|216:254,1,15.0000002235174,4|0,1:2|0:0,0:0:0:0:
219,270,377462,1,8,0:0:0:0:
435,290,377654,6,0,P|413:290|391:298,1,40.0000005960464,4|0,1:0|0:0,0:0:0:0:
512,310,378039,1,8,0:0:0:0:
496,223,378231,2,0,L|493:235,1,10.0000001490116,4|0,1:2|0:0,0:0:0:0:
480,186,378423,1,0,3:0:0:0:
500,157,378519,1,0,3:0:0:0:
480,93,378616,70,0,L|493:233,1,140.000003421306,4|0,1:0|0:0,0:0:0:0:
317,333,378904,2,0,L|294:328,1,20.0000002980232,8|0,0:0|0:0,0:0:0:0:
250,384,379192,6,0,L|263:244,1,140.000003421306,4|0,1:0|0:0,0:0:0:0:
70,122,379481,2,0,L|51:126,1,20.0000002980232,8|0,0:0|0:0,0:0:0:0:
104,199,379769,70,0,L|91:59,1,140.000003421306,4|0,1:0|0:0,0:0:0:0:
54,275,380058,5,8,0:0:0:0:
71,307,380154,1,0,3:0:0:0:
107,314,380250,1,0,3:0:0:0:
139,290,380346,2,0,L|112:293,1,20.0000002980232,4|0,1:0|0:0,0:0:0:0:
213,150,380635,69,8,0:0:0:0:
235,121,380731,1,0,3:0:0:0:
272,121,380827,1,0,3:0:0:0:
304,149,380923,2,0,L|229:135,1,70.0000017106532,4|0,1:0|0:0,0:0:0:0:
372,136,381116,2,0,L|303:148,1,70.0000017106532,8|8,0:0|0:0,0:0:0:0:
456,185,381308,70,0,L|460:186,1,5.0000000745058,2|0,3:1|0:0,0:0:0:0:
83,99,381500,2,0,L|78:100,1,5.0000000745058,2|0,3:1|0:0,0:0:0:0:
305,39,381692,53,4,1:2:0:0:
