osu file format v5

[General]
AudioFilename: newhouse.mp3
AudioLeadIn: 0
PreviewTime: -1
Countdown: 1
SampleSet: Normal
StackLeniency: 0.7
Mode: 0
EditorBookmarks: 2497

[Metadata]
Title:newhouse
Artist:sakiki
Creator:sakiki
Version:Hard
Source:
Tags:

[Difficulty]
HPDrainRate:2
CircleSize:5
OverallDifficulty:5
SliderMultiplier:2.5
SliderTickRate:4

[Events]
//Background and Video events
1,0,"mewhouse.avi"
//Break Periods
2,97470,104070
//Storyboard Layer 0 (Background)
//Storyboard Layer 1 (Failing)
//Storyboard Layer 2 (Passing)
//Storyboard Layer 3 (Foreground)
//Storyboard Sound Samples
//Background Colour Transformations
3,100,163,162,255

[TimingPoints]
17270,500,4,1,0,100

[HitObjects]
96,96,17270,5,0
160,160,17770,1,0
256,128,18270,1,0
352,128,18520,1,0
448,192,18770,1,0
384,256,19270,5,0
288,288,19770,1,0
192,256,20270,1,0
144,210,20520,1,0
65,239,20770,1,0
96,96,21270,5,0
160,160,21770,1,0
256,128,22270,1,0
352,128,22520,1,0
448,192,22770,1,0
384,256,23270,5,0
288,288,23770,1,0
192,256,24270,1,0
144,210,24520,1,0
65,239,24770,1,0
71,108,25270,5,0
142,57,25770,2,0,B|184:94|232:96|262:98|256:93,1,125
361,84,26270,1,0
424,160,26770,2,0,B|400:216|337:235|337:235|345:235|345:235,2,125
408,72,27770,1,0
304,39,28270,1,0
201,78,28770,1,0
105,87,29270,1,0
52,174,29770,5,0
97,234,30270,1,0
168,264,30770,1,0
208,275,31020,1,0
248,275,31270,1,0
331,268,31770,1,0
398,212,32270,2,0,B|444:160|445:95,2,125
417,265,33270,5,0
470,144,33770,2,0,B|428:50|252:28|119:34|64:100|23:174,1,500
97,272,35270,1,0
43,165,35770,2,0,B|119:45|246:22|380:37|484:163|484:277,1,500
414,199,37270,5,0
334,288,37520,1,0
263,195,37770,1,0
173,286,38020,1,0
84,192,38270,1,0
84,192,38770,1,0
128,96,39270,5,0
256,192,39520,1,0
384,288,39770,1,0
384,96,40270,1,0
256,192,40520,1,0
128,288,40770,1,0
64,64,41270,5,0
192,128,41770,1,0
64,192,42270,1,0
192,256,42770,1,0
320,256,43270,5,0
448,192,43770,1,0
320,128,44270,1,0
448,64,44770,1,0
320,64,45270,5,0
224,64,45770,2,0,B|0:192,1,250
128,192,46770,1,0
192,160,47270,2,0,B|480:32|416:64,1,250
416,160,48270,1,0
320,224,48770,1,0
192,256,49270,5,0
96,224,49770,2,0,B|64:128|192:96|160:96,2,125
192,256,50770,5,0
96,224,51270,2,0,B|64:128|192:96|160:96,2,125
192,256,52270,1,0
256,256,52770,1,0
352,256,53270,5,0
352,192,53770,1,0
384,128,54270,2,0,B|256:96,2,125
352,192,55270,1,0
384,128,55770,2,0,B|256:96,2,125
416,192,56770,1,0
416,256,57270,1,0
320,288,57770,5,0
224,288,58270,2,0,B|32:128|224:32|256:64,3,250
256,64,60270,1,0
320,64,60770,1,0
416,128,61270,5,0
416,256,61520,1,0
352,224,61770,1,0
288,256,62020,1,0
224,224,62270,1,0
160,256,62520,1,0
96,224,62770,1,0
32,256,63020,1,0
32,160,63270,2,0,B|256:0|512:160,1,500
448,224,65270,5,0
96,224,66270,1,0
64,96,67270,1,0
160,96,67770,1,0
256,96,68270,1,0
352,96,68770,1,0
448,160,69270,5,0
64,160,70270,1,0
64,256,71270,1,0
160,256,71770,1,0
256,256,72270,1,0
352,256,72770,1,0
448,256,73270,5,0
448,64,74270,1,0
320,64,75270,1,0
320,128,75770,1,0
320,192,76270,1,0
320,256,76770,1,0
192,256,77270,5,0
192,64,78270,1,0
96,64,79270,1,0
96,128,79770,1,0
96,192,80270,1,0
96,256,80770,1,0
160,256,81270,5,0
416,256,82270,1,0
416,128,83270,1,0
320,128,83770,1,0
256,128,84270,1,0
192,192,84520,1,0
128,128,84770,1,0
64,64,85270,5,0
256,64,86270,1,0
384,64,87270,1,0
384,128,87770,1,0
384,192,88270,1,0
448,256,88520,1,0
384,320,88770,1,0
288,320,89270,5,0
128,320,90270,1,0
128,224,91270,1,0
128,96,91770,1,0
224,96,92270,1,0
256,192,92520,1,0
288,96,92770,1,0
320,192,93020,1,0
256,192,93270,12,4,97270
64,128,105270,5,0
160,128,105770,1,0
256,128,106270,1,0
352,128,106770,1,4
416,224,107270,5,4
320,224,107770,1,4
224,224,108270,1,4
128,224,108770,1,4
64,160,109270,5,4
128,64,109770,1,4
192,160,110270,1,4
256,64,110770,1,4
320,160,111270,5,4
256,288,111770,1,4
192,160,112270,1,4
128,288,112770,1,4
448,224,113270,5,0
96,224,114270,1,0
64,96,115270,1,0
160,96,115770,1,0
256,96,116270,1,0
352,96,116770,1,0
448,160,117270,5,0
64,160,118270,1,0
64,256,119270,1,0
160,256,119770,1,0
256,256,120270,1,0
352,256,120770,1,0
448,256,121270,5,0
448,64,122270,1,0
320,64,123270,1,0
320,128,123770,1,0
320,192,124270,1,0
320,256,124770,1,0
192,256,125270,5,0
192,64,126270,1,0
96,64,127270,1,0
96,128,127770,1,0
96,192,128270,1,0
96,256,128770,1,0
160,256,129270,5,0
416,256,130270,1,0
416,128,131270,1,0
320,128,131770,1,0
256,128,132270,1,0
192,192,132520,1,0
128,128,132770,1,0
64,64,133270,5,0
256,64,134270,1,0
384,64,135270,1,0
384,128,135770,1,0
384,192,136270,1,0
448,256,136520,1,0
384,320,136770,1,0
288,320,137270,5,0
128,320,138270,1,0
128,224,139270,1,0
128,96,139770,1,0
224,96,140270,1,0
256,192,140520,1,0
288,96,140770,1,0
320,192,141020,1,0
256,192,141270,12,4,145270
96,224,146270,1,0
64,96,147270,1,0
160,96,147770,1,0
256,96,148270,1,0
352,96,148770,1,0
448,160,149270,5,0
64,160,150270,1,0
64,256,151270,1,0
160,256,151770,1,0
256,256,152270,1,0
352,256,152770,1,0
448,256,153270,5,0
448,64,154270,1,0
320,64,155270,1,0
320,128,155770,1,0
320,192,156270,1,0
320,256,156770,1,0
192,256,157270,5,0
192,64,158270,1,0
96,64,159270,1,0
96,128,159770,1,0
96,192,160270,1,0
96,256,160770,1,0
160,256,161270,5,0
416,256,162270,1,0
416,128,163270,1,0
320,128,163770,1,0
256,128,164270,1,0
192,192,164520,1,0
128,128,164770,1,0
64,64,165270,5,0
256,64,166270,1,0
384,64,167270,1,0
384,128,167770,1,0
384,192,168270,1,0
448,256,168520,1,0
384,320,168770,1,0
288,320,169270,5,0
128,320,170270,1,0
128,224,171270,1,0
128,96,171770,1,0
224,96,172270,1,0
256,192,172520,1,0
288,96,172770,1,0
320,192,173020,1,0
256,192,173270,12,4,177270
416,128,178270,1,0
416,224,178770,1,0
224,224,179270,1,0
32,224,179770,1,0
160,64,180270,1,0
352,64,180770,1,0
384,256,181270,5,0
128,256,182270,1,0
128,128,183270,1,0
224,64,183770,1,0
224,288,184270,1,0
320,224,184770,1,0
448,96,185270,5,0
448,160,185770,2,0,B|448:288,1,125
384,288,186270,1,0
384,224,186770,2,0,B|384:96,1,125
320,96,187270,1,0
320,160,187770,1,0
320,224,188270,1,0
320,288,188770,1,0
224,288,189270,5,0
160,288,189520,1,0
96,288,189770,1,0
32,288,190020,1,0
32,192,190270,1,0
128,192,190770,1,0
224,192,191270,1,0
448,64,193270,5,0
320,128,193770,1,0
448,192,194270,1,0
320,256,194770,1,0
224,256,195270,1,0
160,256,195520,1,0
96,256,195770,1,0
32,256,196020,1,0
32,160,196270,1,0
32,64,196770,1,0
128,64,197270,5,0
224,64,197770,1,0
320,64,198270,1,0
416,64,198770,1,0
416,160,199270,1,0
416,224,199520,1,0
416,288,199770,1,0
416,352,200020,1,0
320,352,200270,1,0
224,352,200770,1,0
96,352,201270,5,0
96,32,202270,1,0
448,352,203270,1,0
448,32,204270,1,0
256,192,205270,12,0,208770
64,64,209270,5,0
448,64,210270,1,0
448,64,211270,2,0,B|64:64|256:256|192:224,1,250
224,256,212270,2,0,B|416:256|448:160,1,250
64,64,213270,5,0
448,64,214270,1,0
448,64,215270,2,0,B|64:64|256:256|192:224,1,250
224,256,216270,2,0,B|416:256|448:160,1,250
64,224,217270,5,0
64,64,218270,1,0
160,64,219270,1,0
256,192,219770,1,0
256,64,220270,1,0
160,192,220770,1,0
256,192,221270,12,0,225270
