osu file format v5

[General]
AudioFilename: kisekinoumi.mp3
AudioLeadIn: 982
PreviewTime: -1
Countdown: 1
SampleSet: Normal
StackLeniency: 0.7
Mode: 0
LetterboxInBreaks: 1
EditorBookmarks: 82496

[Metadata]
Title:kisekinoumi - roodisutousenki
Artist:sakamoto maaya
Creator:silencefrost
Version:Normal
Source:
Tags:

[Difficulty]
HPDrainRate:5
CircleSize:5
OverallDifficulty:5
SliderMultiplier:0.999999999999999
SliderTickRate:0.5

[Events]
//Background and Video events
0,0,"roodosutousenki.JPG"
//Break Periods
2,82549,90324
2,156656,171488
//Storyboard Layer 0 (Background)
//Storyboard Layer 1 (Failing)
//Storyboard Layer 2 (Passing)
//Storyboard Layer 3 (Foreground)
//Storyboard Sound Samples
//Background Colour Transformations
3,100,163,162,255

[TimingPoints]
480,705.774418604653,4,1,0,100

[HitObjects]
160,192,13889,5,6
352,192,16007,5,2
416,192,17418,5,4
256,192,18830,1,0
96,192,20241,1,0
96,96,22359,5,4
256,96,23770,1,0
416,96,25182,1,0
416,288,26593,5,4
256,288,28005,1,0
96,288,29416,1,0
96,192,30828,5,4
256,96,32239,1,0
416,192,33651,1,0
416,192,35062,5,4
256,288,36474,1,0
96,192,37886,1,0
256,96,39297,5,4
256,192,40709,1,0
256,288,42120,1,0
96,288,43532,5,4
160,224,44943,1,0
352,160,46355,1,0
416,96,47766,1,6
416,96,49884,6,0,B|384:192|320:160,1,99.9999999999999
416,288,51295,2,0,B|384:192|256:224,1,99.9999999999999
288,192,52707,1,0
96,288,54118,6,4,B|128:192|192:224,1,99.9999999999999
96,96,55530,2,4,B|128:192|192:160,1,99.9999999999999
224,192,56941,1,4
64,288,58353,6,4,B|256:192|480:288,1,400
416,96,62588,6,4,B|224:160|0:64,1,400
352,256,66822,6,4,B|256:192,1,99.9999999999999
160,256,68234,2,4,B|256:192,1,99.9999999999999
256,192,69645,1,0
160,128,71057,6,4,B|256:192,1,99.9999999999999
352,128,72468,2,4,B|256:192,1,99.9999999999999
256,192,73880,1,0
352,256,75292,5,4
256,256,76703,1,0
160,256,78115,1,0
160,128,79526,5,4
256,128,80938,1,0
352,128,82349,1,6
320,128,91524,5,4
320,256,92936,1,0
192,256,94347,1,0
192,128,95759,1,0
96,192,96465,5,4
256,192,97876,1,0
416,192,99288,1,0
416,96,100699,5,4
256,96,102111,1,0
96,96,103523,1,0
96,288,104934,5,4
256,288,106346,1,0
416,288,107757,1,0
416,288,109169,5,4
416,192,110580,1,0
416,96,111992,1,0
96,96,113403,5,4
96,192,114815,1,0
96,288,116227,1,0
256,288,117638,5,4
256,192,119050,1,0
256,192,120461,12,6,122578
192,160,123990,5,4
256,96,125402,1,0
320,160,126813,1,0
320,224,128225,5,4
256,288,129636,1,0
192,224,131048,1,0
64,192,132459,6,6,B|256:96|480:192|448:192,1,400
416,192,136694,6,0,B|256:320|32:192,1,400
96,288,140929,6,0,B|96:160|96:192,1,99.9999999999999
96,192,142340,2,0,B|96:64|96:96,1,99.9999999999999
96,96,143752,1,0
416,96,145163,6,0,B|416:224|416:192,1,99.9999999999999
416,192,146575,2,0,B|416:320|416:288,1,99.9999999999999
416,288,147986,1,0
352,256,149398,6,0,B|256:192,1,99.9999999999999
160,128,150809,2,0,B|256:192,1,99.9999999999999
256,192,152221,1,0
352,128,153633,6,4,B|256:192,1,99.9999999999999
160,256,155044,2,4,B|256:192,1,99.9999999999999
256,192,156456,1,6
96,192,172688,2,6,B|256:64|480:64,1,400
416,192,176923,6,6,B|256:320|32:288|32:288|64:288,1,400
384,96,181158,5,4
384,192,182569,1,0
384,288,183981,1,0
288,288,185392,5,4
288,192,186804,1,0
288,96,188215,1,0
192,96,189627,5,4
192,192,191039,1,0
192,288,192450,1,0
96,288,193862,5,4
96,192,195273,1,0
96,96,196685,1,0
160,128,198096,5,4
256,128,199508,1,0
352,128,200919,1,0
320,224,202331,5,4
192,224,203743,1,0
256,192,205154,12,0,207271
